osu file format v14

[General]
AudioFilename: audio.mp3
AudioLeadIn: 0
PreviewTime: 7066
Countdown: 0
SampleSet: Normal
StackLeniency: 0.7
Mode: 1
LetterboxInBreaks: 0
WidescreenStoryboard: 1

[Editor]
Bookmarks: 7800,14513,21226,27940,34653,56471,63184,69898,76611
DistanceSpacing: 1.2
BeatDivisor: 4
GridSize: 32
TimelineZoom: 0.8999999

[Metadata]
Title:only my railgun (TV Size)
TitleUnicode:only my railgun (TV Size)
Artist:fripSide
ArtistUnicode:fripSide
Creator:BlackBq
Version:Kantan
Source:とある科学の超電磁砲
Tags:anime japanese j-pop jpop opening a certain scientific railgun toaru kagaku no rērugan rerugan reerugan 御坂美琴 佐藤利奈 misaka mikoto satō sato satou rina
BeatmapID:2954442
BeatmapSetID:1430409

[Difficulty]
HPDrainRate:8.5
CircleSize:2
OverallDifficulty:3
ApproachRate:10
SliderMultiplier:1.4
SliderTickRate:1

[Events]
//Background and Video events
0,0,"639712.jpg",0,20
Video,0,"hanade.mp4"
//Break Periods
//Storyboard Layer 0 (Background)
//Storyboard Layer 1 (Fail)
//Storyboard Layer 2 (Pass)
//Storyboard Layer 3 (Foreground)
//Storyboard Layer 4 (Overlay)
//Storyboard Sound Samples

[TimingPoints]
1087,419.58041958042,4,1,0,80,1,0
4338,-100,4,1,0,85,0,0
6541,-100,4,1,0,90,0,0
7695,-100,4,1,0,95,0,0
7800,-100,4,1,0,95,0,1
26121,-100,4,1,0,90,0,1
26261,-100,4,1,0,90,0,0
26471,-100,4,1,0,75,0,0
33709,-100,4,1,0,80,0,0
34548,-100,4,1,0,85,0,0
55737,-100,4,1,0,90,0,0
56366,-100,4,1,0,95,0,0
56471,-100,4,1,0,95,0,1
87887,-100,4,1,0,90,0,1
88045,-100,4,1,0,85,0,1
88149,-100,4,1,0,85,0,0
88359,-100,4,1,0,75,0,0
88779,-100,4,1,0,65,0,0
89198,-100,4,1,0,55,0,0
89618,-100,4,1,0,45,0,0
90038,-111.111111111111,4,1,0,35,0,0
90457,-111.111111111111,4,1,0,25,0,0
90877,-111.111111111111,4,1,0,15,0,0
91296,-111.111111111111,4,1,0,5,0,0

[HitObjects]
256,256,1087,5,0,0:0:0:0:
256,256,1926,1,8,0:0:0:0:
256,256,2765,1,0,0:0:0:0:
256,256,3604,1,0,0:0:0:0:
256,256,4024,1,8,0:0:0:0:
256,256,4443,1,8,0:0:0:0:
256,256,5282,1,0,0:0:0:0:
256,256,5702,1,8,0:0:0:0:
256,256,6121,1,0,0:0:0:0:
192,128,7800,1,4,0:0:0:0:
256,256,8639,1,0,0:0:0:0:
256,256,9059,1,8,0:0:0:0:
256,256,9478,1,0,0:0:0:0:
256,256,10317,1,0,0:0:0:0:
256,256,10737,1,0,0:0:0:0:
256,256,11156,1,8,0:0:0:0:
256,256,11996,1,8,0:0:0:0:
256,256,12835,1,8,0:0:0:0:
192,128,14513,1,4,0:0:0:0:
256,256,15352,1,0,0:0:0:0:
256,256,15772,1,8,0:0:0:0:
256,256,16191,1,0,0:0:0:0:
256,256,17031,1,8,0:0:0:0:
256,256,17450,1,8,0:0:0:0:
192,128,17870,1,4,0:0:0:0:
256,256,18709,1,0,0:0:0:0:
256,256,19548,1,8,0:0:0:0:
256,256,20387,1,0,0:0:0:0:
256,256,21226,1,0,0:0:0:0:
256,256,22066,1,0,0:0:0:0:
256,256,22485,1,0,0:0:0:0:
256,256,22905,1,8,0:0:0:0:
256,256,23744,1,8,0:0:0:0:
256,256,24163,1,0,0:0:0:0:
256,256,24583,1,8,0:0:0:0:
256,256,25422,1,0,0:0:0:0:
256,256,25842,1,8,0:0:0:0:
256,192,26471,12,0,27310,0:0:0:0:
192,128,27940,5,4,0:0:0:0:
256,256,29618,1,8,0:0:0:0:
256,256,31296,1,8,0:0:0:0:
256,256,32975,1,8,0:0:0:0:
256,256,33814,1,0,0:0:0:0:
192,128,34653,1,4,0:0:0:0:
256,256,35492,1,8,0:0:0:0:
256,256,35912,1,8,0:0:0:0:
256,256,36331,1,0,0:0:0:0:
256,256,37170,1,8,0:0:0:0:
192,128,38010,1,12,0:0:0:0:
192,128,38849,1,12,0:0:0:0:
192,128,39688,1,12,0:0:0:0:
256,256,41366,1,0,0:0:0:0:
256,256,41786,1,8,0:0:0:0:
256,256,42625,1,0,0:0:0:0:
256,256,43045,1,0,0:0:0:0:
256,256,43464,1,8,0:0:0:0:
256,256,44723,1,8,0:0:0:0:
256,256,45142,1,0,0:0:0:0:
256,256,45562,1,8,0:0:0:0:
256,256,46401,1,0,0:0:0:0:
256,256,47240,1,8,0:0:0:0:
256,256,48080,1,0,0:0:0:0:
256,256,48499,1,0,0:0:0:0:
256,256,49338,1,0,0:0:0:0:
256,256,49758,1,8,0:0:0:0:
256,256,50177,1,0,0:0:0:0:
192,128,51436,1,4,0:0:0:0:
256,256,52275,1,0,0:0:0:0:
256,256,53114,1,0,0:0:0:0:
256,256,53534,1,0,0:0:0:0:
256,256,53954,1,8,0:0:0:0:
256,256,54793,1,8,0:0:0:0:
192,128,56471,5,4,0:0:0:0:
256,256,57310,1,0,0:0:0:0:
256,256,57730,1,8,0:0:0:0:
256,256,58149,1,0,0:0:0:0:
256,256,58989,1,8,0:0:0:0:
256,256,59408,1,0,0:0:0:0:
256,256,59828,1,8,0:0:0:0:
256,256,60667,1,8,0:0:0:0:
256,256,61506,1,8,0:0:0:0:
192,128,63184,1,4,0:0:0:0:
256,256,64024,1,8,0:0:0:0:
256,256,64443,1,8,0:0:0:0:
256,256,64863,1,0,0:0:0:0:
256,256,65702,1,0,0:0:0:0:
256,256,66121,1,8,0:0:0:0:
192,128,66541,1,4,0:0:0:0:
256,256,67380,1,0,0:0:0:0:
256,256,68219,1,8,0:0:0:0:
256,256,69059,1,0,0:0:0:0:
256,256,69478,1,8,0:0:0:0:
192,128,69898,1,4,0:0:0:0:
256,256,70737,1,0,0:0:0:0:
256,256,71156,1,8,0:0:0:0:
256,256,71576,1,0,0:0:0:0:
256,256,72415,1,0,0:0:0:0:
256,256,72835,1,8,0:0:0:0:
256,256,73254,1,8,0:0:0:0:
256,256,74093,1,8,0:0:0:0:
256,256,74933,1,8,0:0:0:0:
192,128,76611,1,4,0:0:0:0:
256,256,77450,1,0,0:0:0:0:
256,256,77870,1,8,0:0:0:0:
256,256,78289,1,0,0:0:0:0:
256,256,79128,1,8,0:0:0:0:
256,256,79548,1,8,0:0:0:0:
192,128,79968,1,4,0:0:0:0:
256,256,80807,1,0,0:0:0:0:
256,256,81646,1,8,0:0:0:0:
256,256,82485,1,0,0:0:0:0:
256,256,83324,1,0,0:0:0:0:
256,256,84163,1,8,0:0:0:0:
256,256,84583,1,0,0:0:0:0:
256,256,85003,1,8,0:0:0:0:
256,256,85842,1,0,0:0:0:0:
256,256,86261,1,8,0:0:0:0:
256,256,86681,1,0,0:0:0:0:
256,256,87520,1,0,0:0:0:0:
256,192,88149,12,0,91506,0:0:0:0:
