osu file format v14

[General]
AudioFilename: audio.mp3
AudioLeadIn: 0
PreviewTime: 13409
Countdown: 0
SampleSet: Soft
StackLeniency: 0.4
Mode: 0
LetterboxInBreaks: 0
WidescreenStoryboard: 1

[Editor]
Bookmarks: 185542,185961,186381,186800,187220,187640,188059,188479,188898,189318,189737,190157,190577,190996,191416,191835,192255,192675,193094,193514,193933,194353,194772,195192,195612,196031,196451,196870,197290,197710,198129,198549
DistanceSpacing: 1.3
BeatDivisor: 6
GridSize: 32
TimelineZoom: 2.2

[Metadata]
Title:only my railgun
TitleUnicode:only my railgun
Artist:fripSide
ArtistUnicode:fripSide
Creator:Petal
Version:Wanpachi's Hard
Source:とある科学の超電磁砲
Tags:Opening Misaka Mikoto Shirai Kuroko Uiharu Kazari Saten Ruiko level sisters sister op japanese anime pop jpop matha full version toaru kagaku no railgun a certain scientific 超科學電磁泡 index PotatoDew dkblaze satellite oriental wanpachi yoshino nanjou
BeatmapID:2821626
BeatmapSetID:1358802

[Difficulty]
HPDrainRate:5
CircleSize:3.6
OverallDifficulty:5.5
ApproachRate:7
SliderMultiplier:1.4
SliderTickRate:1

[Events]
//Background and Video events
0,0,"BG.jpg",0,0
//Break Periods
2,34483,39257
2,96581,101355
2,185332,197858
//Storyboard Layer 0 (Background)
//Storyboard Layer 1 (Fail)
//Storyboard Layer 2 (Pass)
//Storyboard Layer 3 (Foreground)
//Storyboard Layer 4 (Overlay)
//Storyboard Sound Samples

[TimingPoints]
717,419.58041958042,4,2,1,55,1,0
1136,-111.111111111111,4,2,1,55,0,0
7010,-111.111111111111,4,2,3,55,0,0
10156,-111.111111111111,4,2,1,55,0,0
10577,-111.111111111111,4,2,3,55,0,0
13723,-111.111111111111,4,2,1,55,0,0
14143,-90.9090909090909,4,2,2,85,0,1
14248,-90.9090909090909,4,2,1,85,0,1
15821,-90.9090909090909,4,2,4,85,0,1
15926,-90.9090909090909,4,2,1,85,0,1
16661,-90.9090909090909,4,2,4,85,0,1
16870,-90.9090909090909,4,2,1,85,0,1
17500,-90.9090909090909,4,2,4,85,0,1
17710,-90.9090909090909,4,2,1,85,0,1
19178,-90.9090909090909,4,2,4,85,0,1
19387,-90.9090909090909,4,2,1,85,0,1
20017,-90.9090909090909,4,2,4,85,0,0
20437,-90.9090909090909,4,2,1,85,0,0
20856,-90.9090909090909,4,2,2,85,0,1
20961,-90.9090909090909,4,2,1,85,0,1
22535,-90.9090909090909,4,2,4,85,0,1
22640,-90.9090909090909,4,2,1,85,0,1
23374,-90.9090909090909,4,2,4,85,0,1
23584,-90.9090909090909,4,2,1,85,0,1
24213,-90.9090909090909,4,2,4,85,0,1
24527,-90.9090909090909,4,2,1,85,0,1
28409,-90.9090909090909,4,2,4,85,0,1
28514,-90.9090909090909,4,2,1,85,0,1
29248,-90.9090909090909,4,2,4,85,0,1
29353,-90.9090909090909,4,2,1,85,0,1
32500,-90.9090909090909,4,2,1,85,0,0
34283,-90.9090909090909,4,2,3,45,0,0
40157,-111.111111111111,4,2,1,55,0,0
40996,-100,4,2,1,55,0,0
42675,-100,4,2,4,55,0,0
42989,-100,4,2,1,55,0,0
45192,-100,4,2,4,55,0,0
45402,-100,4,2,1,55,0,0
46870,-100,4,2,3,55,0,0
47710,-100,4,2,1,65,0,0
62605,-100,4,2,1,60,0,0
62814,-90.9090909090909,4,2,2,85,0,1
62919,-90.9090909090909,4,2,1,85,0,1
64493,-90.9090909090909,4,2,4,85,0,1
64598,-90.9090909090909,4,2,1,85,0,1
65332,-90.9090909090909,4,2,4,85,0,1
65542,-90.9090909090909,4,2,1,85,0,1
67849,-90.9090909090909,4,2,4,85,0,1
68058,-90.9090909090909,4,2,1,85,0,1
68688,-90.9090909090909,4,2,4,85,0,1
68898,-90.9090909090909,4,2,1,85,0,0
69528,-90.9090909090909,4,2,2,85,0,1
69633,-90.9090909090909,4,2,1,85,0,1
71206,-90.9090909090909,4,2,4,85,0,1
71311,-90.9090909090909,4,2,1,85,0,1
72045,-90.9090909090909,4,2,4,85,0,1
72255,-90.9090909090909,4,2,1,85,0,1
74563,-90.9090909090909,4,2,1,85,0,0
76241,-90.9090909090909,4,2,2,85,0,1
76346,-90.9090909090909,4,2,1,85,0,1
77919,-90.9090909090909,4,2,4,85,0,1
78024,-90.9090909090909,4,2,1,85,0,1
78758,-90.9090909090909,4,2,4,85,0,1
78968,-90.9090909090909,4,2,1,85,0,1
81276,-90.9090909090909,4,2,4,85,0,1
81485,-90.9090909090909,4,2,1,85,0,1
82115,-90.9090909090909,4,2,4,85,0,0
82325,-90.9090909090909,4,2,1,85,0,0
82535,-90.9090909090909,4,2,1,85,0,0
82954,-90.9090909090909,4,2,1,85,0,1
84633,-90.9090909090909,4,2,4,85,0,1
84737,-90.9090909090909,4,2,1,85,0,1
85472,-90.9090909090909,4,2,4,85,0,1
85682,-90.9090909090909,4,2,1,85,0,1
87989,-90.9090909090909,4,2,4,85,0,1
88199,-90.9090909090909,4,2,1,85,0,1
89668,-90.9090909090909,4,2,4,85,0,1
89772,-90.9090909090909,4,2,1,85,0,1
90507,-90.9090909090909,4,2,4,85,0,1
90612,-90.9090909090909,4,2,1,85,0,1
91346,-90.9090909090909,4,2,4,85,0,1
91451,-90.9090909090909,4,2,1,85,0,1
94598,-90.9090909090909,4,2,1,85,0,0
96381,-90.9090909090909,4,2,3,45,0,0
102255,-111.111111111111,4,2,1,55,0,0
103094,-100,4,2,1,55,0,0
104772,-100,4,2,4,55,0,0
105087,-100,4,2,1,55,0,0
105612,-100,4,2,4,55,0,0
105821,-100,4,2,1,55,0,0
107290,-100,4,2,4,55,0,0
107500,-100,4,2,1,55,0,0
109807,-100,4,2,1,65,0,0
124283,-100,4,2,1,60,0,0
124912,-90.9090909090909,4,2,2,85,0,1
125122,-90.9090909090909,4,2,1,85,0,1
126591,-90.9090909090909,4,2,4,85,0,1
126800,-90.9090909090909,4,2,1,85,0,1
127430,-90.9090909090909,4,2,4,85,0,1
127640,-90.9090909090909,4,2,1,85,0,1
129947,-90.9090909090909,4,2,4,85,0,1
130156,-90.9090909090909,4,2,1,85,0,1
130786,-90.9090909090909,4,2,4,85,0,1
130996,-90.9090909090909,4,2,1,85,0,0
131626,-90.9090909090909,4,2,2,85,0,1
131730,-90.9090909090909,4,2,1,85,0,1
133304,-90.9090909090909,4,2,4,85,0,1
133409,-90.9090909090909,4,2,1,85,0,1
134143,-90.9090909090909,4,2,4,85,0,1
134353,-90.9090909090909,4,2,1,85,0,1
136661,-90.9090909090909,4,2,1,85,0,0
138339,-90.9090909090909,4,2,2,85,0,1
138444,-90.9090909090909,4,2,1,85,0,1
140017,-90.9090909090909,4,2,4,85,0,1
140122,-90.9090909090909,4,2,1,85,0,1
140856,-90.9090909090909,4,2,4,85,0,1
141066,-90.9090909090909,4,2,1,85,0,1
143374,-90.9090909090909,4,2,4,85,0,1
143583,-90.9090909090909,4,2,1,85,0,1
144213,-90.9090909090909,4,2,4,85,0,0
144423,-90.9090909090909,4,2,1,85,0,0
144633,-90.9090909090909,4,2,1,85,0,0
145052,-90.9090909090909,4,2,2,85,0,1
145157,-90.9090909090909,4,2,1,85,0,1
146730,-90.9090909090909,4,2,4,85,0,1
146835,-90.9090909090909,4,2,1,85,0,1
147570,-90.9090909090909,4,2,4,85,0,1
147779,-90.9090909090909,4,2,1,85,0,1
150087,-90.9090909090909,4,2,4,85,0,1
150297,-90.9090909090909,4,2,1,85,0,1
151765,-90.9090909090909,4,2,4,85,0,1
151870,-90.9090909090909,4,2,1,85,0,1
152605,-90.9090909090909,4,2,4,85,0,1
152710,-90.9090909090909,4,2,1,85,0,1
153444,-90.9090909090909,4,2,4,85,0,1
153549,-90.9090909090909,4,2,1,85,0,1
156800,-90.9090909090909,4,2,1,65,0,0
157220,-100,4,2,1,65,0,0
163094,-100,4,2,3,65,0,0
163304,-100,4,2,1,65,0,0
170227,-95.2380952380952,4,2,2,85,0,1
170541,-95.2380952380952,4,2,1,85,0,1
171905,-95.2380952380952,4,2,4,85,0,1
172219,-95.2380952380952,4,2,1,85,0,1
172744,-95.2380952380952,4,2,4,85,0,1
172954,-95.2380952380952,4,2,1,85,0,1
173584,-95.2380952380952,4,2,4,85,0,1
173793,-95.2380952380952,4,2,1,85,0,1
175262,-95.2380952380952,4,2,4,85,0,1
175472,-95.2380952380952,4,2,1,85,0,1
176101,-95.2380952380952,4,2,4,85,0,1
176311,-95.2380952380952,4,2,1,85,0,1
176940,-95.2380952380952,4,2,4,85,0,1
177150,-95.2380952380952,4,2,1,85,0,1
178619,-95.2380952380952,4,2,4,85,0,1
178723,-95.2380952380952,4,2,1,85,0,1
179458,-95.2380952380952,4,2,4,85,0,1
179563,-95.2380952380952,4,2,1,85,0,1
180297,-95.2380952380952,4,2,4,85,0,1
180401,-95.2380952380952,4,2,1,85,0,1
181975,-95.2380952380952,4,2,4,85,0,1
182080,-95.2380952380952,4,2,1,85,0,1
183444,-95.2380952380952,4,2,1,55,0,0
198758,-125,4,2,1,50,0,0
203793,-125,4,2,4,50,0,0
203898,-125,4,2,1,50,0,0
204633,-125,4,2,4,50,0,0
204737,-125,4,2,1,50,0,0
205472,-125,4,2,1,65,0,0
206311,-111.111111111111,4,2,1,65,0,0
207150,-111.111111111111,4,2,4,65,0,0
207360,-111.111111111111,4,2,1,65,0,0
207989,-111.111111111111,4,2,4,65,0,0
208094,-111.111111111111,4,2,1,65,0,0
208828,-111.111111111111,4,2,4,65,0,0
208933,-111.111111111111,4,2,1,65,0,0
210507,-111.111111111111,4,2,4,65,0,0
210611,-111.111111111111,4,2,1,65,0,0
212185,-90.9090909090909,4,2,2,90,0,1
212290,-90.9090909090909,4,2,1,90,0,1
213863,-90.9090909090909,4,2,4,90,0,1
213968,-90.9090909090909,4,2,1,90,0,1
214703,-90.9090909090909,4,2,4,90,0,1
214912,-90.9090909090909,4,2,1,90,0,1
215542,-90.9090909090909,4,2,4,90,0,1
215751,-90.9090909090909,4,2,1,90,0,1
217220,-90.9090909090909,4,2,4,90,0,1
217429,-90.9090909090909,4,2,1,90,0,1
218058,-90.9090909090909,4,2,4,90,0,1
218164,-90.9090909090909,4,2,1,90,0,1
218269,-90.9090909090909,4,2,1,90,0,0
218898,-90.9090909090909,4,2,2,90,0,1
219003,-90.9090909090909,4,2,1,90,0,1
220577,-90.9090909090909,4,2,4,90,0,1
220682,-90.9090909090909,4,2,1,90,0,1
221416,-90.9090909090909,4,2,4,90,0,1
221626,-90.9090909090909,4,2,1,90,0,1
222255,-90.9090909090909,4,2,4,90,0,1
222569,-90.9090909090909,4,2,1,90,0,1
223933,-90.9090909090909,4,2,1,90,0,0
225612,-90.9090909090909,4,2,2,90,0,1
225717,-90.9090909090909,4,2,1,90,0,1
227290,-90.9090909090909,4,2,4,90,0,1
227395,-90.9090909090909,4,2,1,90,0,1
228129,-90.9090909090909,4,2,4,90,0,1
228339,-90.9090909090909,4,2,1,90,0,1
228968,-90.9090909090909,4,2,4,90,0,1
229282,-90.9090909090909,4,2,1,90,0,1
230647,-90.9090909090909,4,2,4,90,0,1
230856,-90.9090909090909,4,2,1,90,0,1
231486,-90.9090909090909,4,2,4,90,0,0
231591,-90.9090909090909,4,2,1,90,0,0
231800,-90.9090909090909,4,2,1,90,0,0
232325,-90.9090909090909,4,2,4,90,0,1
232430,-90.9090909090909,4,2,1,90,0,1
234003,-90.9090909090909,4,2,4,90,0,1
234108,-90.9090909090909,4,2,1,90,0,1
234842,-90.9090909090909,4,2,4,90,0,1
235052,-90.9090909090909,4,2,1,90,0,1
237360,-90.9090909090909,4,2,4,90,0,1
237570,-90.9090909090909,4,2,1,90,0,1
239038,-90.9090909090909,4,2,2,90,0,1
239143,-90.9090909090909,4,2,1,90,0,1
239877,-90.9090909090909,4,2,4,90,0,1
239982,-90.9090909090909,4,2,1,90,0,1
240717,-90.9090909090909,4,2,4,90,0,1
240821,-90.9090909090909,4,2,1,90,0,1
243863,-90.9090909090909,4,2,2,90,0,0
250786,-90.9090909090909,4,2,2,10,0,0

[Colours]
Combo1 : 255,128,64
Combo2 : 155,206,206
Combo3 : 198,147,170
Combo4 : 163,183,220

[HitObjects]
4,49,717,5,2,3:2:0:0:
119,165,1136,2,0,P|110:195|103:226,1,62.9999980773926,2|2,3:2|2:0,2:0:0:0:
73,255,1451,2,0,B|125:274|111:287|159:301,1,94.499997116089,2|2,2:0|2:0,2:0:0:0:
221,348,1975,2,0,P|270:312|281:312,1,62.9999980773926,2|2,3:2|2:0,2:0:0:0:
307,297,2290,2,0,P|345:314|410:332,1,94.499997116089,2|2,2:0|2:0,2:0:0:0:
462,281,2814,6,0,P|481:249|515:212,1,62.9999980773926,2|2,3:2|2:0,2:0:0:0:
469,198,3129,2,0,P|474:137|512:114,1,94.499997116089,2|2,2:0|2:0,2:0:0:0:
510,37,3654,1,2,3:2:0:0:
431,13,3863,1,2,2:0:0:0:
431,13,3968,1,2,2:0:0:0:
431,13,4073,5,2,3:2:0:0:
286,87,4493,2,0,P|248:78|220:73,1,62.9999980773926,2|2,3:2|2:0,2:0:0:0:
205,38,4807,2,0,P|169:71|118:78,1,94.499997116089,2|2,2:0|2:0,2:0:0:0:
53,119,5332,2,0,P|62:156|66:190,1,62.9999980773926,2|6,2:0|2:0,2:0:0:0:
48,218,5647,2,0,B|50:282|61:247|61:310,1,94.499997116089,0|2,2:0|2:0,2:0:0:0:
133,349,6171,6,0,P|163:341|194:336,1,62.9999980773926,2|2,3:2|2:0,2:0:0:0:
231,355,6486,2,0,P|278:347|289:303,1,94.499997116089,2|2,2:0|2:0,2:0:0:0:
297,225,7010,1,2,3:2:0:0:
258,150,7220,1,2,2:0:0:0:
258,150,7325,1,2,2:0:0:0:
258,150,7430,6,0,P|248:108|245:80,1,62.9999980773926,0|2,3:0|2:0,2:0:0:0:
322,61,7849,2,0,P|364:71|392:74,1,62.9999980773926,0|2,3:0|2:0,2:0:0:0:
424,65,8164,2,0,P|463:87|460:142,1,94.499997116089,2|2,2:0|2:0,2:0:0:0:
476,214,8689,2,0,P|467:255|465:281,1,62.9999980773926,0|2,3:0|2:0,2:0:0:0:
433,302,9003,2,0,B|385:303|399:318|338:322,1,94.499997116089,2|2,2:0|2:0,2:0:0:0:
265,353,9528,6,0,P|231:348|201:343,1,62.9999980773926,0|2,3:0|2:0,2:0:0:0:
174,313,9842,2,0,P|123:321|78:328,1,94.499997116089,2|6,2:0|2:0,2:0:0:0:
16,276,10367,1,0,3:0:0:0:
71,217,10577,1,2,2:0:0:0:
71,217,10682,1,2,2:0:0:0:
71,217,10786,6,0,P|64:201|61:185,3,31.4999990386963,0|0|2|0,3:2|3:0|3:2|3:0,2:0:0:0:
90,157,11206,2,0,P|93:140|98:124,3,31.4999990386963,0|0|2|0,3:0|3:0|3:2|3:0,2:0:0:0:
68,97,11626,2,0,P|61:80|58:63,3,31.4999990386963,0|0|2|0,3:0|3:0|3:2|3:0,2:0:0:0:
87,37,12045,1,0,3:0:0:0:
187,68,12255,1,2,3:2:0:0:
187,68,12360,1,0,3:0:0:0:
187,68,12465,5,4,3:0:0:0:
256,192,12570,12,2,13723,2:0:0:0:
439,150,14143,6,0,P|399:174|349:186,1,77.0000023498536,4|2,3:2|2:0,2:0:0:0:
335,218,14458,1,2,2:0:0:0:
335,218,14563,2,0,P|299:183|239:181,1,77.0000023498536,8|2,2:0|2:0,2:0:0:0:
202,105,14982,2,0,B|147:108|181:118|119:122,1,77.0000023498536,2|2,3:2|2:0,2:0:0:0:
97,162,15297,1,2,2:0:0:0:
97,162,15402,2,0,P|80:201|98:239,1,77.0000023498536,8|2,2:0|2:0,2:0:0:0:
150,311,15821,6,0,P|187:290|232:283,1,77.0000023498536,2|2,3:2|2:0,2:0:0:0:
256,318,16136,1,2,2:0:0:0:
256,318,16241,2,0,P|294:339|339:346,1,77.0000023498536,8|2,2:0|2:0,2:0:0:0:
376,258,16661,1,2,3:2:0:0:
465,300,16870,1,2,2:0:0:0:
490,202,17080,2,0,P|480:164|474:127,1,77.0000023498536,8|2,2:0|2:0,2:0:0:0:
459,11,17500,6,0,P|384:70|340:63,1,115.50000352478,2|2,3:2|2:0,2:0:0:0:
319,67,17919,2,0,P|308:104|296:140,1,77.0000023498536,8|0,2:0|2:0,2:0:0:0:
216,201,18339,2,0,P|205:164|193:127,1,77.0000023498536,0|0,3:0|2:0,2:0:0:0:
99,92,18758,2,0,P|62:104|25:115,1,77.0000023498536,8|2,2:0|2:0,2:0:0:0:
94,188,19178,6,0,P|85:224|99:265,1,77.0000023498536,6|0,3:2|2:0,2:0:0:0:
130,298,19493,2,0,B|176:287|166:281|210:271,1,77.0000023498536,2|0,2:0|2:0,2:0:0:0:
253,270,19807,2,0,P|289:282|325:298,1,77.0000023498536,2|6,2:0|3:2,2:0:0:0:
395,370,20227,1,0,2:0:0:0:
465,299,20437,1,8,2:0:0:0:
408,219,20647,1,2,2:0:0:0:
324,298,20856,6,0,P|280:320|250:296,1,77.0000023498536,6|2,3:2|2:0,2:0:0:0:
229,275,21171,1,2,2:0:0:0:
229,275,21276,2,0,B|178:275|206:283|143:284,1,77.0000023498536,8|2,2:0|2:0,2:0:0:0:
67,228,21696,2,0,P|74:190|82:152,1,77.0000023498536,2|2,3:2|2:0,2:0:0:0:
86,105,22010,1,2,2:0:0:0:
86,105,22115,2,0,P|132:94|155:61,1,77.0000023498536,8|2,2:0|2:0,2:0:0:0:
245,41,22535,6,0,B|294:45|265:53|324:59,1,77.0000023498536,2|2,3:2|2:0,2:0:0:0:
365,80,22849,1,2,2:0:0:0:
365,80,22954,2,0,P|395:60|450:61,1,77.0000023498536,8|2,2:0|2:0,2:0:0:0:
477,148,23374,1,2,3:2:0:0:
405,218,23584,1,2,2:0:0:0:
451,305,23793,2,0,P|404:325|358:352,1,77.0000023498536,8|2,2:0|2:0,2:0:0:0:
270,373,24213,6,0,B|213:342|235:321|181:301,1,115.50000352478,6|0,3:2|2:0,2:0:0:0:
145,266,24633,2,0,P|105:281|89:314,1,77.0000023498536,8|2,2:0|2:0,2:0:0:0:
25,234,25052,1,0,3:0:0:0:
99,166,25262,1,2,2:0:0:0:
37,87,25472,2,0,P|32:49|19:12,1,77.0000023498536,8|2,2:0|2:0,2:0:0:0:
116,36,25891,6,0,P|172:85|217:56,1,115.50000352478,6|2,3:2|2:0,2:0:0:0:
238,38,26311,2,0,B|289:44|263:54|311:59,1,77.0000023498536,8|0,2:0|2:0,2:0:0:0:
395,112,26730,2,0,B|343:119|369:129|321:134,1,77.0000023498536,0|2,3:0|2:0,2:0:0:0:
238,187,27150,2,0,B|289:193|263:204|311:208,1,77.0000023498536,14|0,2:0|2:0,2:0:0:0:
390,293,27570,6,0,P|333:314|300:343,1,77.0000023498536,6|2,3:2|2:0,2:0:0:0:
283,356,27884,1,2,2:0:0:0:
283,356,27989,2,0,P|229:308|239:289,1,77.0000023498536,8|2,2:0|2:0,2:0:0:0:
180,231,28409,2,0,P|197:183|208:136,1,77.0000023498536,6|2,3:2|2:0,2:0:0:0:
234,120,28723,1,2,2:0:0:0:
234,120,28828,2,0,P|198:89|194:51,1,77.0000023498536,8|2,2:0|2:0,2:0:0:0:
101,19,29248,6,0,B|58:24|74:42|23:51,1,77.0000023498536,6|2,3:2|2:0,2:0:0:0:
20,98,29563,1,2,2:0:0:0:
20,98,29668,2,0,P|44:145|50:190,1,77.0000023498536,10|2,2:0|2:0,2:0:0:0:
75,265,30087,2,0,P|66:291|61:319,3,38.5000011749268,2|2|2|2,3:2|2:0|2:0|2:0,2:0:0:0:
97,339,30507,2,0,P|142:328|189:324,1,77.0000023498536,10|2,2:0|2:0,2:0:0:0:
231,225,30926,6,0,P|248:229|268:231,3,38.5000011749268,2|2|2|2,3:2|2:0|2:0|2:0,2:0:0:0:
303,267,31346,2,0,P|321:262|341:260,3,38.5000011749268,10|2|2|2,2:0|2:0|2:0|2:0,2:0:0:0:
376,225,31765,2,0,P|394:229|414:231,3,38.5000011749268,2|2|2|2,3:2|2:3|2:3|2:3,2:0:0:0:
449,267,32185,2,0,P|484:256|491:248,3,25.6666674499512,10|2|2|8,2:0|2:3|2:3|0:0,2:0:0:0:
502,221,32500,1,8,2:0:0:0:
256,192,32605,12,6,34283,2:0:0:0:
65,59,40157,6,0,P|74:88|81:120,1,62.9999980773926,6|0,2:0|2:0,2:0:0:0:
144,171,40577,2,0,P|154:141|160:109,1,62.9999980773926,6|0,2:0|2:0,2:0:0:0:
249,54,40996,6,0,B|330:57|282:70|391:72,1,140,6|0,3:2|3:0,2:0:0:0:
424,154,41626,1,2,2:0:0:0:
367,224,41835,2,0,P|331:224|297:226,2,70,2|2|2,3:2|2:0|3:2,2:0:0:0:
421,298,42465,1,2,2:0:0:0:
339,338,42675,6,0,P|231:286|192:280,1,140,6|2,3:2|3:2,2:0:0:0:
33,244,43514,1,2,3:2:0:0:
80,321,43723,1,2,2:0:0:0:
125,242,43933,2,0,P|117:207|109:173,1,70,2|2,3:2|2:0,2:0:0:0:
43,110,44353,6,0,P|93:101|126:62,1,105,6|0,3:2|2:0,2:0:0:0:
135,17,44772,2,0,P|188:23|217:24,1,70,2|0,3:2|2:0,2:0:0:0:
287,63,45192,1,6,3:2:0:0:
374,38,45402,1,2,2:0:0:0:
407,122,45612,2,0,P|403:161|409:194,1,70,2|2,3:2|2:0,2:0:0:0:
348,259,46031,6,0,P|295:217|212:232,1,140,6|2,3:2|3:2,2:0:0:0:
160,286,46661,1,0,2:0:0:0:
126,201,46870,2,0,P|119:131|110:61,1,140,2|0,2:0|3:0,2:0:0:0:
320,50,47710,6,0,P|315:84|312:119,1,70,6|2,2:0|2:0,2:0:0:0:
280,152,48024,2,0,P|284:186|287:221,1,70,2|2,2:0|2:0,2:0:0:0:
320,253,48339,2,0,P|315:288|312:322,1,70,2|0,2:0|3:0,2:0:0:0:
384,377,48758,1,2,2:0:0:0:
473,358,48968,1,10,2:0:0:0:
493,270,49178,1,2,2:0:0:0:
457,186,49388,6,0,P|452:150|449:116,1,70,6|0,3:2|2:0,2:0:0:0:
390,47,49807,2,0,P|344:70|302:71,1,70,8|2,2:0|2:0,2:0:0:0:
290,99,50122,1,2,2:0:0:0:
290,99,50227,2,0,P|244:80|148:70,1,140,2|10,3:2|2:0,2:0:0:0:
68,123,50856,1,2,2:0:0:0:
68,123,50961,1,2,2:0:0:0:
68,123,51066,5,6,3:2:0:0:
88,211,51276,1,2,2:0:0:0:
158,268,51486,2,0,P|133:322|129:351,1,70,10|2,2:0|2:0,2:0:0:0:
215,377,51905,1,2,3:2:0:0:
215,377,52010,2,0,P|249:373|284:369,1,70,2|2,2:0|2:0,2:0:0:0:
330,366,52325,2,0,P|340:332|357:302,1,70,8|2,0:0|2:0,2:0:0:0:
447,315,52744,6,0,B|453:245|433:284|442:203,1,105,6|2,3:2|2:0,2:0:0:0:
470,175,53164,1,10,2:0:0:0:
443,87,53374,1,2,2:0:0:0:
359,96,53584,1,0,3:0:0:0:
359,96,53689,1,2,2:0:0:0:
359,96,53793,1,2,2:0:0:0:
282,48,54003,2,0,P|246:52|212:57,1,70,8|0,2:0|2:0,2:0:0:0:
115,15,54423,6,0,P|102:48|109:82,1,70,6|2,3:2|2:0,2:0:0:0:
141,114,54737,2,0,P|152:146|145:180,1,70,2|2,2:0|2:0,2:0:0:0:
113,212,55052,2,0,P|101:244|107:278,1,70,2|0,2:0|3:0,2:0:0:0:
182,332,55472,1,2,2:0:0:0:
272,314,55682,1,10,2:0:0:0:
320,238,55891,1,2,2:0:0:0:
300,149,56101,6,0,P|267:140|232:133,1,70,6|0,3:2|2:0,2:0:0:0:
178,59,56521,2,0,P|212:51|246:43,1,70,10|2,2:0|2:0,2:0:0:0:
293,34,56835,1,2,2:0:0:0:
293,34,56940,2,0,P|356:33|409:111,1,140,2|10,3:2|2:0,2:0:0:0:
367,169,57570,1,2,2:0:0:0:
432,252,57779,6,0,P|436:290|418:327,1,70,6|0,3:2|2:0,2:0:0:0:
336,344,58199,1,10,2:0:0:0:
261,289,58409,1,2,2:0:0:0:
173,314,58619,2,0,P|142:304|96:294,1,70,2|2,3:2|2:0,2:0:0:0:
74,270,58933,1,2,2:0:0:0:
74,270,59038,2,0,P|60:229|77:192,1,70,8|2,2:0|2:0,2:0:0:0:
59,113,59458,6,0,B|139:116|98:132|200:132,1,140,6|10,3:2|2:0,2:0:0:0:
294,133,60087,1,2,2:0:0:0:
294,133,60192,1,2,2:0:0:0:
294,132,60297,2,0,P|290:115|286:98,3,35,2|0|2|0,3:2|2:0|2:0|2:0,2:0:0:0:
318,65,60717,2,0,P|320:53|323:42,5,23.3333333333333,10|2|2|2|2|2,2:0|2:0|2:0|2:0|2:0|2:0,2:0:0:0:
301,20,61136,5,6,3:2:0:0:
419,88,61451,1,2,2:0:0:0:
346,203,61765,1,2,2:0:0:0:
452,350,62185,5,2,2:0:0:0:
385,287,62395,1,2,2:0:0:0:
294,275,62605,1,2,2:0:0:0:
186,315,62814,6,0,P|180:276|174:238,1,77.0000023498536,6|2,3:2|2:0,2:0:0:0:
210,203,63129,1,2,2:0:0:0:
210,203,63234,2,0,P|215:164|221:126,1,77.0000023498536,8|2,2:0|2:0,2:0:0:0:
180,34,63654,2,0,P|134:33|109:71,1,77.0000023498536,2|2,3:2|2:0,2:0:0:0:
104,105,63968,1,2,2:0:0:0:
104,105,64073,2,0,B|53:117|70:130|22:139,1,77.0000023498536,8|2,2:0|2:0,2:0:0:0:
6,233,64493,6,0,P|28:285|45:324,1,77.0000023498536,2|2,3:2|2:0,2:0:0:0:
77,332,64807,1,2,2:0:0:0:
77,332,64912,2,0,P|123:301|175:313,1,77.0000023498536,8|2,2:0|2:0,2:0:0:0:
234,341,65332,1,2,3:2:0:0:
322,294,65542,1,2,2:0:0:0:
416,326,65751,2,0,P|457:309|498:298,1,77.0000023498536,8|2,2:0|2:0,2:0:0:0:
488,183,66171,6,0,P|432:166|379:144,1,115.50000352478,6|0,3:2|2:0,2:0:0:0:
343,108,66591,2,0,P|353:71|340:28,1,77.0000023498536,8|0,2:0|2:0,2:0:0:0:
251,0,67010,2,0,P|241:37|254:80,1,77.0000023498536,2|0,3:2|2:0,2:0:0:0:
166,125,67430,2,0,P|129:115|86:128,1,77.0000023498536,8|2,2:0|2:0,2:0:0:0:
33,205,67849,6,0,P|38:243|43:281,1,77.0000023498536,6|0,3:2|2:0,2:0:0:0:
79,317,68164,2,0,B|129:326|93:330|154:343,1,77.0000023498536,2|0,2:0|2:0,2:0:0:0:
197,324,68479,2,0,P|233:298|275:294,1,77.0000023498536,2|2,2:0|3:2,2:0:0:0:
335,363,68898,1,2,2:0:0:0:
405,292,69108,1,8,2:0:0:0:
346,210,69318,1,2,2:0:0:0:
264,293,69528,6,0,P|200:277|180:272,1,77.0000023498536,6|2,3:2|2:0,2:0:0:0:
148,254,69842,1,2,2:0:0:0:
148,254,69947,2,0,P|99:278|62:272,1,77.0000023498536,8|2,2:0|2:0,2:0:0:0:
24,190,70367,2,0,B|24:146|37:157|37:102,1,77.0000023498536,2|2,3:2|2:0,2:0:0:0:
37,67,70682,1,2,2:0:0:0:
37,67,70786,2,0,P|86:57|122:46,1,77.0000023498536,8|2,2:0|2:0,2:0:0:0:
202,4,71206,6,0,P|243:35|243:69,1,77.0000023498536,2|2,3:2|2:0,2:0:0:0:
232,108,71521,1,2,2:0:0:0:
232,108,71626,2,0,P|295:100|331:100,1,77.0000023498536,8|2,2:0|2:0,2:0:0:0:
392,153,72045,1,2,3:2:0:0:
459,78,72255,1,2,2:0:0:0:
510,163,72465,2,0,P|491:196|477:232,1,77.0000023498536,8|2,2:0|2:0,2:0:0:0:
464,346,72884,6,0,P|411:289|364:307,1,115.50000352478,6|0,3:2|2:0,2:0:0:0:
341,325,73304,2,0,B|291:326|318:312|257:310,1,77.0000023498536,8|2,2:0|2:0,2:0:0:0:
177,263,73723,1,0,3:0:0:0:
132,352,73933,1,2,2:0:0:0:
43,306,74143,2,0,P|53:241|57:206,1,77.0000023498536,8|2,2:0|2:0,2:0:0:0:
28,133,74563,6,0,P|37:67|102:46,1,115.50000352478,6|2,3:2|2:0,2:0:0:0:
120,68,74982,1,10,2:0:0:0:
213,33,75192,2,0,P|235:92|251:126,1,77.0000023498536,2|10,2:0|2:0,2:0:0:0:
294,190,75612,1,2,2:0:0:0:
209,244,75821,1,10,2:0:0:0:
214,343,76031,1,2,2:0:0:0:
325,373,76241,6,0,P|375:333|410:327,1,77.0000023498536,6|2,3:2|2:0,2:0:0:0:
424,296,76556,1,2,2:0:0:0:
424,296,76661,2,0,P|445:251|428:222,1,77.0000023498536,8|2,2:0|2:0,2:0:0:0:
385,142,77080,2,0,B|391:87|394:115|405:54,1,77.0000023498536,2|2,3:2|2:0,2:0:0:0:
372,27,77395,1,2,2:0:0:0:
372,27,77500,2,0,P|323:15|279:-2,1,77.0000023498536,8|2,2:0|2:0,2:0:0:0:
202,37,77919,6,0,P|167:78|174:104,1,77.0000023498536,2|2,3:2|2:0,2:0:0:0:
159,147,78234,1,2,2:0:0:0:
159,147,78339,2,0,P|113:136|77:125,1,77.0000023498536,8|2,2:0|2:0,2:0:0:0:
2,186,78758,1,2,3:2:0:0:
64,265,78968,1,2,2:0:0:0:
27,359,79178,2,0,P|81:365|116:353,1,77.0000023498536,8|2,2:0|2:0,2:0:0:0:
208,313,79598,6,0,P|275:327|327:348,1,115.50000352478,6|2,3:2|2:0,2:0:0:0:
326,294,80017,2,0,B|330:242|339:270|347:205,1,77.0000023498536,8|0,2:0|2:0,2:0:0:0:
273,149,80437,2,0,B|269:97|260:125|252:60,1,77.0000023498536,0|0,3:0|2:0,2:0:0:0:
324,5,80856,2,0,B|376:9|348:18|413:26,1,77.0000023498536,8|2,2:0|2:0,2:0:0:0:
469,96,81276,6,0,P|483:131|468:175,1,77.0000023498536,6|0,3:2|2:0,2:0:0:0:
435,202,81591,2,0,P|456:260|470:294,1,77.0000023498536,2|0,2:0|2:0,2:0:0:0:
426,310,81905,2,0,B|385:310|391:293|348:292,1,77.0000023498536,2|6,2:0|3:2,2:0:0:0:
280,363,82325,1,2,2:0:0:0:
209,292,82535,1,8,2:0:0:0:
269,212,82744,1,2,2:0:0:0:
351,292,82954,6,0,P|409:274|440:266,1,77.0000023498536,6|2,3:2|2:0,2:0:0:0:
460,233,83269,1,2,2:0:0:0:
460,233,83374,2,0,P|459:178|430:154,1,77.0000023498536,8|2,2:0|2:0,2:0:0:0:
392,78,83793,2,0,B|341:82|372:88|315:95,1,77.0000023498536,0|2,3:0|2:0,2:0:0:0:
271,87,84108,1,2,2:0:0:0:
271,87,84213,2,0,P|250:119|242:156,1,77.0000023498536,8|2,2:0|2:0,2:0:0:0:
252,256,84633,6,0,P|302:249|334:247,1,77.0000023498536,2|2,3:2|2:0,2:0:0:0:
375,228,84947,1,2,2:0:0:0:
375,228,85052,2,0,P|413:232|451:237,1,77.0000023498536,8|2,2:0|2:0,2:0:0:0:
504,152,85472,1,2,3:2:0:0:
492,53,85682,1,2,2:0:0:0:
401,12,85891,2,0,P|348:38|314:35,1,77.0000023498536,8|2,2:0|2:0,2:0:0:0:
219,72,86311,6,0,P|171:27|105:19,1,115.50000352478,6|0,3:2|2:0,2:0:0:0:
76,35,86730,2,0,P|64:92|51:137,1,77.0000023498536,8|2,2:0|2:0,2:0:0:0:
13,198,87150,1,0,3:0:0:0:
87,266,87360,1,2,2:0:0:0:
60,363,87570,2,0,P|119:355|156:350,1,77.0000023498536,8|2,2:0|2:0,2:0:0:0:
235,370,87989,6,0,B|299:358|283:338|346:328,1,115.50000352478,6|2,3:2|2:0,2:0:0:0:
377,293,88409,2,0,P|395:236|407:203,1,77.0000023498536,8|0,2:0|2:0,2:0:0:0:
493,182,88828,2,0,P|452:138|430:112,1,77.0000023498536,0|0,3:0|2:0,2:0:0:0:
370,54,89248,2,0,P|333:67|296:78,1,77.0000023498536,8|0,2:0|2:0,2:0:0:0:
193,131,89668,6,0,P|224:189|231:229,1,77.0000023498536,6|2,3:2|2:0,2:0:0:0:
257,239,89982,1,2,2:0:0:0:
257,239,90087,2,0,P|235:306|224:342,1,77.0000023498536,8|2,2:0|2:0,2:0:0:0:
146,365,90507,2,0,B|107:351|120:338|78:326,1,77.0000023498536,6|2,3:2|2:0,2:0:0:0:
42,294,90821,1,2,2:0:0:0:
42,294,90926,2,0,P|27:251|43:218,1,77.0000023498536,8|2,2:0|2:0,2:0:0:0:
107,151,91346,6,0,P|98:95|94:62,1,77.0000023498536,6|2,3:2|2:0,2:0:0:0:
131,40,91661,1,2,2:0:0:0:
131,40,91765,2,0,P|182:54|236:54,1,77.0000023498536,10|2,2:0|2:0,2:0:0:0:
296,100,92185,2,0,P|289:132|286:149,3,38.5000011749268,2|2|2|2,3:2|2:0|2:0|2:0,2:0:0:0:
323,174,92605,2,0,B|370:167|359:158|397:153,1,77.0000023498536,10|2,2:0|2:0,2:0:0:0:
486,226,93024,6,0,P|489:245|494:264,3,38.5000011749268,2|2|2|2,3:2|2:0|2:0|2:0,2:0:0:0:
458,300,93444,2,0,P|443:313|429:326,3,38.5000011749268,10|2|2|2,2:0|2:0|2:0|2:0,2:0:0:0:
379,313,93863,2,0,P|360:307|342:302,3,38.5000011749268,2|2|2|2,3:2|2:3|2:3|2:3,2:0:0:0:
306,267,94283,2,0,L|267:280,3,25.6666674499512,8|2|2|8,2:0|0:3|0:3|0:0,2:0:0:0:
242,307,94598,1,8,2:0:0:0:
256,192,94703,12,6,96381,2:0:0:0:
437,303,102255,6,0,P|456:266|449:234,1,62.9999980773926,6|0,2:0|2:0,2:0:0:0:
395,188,102675,2,0,P|376:151|383:119,1,62.9999980773926,6|0,2:0|2:0,2:0:0:0:
431,41,103094,6,0,P|346:89|300:92,1,140,6|0,3:2|3:0,2:0:0:0:
224,51,103723,1,0,2:0:0:0:
175,128,103933,2,0,P|192:156|180:198,2,70,2|2|2,3:2|2:0|3:2,2:0:0:0:
88,97,104563,1,2,2:0:0:0:
32,169,104772,6,0,B|25:244|54:230|51:321,1,140,6|0,3:2|3:0,2:0:0:0:
222,370,105612,1,2,3:2:0:0:
188,286,105821,1,2,2:0:0:0:
255,225,106031,2,0,P|316:236|347:241,1,70,2|2,3:2|2:0,2:0:0:0:
424,271,106451,6,0,P|488:224|479:183,1,105,6|0,3:2|2:0,2:0:0:0:
497,163,106870,2,0,P|481:104|479:68,1,70,2|0,3:2|2:0,2:0:0:0:
394,62,107290,1,6,3:2:0:0:
304,76,107500,1,2,2:0:0:0:
232,20,107710,2,0,P|175:33|133:37,1,70,2|2,3:2|2:0,2:0:0:0:
78,67,108129,6,0,P|113:155|109:211,1,140,6|2,3:2|3:2,2:0:0:0:
53,269,108758,1,0,2:0:0:0:
84,354,108968,2,0,B|158:359|146:337|238:343,1,140,0|0,3:0|3:0,2:0:0:0:
215,132,109807,6,0,P|247:104|291:107,1,70,6|2,3:2|2:0,2:0:0:0:
305,135,110122,2,0,P|337:163|381:160,1,70,2|2,2:0|2:0,2:0:0:0:
395,133,110437,2,0,P|427:105|471:108,1,70,2|0,2:0|3:0,2:0:0:0:
508,176,110856,1,2,2:0:0:0:
497,267,111066,1,10,2:0:0:0:
428,327,111276,1,2,2:0:0:0:
338,311,111486,6,0,P|296:317|259:326,1,70,6|0,3:2|2:0,2:0:0:0:
180,345,111905,2,0,P|187:311|192:277,1,70,10|2,2:0|2:0,2:0:0:0:
173,235,112220,1,2,2:0:0:0:
173,235,112325,2,0,P|94:230|50:161,1,140,0|8,3:0|2:0,2:0:0:0:
22,102,112954,1,2,2:0:0:0:
97,29,113164,5,6,3:2:0:0:
183,57,113374,1,2,2:0:0:0:
267,24,113584,2,0,P|314:51|351:54,1,70,10|2,2:0|2:0,2:0:0:0:
405,104,114003,1,2,3:2:0:0:
405,105,114108,2,0,P|408:139|412:174,1,70,2|2,2:0|2:0,2:0:0:0:
438,212,114423,2,0,P|412:269|419:293,1,70,8|2,2:0|2:0,2:0:0:0:
365,352,114843,6,0,P|283:349|252:337,1,105,2|2,3:2|2:0,2:0:0:0:
223,317,115262,1,10,2:0:0:0:
141,277,115472,1,2,2:0:0:0:
88,352,115682,1,2,3:2:0:0:
88,352,115786,1,2,2:0:0:0:
88,352,115891,1,2,2:0:0:0:
16,296,116101,2,0,P|12:262|7:227,1,70,8|0,2:0|2:0,2:0:0:0:
31,122,116521,6,0,P|64:109|98:116,1,70,6|2,3:2|2:0,2:0:0:0:
130,148,116835,2,0,P|162:159|196:152,1,70,2|2,2:0|2:0,2:0:0:0:
228,120,117150,2,0,P|260:108|294:114,1,70,2|0,2:0|3:0,2:0:0:0:
348,189,117570,1,2,2:0:0:0:
277,247,117779,1,10,2:0:0:0:
287,338,117989,1,2,2:0:0:0:
366,382,118199,6,0,P|399:373|434:366,1,70,6|0,3:2|2:0,2:0:0:0:
493,297,118619,2,0,P|469:258|470:218,1,70,10|2,2:0|2:0,2:0:0:0:
491,191,118933,1,2,2:0:0:0:
491,191,119038,2,0,B|481:101|466:153|460:51,1,140,2|10,3:2|2:0,2:0:0:0:
382,7,119668,1,2,2:0:0:0:
305,80,119877,6,0,P|252:59|214:51,1,70,6|0,3:2|2:0,2:0:0:0:
161,104,120297,1,10,2:0:0:0:
99,37,120507,1,2,2:0:0:0:
32,100,120717,2,0,P|29:144|23:192,1,70,2|2,3:2|2:0,2:0:0:0:
43,210,121031,1,2,2:0:0:0:
43,210,121136,2,0,P|33:253|54:288,1,70,8|2,2:0|2:0,2:0:0:0:
120,325,121556,6,0,P|188:275|243:269,1,140,6|10,3:2|2:0,2:0:0:0:
306,334,122185,1,2,2:0:0:0:
306,334,122290,1,2,2:0:0:0:
307,334,122395,2,0,P|324:330|341:326,3,35,2|0|2|0,3:2|2:0|2:0|2:0,2:0:0:0:
373,294,122814,2,0,P|385:296|396:299,5,23.3333333333333,10|2|2|2|2|2,2:0|2:0|2:0|2:0|2:0|2:0,2:0:0:0:
417,278,123234,5,6,3:2:0:0:
455,147,123549,1,2,2:0:0:0:
324,108,123863,1,2,2:0:0:0:
479,14,124283,5,2,2:0:0:0:
406,69,124493,1,2,2:0:0:0:
329,20,124703,1,2,2:0:0:0:
236,89,124912,6,0,P|230:128|224:166,1,77.0000023498536,6|2,3:2|2:0,2:0:0:0:
226,214,125227,1,2,2:0:0:0:
226,214,125332,2,0,P|245:248|237:291,1,77.0000023498536,8|2,2:0|2:0,2:0:0:0:
147,320,125751,2,0,P|76:307|54:306,1,77.0000023498536,0|2,3:0|2:0,2:0:0:0:
30,277,126066,1,2,2:0:0:0:
30,277,126171,2,0,P|19:223|50:200,1,77.0000023498536,8|2,2:0|2:0,2:0:0:0:
79,122,126591,6,0,B|120:111|109:101|153:88,1,77.0000023498536,2|2,3:2|2:0,2:0:0:0:
187,59,126905,1,2,2:0:0:0:
187,59,127010,2,0,P|223:102|258:93,1,77.0000023498536,8|2,2:0|2:0,2:0:0:0:
339,114,127430,1,2,3:2:0:0:
429,71,127640,1,2,2:0:0:0:
489,151,127849,2,0,P|472:192|461:233,1,77.0000023498536,8|2,2:0|2:0,2:0:0:0:
487,322,128269,6,0,P|417:354|352:355,1,115.50000352478,6|0,3:2|2:0,2:0:0:0:
344,320,128689,2,0,P|333:284|319:248,1,77.0000023498536,8|0,2:0|2:0,2:0:0:0:
250,176,129108,2,0,P|235:211|224:248,1,77.0000023498536,2|2,3:2|2:0,2:0:0:0:
153,320,129528,2,0,P|116:331|80:345,1,77.0000023498536,8|2,2:0|2:0,2:0:0:0:
26,262,129947,6,0,P|57:209|35:182,1,77.0000023498536,6|0,3:2|2:0,2:0:0:0:
32,156,130262,2,0,P|59:87|70:60,1,77.0000023498536,2|0,2:0|2:0,2:0:0:0:
102,58,130577,2,0,B|152:60|129:73|182:73,1,77.0000023498536,2|2,2:0|3:2,2:0:0:0:
247,3,130996,1,2,2:0:0:0:
317,74,131206,1,8,2:0:0:0:
258,156,131416,1,2,2:0:0:0:
175,75,131626,6,0,P|132:66|95:78,1,77.0000023498536,6|2,3:2|2:0,2:0:0:0:
69,114,131940,1,2,2:0:0:0:
69,114,132045,2,0,P|90:176|100:214,1,77.0000023498536,8|2,2:0|2:0,2:0:0:0:
58,282,132465,2,0,P|87:316|143:322,1,77.0000023498536,0|2,3:0|2:0,2:0:0:0:
152,361,132779,1,2,2:0:0:0:
152,361,132884,2,0,B|193:353|185:343|226:338,1,77.0000023498536,8|2,2:0|2:0,2:0:0:0:
306,280,133304,6,0,P|370:293|401:300,1,77.0000023498536,2|2,3:2|2:0,2:0:0:0:
435,305,133619,1,2,2:0:0:0:
435,305,133723,2,0,P|450:270|434:236,1,77.0000023498536,8|2,2:0|2:0,2:0:0:0:
370,159,134143,1,2,3:2:0:0:
445,93,134353,1,2,2:0:0:0:
387,10,134563,2,0,P|349:17|310:21,1,77.0000023498536,10|2,2:0|2:0,2:0:0:0:
246,98,134982,6,0,P|166:62|111:51,1,115.50000352478,6|0,3:2|2:0,2:0:0:0:
99,86,135402,2,0,P|83:124|106:158,1,77.0000023498536,8|2,2:0|2:0,2:0:0:0:
163,229,135821,1,0,3:0:0:0:
104,310,136031,1,2,2:0:0:0:
189,361,136241,2,0,B|235:357|211:349|264:345,1,77.0000023498536,8|2,2:0|2:0,2:0:0:0:
364,354,136661,6,0,P|419:344|450:275,1,115.50000352478,6|2,3:2|2:0,2:0:0:0:
438,247,137080,1,10,2:0:0:0:
494,164,137290,2,0,P|480:127|466:91,1,77.0000023498536,2|10,2:0|2:0,2:0:0:0:
384,34,137710,1,2,2:0:0:0:
291,71,137919,1,10,2:0:0:0:
252,163,138129,1,2,2:0:0:0:
280,275,138339,6,0,P|242:284|205:295,1,77.0000023498536,6|2,3:2|2:0,2:0:0:0:
163,319,138654,1,2,2:0:0:0:
163,319,138758,2,0,P|126:308|88:299,1,77.0000023498536,8|2,2:0|2:0,2:0:0:0:
29,217,139178,2,0,P|16:172|39:140,1,77.0000023498536,0|2,3:0|2:0,2:0:0:0:
73,122,139493,1,2,2:0:0:0:
73,122,139598,2,0,B|120:107|96:101|157:85,1,77.0000023498536,8|2,2:0|2:0,2:0:0:0:
220,26,140017,6,0,P|283:59|317:58,1,77.0000023498536,2|2,3:2|2:0,2:0:0:0:
338,45,140332,1,2,2:0:0:0:
338,45,140437,2,0,P|374:55|412:64,1,77.0000023498536,8|2,2:0|2:0,2:0:0:0:
486,131,140856,1,2,3:2:0:0:
419,206,141066,1,2,2:0:0:0:
484,281,141276,2,0,P|444:304|407:334,1,77.0000023498536,8|2,2:0|2:0,2:0:0:0:
312,369,141696,6,0,P|273:315|222:315,1,115.50000352478,6|0,3:2|2:0,2:0:0:0:
179,322,142115,2,0,P|141:323|112:299,1,77.0000023498536,8|0,2:0|2:0,2:0:0:0:
176,221,142535,2,0,P|214:222|243:198,1,77.0000023498536,0|2,3:2|2:0,2:0:0:0:
172,127,142954,2,0,P|143:102|105:103,1,77.0000023498536,8|2,2:0|2:0,2:0:0:0:
179,35,143374,6,0,P|216:28|254:18,1,77.0000023498536,6|0,3:2|2:0,2:0:0:0:
304,18,143689,2,0,B|344:22|339:32|382:38,1,77.0000023498536,2|0,2:0|2:0,2:0:0:0:
407,79,144003,2,0,P|427:110|419:147,1,77.0000023498536,2|6,2:0|3:2,2:0:0:0:
348,218,144423,1,2,2:0:0:0:
418,288,144633,1,8,2:0:0:0:
499,230,144842,1,2,2:0:0:0:
419,147,145052,6,0,B|422:106|432:111|438:68,1,77.0000023498536,6|2,3:2|2:0,2:0:0:0:
401,36,145367,1,2,2:0:0:0:
401,36,145472,2,0,P|351:62|321:69,1,77.0000023498536,8|2,2:0|2:0,2:0:0:0:
247,121,145891,2,0,P|230:79|180:70,1,77.0000023498536,0|2,3:0|2:0,2:0:0:0:
155,84,146206,1,2,2:0:0:0:
155,84,146311,2,0,P|135:136|128:172,1,77.0000023498536,8|2,2:0|2:0,2:0:0:0:
63,231,146730,6,0,P|100:240|135:255,1,77.0000023498536,2|2,3:2|2:0,2:0:0:0:
168,294,147045,1,2,2:0:0:0:
168,294,147150,2,0,P|215:311|248:288,1,77.0000023498536,8|2,2:0|2:0,2:0:0:0:
306,228,147570,1,2,3:2:0:0:
391,278,147779,1,2,2:0:0:0:
469,216,147989,2,0,P|483:165|492:135,1,77.0000023498536,8|2,2:0|2:0,2:0:0:0:
504,26,148409,6,0,B|420:31|469:43|373:48,1,115.50000352478,6|2,3:2|2:0,2:0:0:0:
346,69,148828,2,0,P|301:21|268:22,1,77.0000023498536,8|2,2:0|2:0,2:0:0:0:
211,77,149248,1,0,3:0:0:0:
124,30,149458,1,2,2:0:0:0:
66,112,149668,2,0,P|60:150|55:188,1,77.0000023498536,8|2,2:0|2:0,2:0:0:0:
30,285,150087,6,0,P|77:232|126:232,1,115.50000352478,6|2,3:2|2:0,2:0:0:0:
162,254,150507,2,0,P|186:295|201:334,1,77.0000023498536,8|0,2:0|2:0,2:0:0:0:
278,381,150926,2,0,P|293:345|313:312,1,77.0000023498536,0|0,3:0|2:0,2:0:0:0:
331,213,151346,2,0,P|372:237|411:252,1,77.0000023498536,8|0,2:0|2:0,2:0:0:0:
475,160,151765,6,0,B|476:115|460:130|464:84,1,77.0000023498536,6|2,3:2|2:0,2:0:0:0:
425,63,152080,1,2,2:0:0:0:
425,63,152185,2,0,P|354:84|328:86,1,77.0000023498536,8|2,2:0|2:0,2:0:0:0:
262,132,152605,2,0,P|244:175|264:207,1,77.0000023498536,6|2,3:2|2:0,2:0:0:0:
294,232,152919,1,2,2:0:0:0:
294,232,153024,2,0,P|277:310|273:344,1,77.0000023498536,8|2,2:0|2:0,2:0:0:0:
187,352,153444,6,0,P|157:322|115:316,1,77.0000023498536,6|2,3:2|2:0,2:0:0:0:
78,325,153758,1,2,2:0:0:0:
78,325,153863,2,0,P|61:248|59:219,1,77.0000023498536,10|2,2:0|2:0,2:0:0:0:
102,157,154283,2,0,P|110:118|111:104,3,38.5000011749268,2|2|2|2,3:2|2:0|2:0|2:0,2:0:0:0:
146,83,154703,2,0,P|198:67|229:90,1,77.0000023498536,10|2,2:0|2:0,2:0:0:0:
300,155,155122,6,0,P|291:193|290:208,3,38.5000011749268,2|2|2|2,3:2|2:0|2:0|2:0,2:0:0:0:
255,228,155542,2,0,P|263:266|264:281,3,38.5000011749268,10|2|2|2,2:0|2:0|2:0|2:0,2:0:0:0:
299,299,155961,2,0,P|290:337|289:352,3,38.5000011749268,2|8|8|8,3:2|2:0|2:0|2:0,2:0:0:0:
326,372,156381,2,0,L|365:362,3,25.6666674499512,8|2|2|8,2:0|2:3|2:3|2:0,2:0:0:0:
405,373,156696,1,8,2:0:0:0:
405,373,156800,5,2,3:2:0:0:
399,190,157220,2,0,P|365:180|330:175,1,70,2|2,2:0|2:0,2:0:0:0:
298,143,157535,2,0,P|247:151|219:194,1,105,2|2,2:0|2:0,2:0:0:0:
129,213,158059,2,0,P|118:286|111:310,1,70,2|2,3:2|2:0,2:0:0:0:
142,322,158374,2,0,B|199:331|180:309|249:318,1,105,2|0,2:0|2:0,2:0:0:0:
334,342,158898,6,0,P|386:330|414:326,1,70,2|2,3:2|2:0,2:0:0:0:
447,317,159213,2,0,P|479:260|440:223,1,105,2|0,2:0|2:0,2:0:0:0:
407,159,159737,1,2,2:0:0:0:
462,75,159947,1,2,2:0:0:0:
462,75,160052,1,0,2:0:0:0:
462,75,160157,5,2,3:2:0:0:
291,11,160577,2,0,P|246:27|200:38,1,70,0|2,2:0|2:0,2:0:0:0:
190,63,160891,2,0,P|153:40|79:46,1,105,2|2,2:0|2:0,2:0:0:0:
54,123,161416,2,0,P|68:162|77:209,1,70,10|2,3:2|2:0,2:0:0:0:
66,234,161730,2,0,B|125:236|97:247|170:248,1,105,2|2,2:0|2:0,2:0:0:0:
255,217,162255,6,0,P|269:251|254:287,1,70,10|2,2:0|2:0,2:0:0:0:
285,318,162570,2,0,P|333:308|401:297,1,105,2|2,2:0|2:0,2:0:0:0:
456,238,163094,1,10,2:0:0:0:
412,153,163304,1,2,2:0:0:0:
412,153,163409,1,2,2:0:0:0:
412,153,163514,6,0,P|377:147|343:139,1,70,2|2,3:2|2:0,2:0:0:0:
283,70,163933,2,0,P|236:82|223:111,1,70,10|2,2:0|2:0,2:0:0:0:
197,134,164248,2,0,P|219:197|228:239,1,105,2|2,2:0|2:0,2:0:0:0:
172,306,164772,2,0,P|128:318|86:298,1,70,10|2,2:0|2:0,2:0:0:0:
65,289,165087,2,0,B|51:216|75:249|64:168,1,105,2|2,2:0|2:0,2:0:0:0:
10,112,165612,6,0,P|60:95|94:77,1,70,10|2,2:0|2:0,2:0:0:0:
109,57,165926,2,0,P|191:50|200:82,1,105,2|10,2:0|2:0,2:0:0:0:
273,101,166451,1,10,2:0:0:0:
362,67,166661,1,10,2:0:0:0:
362,67,166765,1,10,2:0:0:0:
362,67,166870,6,0,P|368:83|373:99,3,35,2|2|2|2,3:2|2:0|2:0|2:0,2:0:0:0:
406,132,167290,2,0,P|399:148|394:164,3,35,10|8|8|8,2:0|2:0|2:0|2:0,2:0:0:0:
361,197,167710,2,0,P|367:213|372:229,3,35,8|8|8|8,2:0|2:0|2:0|2:0,2:0:0:0:
405,262,168129,1,8,2:0:0:0:
368,361,168339,1,8,2:0:0:0:
368,361,168444,1,8,2:0:0:0:
368,361,168549,5,12,2:0:0:0:
256,192,168654,12,2,169807,2:0:0:0:
395,347,170227,6,0,P|433:305|412:255,1,110.249996635437,14|0,3:2|2:0,2:0:0:0:
387,220,170647,2,0,P|403:157|415:121,1,73.4999977569581,8|0,2:0|2:0,2:0:0:0:
383,55,171066,1,2,3:2:0:0:
293,88,171276,2,0,P|249:97|214:80,1,73.4999977569581,2|8,2:0|2:0,2:0:0:0:
139,39,171696,1,2,2:0:0:0:
68,103,171905,6,0,P|75:166|80:236,1,110.249996635437,6|0,3:2|2:0,2:0:0:0:
84,260,172325,2,0,B|132:260|112:253|163:255,1,73.4999977569581,10|2,2:0|2:0,2:0:0:0:
236,307,172744,2,0,P|287:250|331:253,1,110.249996635437,6|2,3:2|2:0,2:0:0:0:
355,276,173164,2,0,P|405:270|437:271,1,73.4999977569581,8|2,2:0|2:0,2:0:0:0:
479,172,173584,5,6,3:2:0:0:
427,91,173793,2,0,P|365:56|270:76,1,146.999995513916,2|2,2:0|2:0,2:0:0:0:
263,102,174318,1,2,2:0:0:0:
263,102,174423,2,0,P|271:129|274:151,3,36.749998878479,2|2|2|2,3:2|2:0|2:0|2:0,2:0:0:0:
238,171,174842,2,0,P|203:159|167:151,1,73.4999977569581,10|2,2:0|2:0,2:0:0:0:
75,179,175262,6,0,P|42:260|66:291,1,110.249996635437,6|2,3:2|2:0,2:0:0:0:
84,305,175682,2,0,P|145:299|175:300,1,73.4999977569581,8|2,2:0|2:0,2:0:0:0:
234,355,176101,1,6,3:2:0:0:
298,284,176311,1,2,2:0:0:0:
387,316,176521,2,0,P|422:323|457:334,1,73.4999977569581,8|2,2:0|2:0,2:0:0:0:
494,232,176940,5,6,3:2:0:0:
446,148,177150,2,0,B|409:128|369:146|373:149|332:167|295:152,1,146.999995513916,2|0,2:0|2:0,2:0:0:0:
209,132,177779,2,0,P|221:214|221:229,1,73.4999977569581,2|2,3:2|2:0,2:0:0:0:
195,245,178094,1,2,2:0:0:0:
195,245,178199,2,0,P|152:277|147:305,1,73.4999977569581,8|2,2:0|2:0,2:0:0:0:
60,335,178619,6,0,B|48:321|47:313|51:296|57:286|54:271|45:265|34:251|32:243|36:226|43:217|39:201|30:195,1,146.999995513916,6|10,3:2|2:0,2:0:0:0:
4,102,179248,1,2,2:0:0:0:
78,42,179458,2,0,P|129:51|159:81,1,73.4999977569581,6|2,3:2|2:0,2:0:0:0:
185,90,179772,2,0,P|251:58|313:43,1,110.249996635437,2|0,2:0|2:0,2:0:0:0:
359,132,180297,6,0,P|375:140|392:148,3,36.749998878479,6|2|2|2,3:2|2:0|2:0|2:0,2:0:0:0:
426,182,180717,2,0,P|411:215|394:247,1,73.4999977569581,10|2,2:0|2:0,2:0:0:0:
326,315,181136,2,0,P|317:331|309:348,3,36.749998878479,2|2|2|2,3:2|2:0|2:0|2:0,2:0:0:0:
276,382,181556,2,0,P|242:367|210:350,1,73.4999977569581,10|2,2:0|2:0,2:0:0:0:
132,272,181975,5,6,3:2:0:0:
132,272,182080,1,2,2:0:0:0:
132,272,182185,2,0,P|115:263|98:255,1,36.749998878479,2|2,2:0|2:0,2:0:0:0:
65,222,182395,2,0,P|79:188|96:156,1,73.4999977569581,10|2,2:0|2:0,2:0:0:0:
176,78,182814,1,2,3:2:0:0:
176,78,182919,1,2,2:0:0:0:
176,78,183024,2,0,P|184:61|192:44,1,36.749998878479,2|2,2:0|2:0,2:0:0:0:
226,11,183234,2,0,P|259:25|291:42,1,73.4999977569581,10|2,2:0|2:0,2:0:0:0:
482,246,198758,6,0,P|470:287|464:328,2,84,6|2|2,2:0|2:0|2:0,2:0:0:0:
430,194,199598,2,0,P|418:153|412:112,2,84,2|2|2,2:0|2:0|2:0,2:0:0:0:
378,245,200437,2,0,P|366:286|360:327,2,84,2|2|2,2:0|2:0|2:0,2:0:0:0:
326,193,201277,2,0,P|310:138|302:83,1,112,2|2,2:0|2:0,2:0:0:0:
159,69,202115,6,0,P|117:74|77:61,2,84,2|2|2,2:0|2:0|2:0,2:0:0:0:
188,136,202954,2,0,P|171:174|141:202,2,84,2|2|2,2:0|2:0|2:0,2:0:0:0:
260,142,203793,2,0,P|285:175|294:215,2,84,2|2|2,2:0|2:0|2:0,2:0:0:0:
302,83,204633,2,0,P|357:76|410:92,1,112,2|2,2:0|2:0,2:0:0:0:
493,210,205472,6,0,P|478:250|467:290,1,84,6|2,2:0|2:0,2:0:0:0:
457,330,205891,1,2,2:0:0:0:
382,365,206101,1,2,2:0:0:0:
311,322,206311,2,0,P|236:328|167:350,1,125.999996154785,2|2,2:0|2:0,2:0:0:0:
40,267,207150,6,0,B|38:204|57:240|57:164,1,94.499997116089,2|2,2:0|2:0,2:0:0:0:
34,140,207570,1,2,2:0:0:0:
20,59,207779,1,2,2:0:0:0:
97,32,207989,2,0,P|149:46|245:49,1,125.999996154785,2|2,2:0|2:0,2:0:0:0:
381,17,208828,6,0,P|315:77|310:130,1,125.999996154785,6|2,3:2|2:3,2:0:0:0:
328,151,209353,1,0,2:0:0:0:
328,151,209458,1,2,2:3:0:0:
280,216,209668,2,0,P|270:260|261:287,1,62.9999980773926,2|2,2:3|2:3,2:0:0:0:
333,338,210087,1,2,2:3:0:0:
333,338,210192,1,2,2:3:0:0:
333,338,210297,1,2,2:3:0:0:
403,296,210507,6,0,P|406:280|410:265,3,31.4999990386963,6|2|2|2,3:2|2:3|2:3|2:3,2:0:0:0:
381,236,210926,2,0,P|377:220|374:213,3,20.9999993591309,2|2|2|2,2:3|0:3|2:3|2:3,2:0:0:0:
414,189,211241,1,2,0:3:0:0:
414,189,211346,2,0,P|417:173|428:144,3,31.4999990386963,2|2|2|2,2:3|2:3|2:3|2:3,2:0:0:0:
383,116,211765,1,2,2:3:0:0:
437,57,211975,1,2,2:3:0:0:
332,7,212185,6,0,P|295:20|258:30,1,77.0000023498536,6|2,3:2|2:0,2:0:0:0:
220,63,212500,1,2,2:0:0:0:
220,63,212605,2,0,P|205:108|230:144,1,77.0000023498536,8|2,2:0|2:0,2:0:0:0:
274,214,213024,2,0,B|260:271|253:253|242:303,1,77.0000023498536,2|2,3:2|2:0,2:0:0:0:
233,334,213339,1,2,2:0:0:0:
233,334,213444,2,0,P|178:314|138:314,1,77.0000023498536,8|2,2:0|2:0,2:0:0:0:
73,262,213863,6,0,P|52:229|74:178,1,77.0000023498536,2|2,3:2|2:0,2:0:0:0:
92,156,214178,1,2,2:0:0:0:
92,156,214283,2,0,P|82:118|79:80,1,77.0000023498536,8|2,2:0|2:0,2:0:0:0:
165,28,214703,1,2,3:2:0:0:
255,89,214912,1,2,2:0:0:0:
255,89,215017,1,2,2:0:0:0:
255,89,215122,1,10,2:0:0:0:
321,21,215332,1,2,2:0:0:0:
406,100,215542,6,0,B|407:163|393:151|393:214,1,115.50000352478,6|2,3:2|2:0,2:0:0:0:
407,262,215961,2,0,P|382:308|366:358,1,77.0000023498536,10|0,2:0|2:0,2:0:0:0:
281,371,216381,2,0,P|266:335|247:302,1,77.0000023498536,2|2,3:2|2:0,2:0:0:0:
225,204,216800,2,0,P|191:223|156:237,1,77.0000023498536,10|2,2:0|2:0,2:0:0:0:
64,194,217220,6,0,P|48:153|65:117,1,77.0000023498536,6|0,3:2|2:0,2:0:0:0:
103,99,217535,2,0,B|107:57|120:81|126:24,1,77.0000023498536,2|0,2:0|2:0,2:0:0:0:
174,13,217849,2,0,P|217:42|266:51,1,77.0000023498536,2|2,2:0|3:2,2:0:0:0:
285,32,218164,1,0,2:0:0:0:
289,36,218269,2,0,P|312:30|338:26,1,38.5000011749268,2|0,2:0|2:0,2:0:0:0:
369,53,218479,1,10,2:0:0:0:
465,24,218689,1,2,2:0:0:0:
497,134,218898,6,0,P|467:189|459:224,1,77.0000023498536,6|2,3:2|2:0,2:0:0:0:
456,255,219213,1,2,2:0:0:0:
456,255,219318,2,0,B|396:254|431:266|360:265,1,77.0000023498536,8|2,2:0|2:0,2:0:0:0:
298,322,219737,2,0,P|289:284|270:251,1,77.0000023498536,2|2,3:2|2:0,2:0:0:0:
225,242,220052,1,2,2:0:0:0:
225,242,220157,2,0,P|236:188|247:144,1,77.0000023498536,8|2,2:0|2:0,2:0:0:0:
301,86,220577,6,0,B|289:42|279:60|269:13,1,77.0000023498536,2|2,3:2|2:0,2:0:0:0:
224,13,220891,1,2,2:0:0:0:
224,13,220996,2,0,P|156:29|118:32,1,77.0000023498536,8|2,2:0|2:0,2:0:0:0:
69,91,221416,1,2,3:2:0:0:
107,193,221626,1,2,2:0:0:0:
107,193,221730,1,2,2:0:0:0:
107,193,221835,2,0,P|122:239|106:273,1,77.0000023498536,10|2,2:0|2:0,2:0:0:0:
76,375,222255,6,0,P|164:331|204:334,1,115.50000352478,6|0,3:2|2:0,2:0:0:0:
227,318,222675,2,0,P|265:354|301:369,1,77.0000023498536,8|2,2:0|2:0,2:0:0:0:
386,362,223094,1,2,3:2:0:0:
473,311,223304,1,2,2:0:0:0:
473,311,223409,1,2,2:0:0:0:
477,315,223514,1,10,2:0:0:0:
497,217,223723,1,2,2:0:0:0:
457,124,223933,6,0,P|367:111|313:90,1,115.50000352478,6|2,3:2|2:0,2:0:0:0:
303,73,224353,1,10,2:0:0:0:
216,124,224563,2,0,P|203:164|220:204,1,77.0000023498536,2|6,2:0|3:2,2:0:0:0:
292,274,224982,1,2,2:0:0:0:
292,274,225087,1,2,2:0:0:0:
292,274,225192,1,10,2:0:0:0:
198,309,225402,1,2,2:0:0:0:
213,195,225612,6,0,P|226:155|209:115,1,77.0000023498536,6|2,3:2|2:0,2:0:0:0:
187,81,225926,1,2,2:0:0:0:
187,81,226031,2,0,P|196:43|207:6,1,77.0000023498536,8|2,2:0|2:0,2:0:0:0:
296,52,226451,2,0,B|338:43|328:34|371:27,1,77.0000023498536,2|2,3:2|2:0,2:0:0:0:
421,43,226765,1,2,2:0:0:0:
421,43,226870,2,0,P|446:79|490:94,1,77.0000023498536,8|2,2:0|2:0,2:0:0:0:
487,192,227290,6,0,P|475:239|472:287,1,77.0000023498536,2|2,3:2|2:0,2:0:0:0:
478,321,227605,1,2,2:0:0:0:
478,321,227710,2,0,P|426:349|393:325,1,77.0000023498536,8|2,2:0|2:0,2:0:0:0:
334,283,228129,1,2,3:2:0:0:
252,335,228339,1,2,2:0:0:0:
252,335,228444,1,2,2:0:0:0:
252,335,228549,1,10,2:0:0:0:
176,269,228758,1,2,2:0:0:0:
67,313,228968,6,0,P|104:229|112:188,1,115.50000352478,6|0,3:2|2:0,2:0:0:0:
83,162,229388,2,0,P|71:117|76:65,1,77.0000023498536,10|0,2:0|2:0,2:0:0:0:
161,42,229807,2,0,P|149:87|154:139,1,77.0000023498536,2|2,3:2|2:0,2:0:0:0:
226,181,230227,2,0,P|271:169|323:174,1,77.0000023498536,10|2,2:0|2:0,2:0:0:0:
400,155,230647,6,0,B|404:207|394:179|400:243,1,77.0000023498536,6|0,3:2|2:0,2:0:0:0:
419,277,230961,2,0,P|367:314|338:346,1,77.0000023498536,2|0,2:0|2:0,2:0:0:0:
315,351,231276,2,0,P|268:333|268:286,1,77.0000023498536,2|6,2:0|3:2,2:0:0:0:
234,261,231591,1,2,2:0:0:0:
238,265,231696,2,0,P|208:254|179:244,1,38.5000011749268,2|0,2:0|2:0,2:0:0:0:
153,238,231905,1,10,2:0:0:0:
67,290,232115,1,2,2:0:0:0:
30,181,232325,6,0,P|61:137|77:97,1,77.0000023498536,6|2,3:2|2:0,2:0:0:0:
110,84,232640,1,2,2:0:0:0:
110,84,232744,2,0,B|160:86|138:98|198:102,1,77.0000023498536,8|2,2:0|2:0,2:0:0:0:
262,164,233164,2,0,P|279:209|252:236,1,77.0000023498536,2|2,3:2|2:0,2:0:0:0:
223,259,233479,1,2,2:0:0:0:
223,259,233584,2,0,P|250:319|263:364,1,77.0000023498536,8|2,2:0|2:0,2:0:0:0:
350,356,234003,6,0,P|397:322|432:314,1,77.0000023498536,2|2,3:2|2:0,2:0:0:0:
457,288,234318,1,2,2:0:0:0:
457,288,234423,2,0,B|469:234|455:248|466:211,1,77.0000023498536,8|2,2:0|2:0,2:0:0:0:
510,122,234842,1,2,3:2:0:0:
452,46,235052,1,2,2:0:0:0:
452,46,235157,1,2,2:0:0:0:
456,50,235262,1,10,2:0:0:0:
370,102,235472,1,2,2:0:0:0:
280,29,235682,6,0,B|219:34|238:59|168:65,1,115.50000352478,6|0,3:2|2:0,2:0:0:0:
126,86,236101,2,0,P|113:120|132:157,1,77.0000023498536,8|2,2:0|2:0,2:0:0:0:
199,227,236521,1,2,3:2:0:0:
146,310,236730,1,2,2:0:0:0:
146,310,236835,1,2,2:0:0:0:
150,314,236940,1,10,2:0:0:0:
239,359,237150,1,2,2:0:0:0:
329,316,237360,6,0,P|385:336|458:348,1,115.50000352478,6|2,3:2|2:0,2:0:0:0:
484,322,237779,2,0,B|497:278|480:288|495:239,1,77.0000023498536,10|0,2:0|2:0,2:0:0:0:
421,174,238199,2,0,B|408:130|425:140|410:91,1,77.0000023498536,2|0,3:2|2:0,2:0:0:0:
340,26,238619,2,0,B|296:13|306:30|257:15,1,77.0000023498536,10|0,2:0|2:0,2:0:0:0:
189,105,239038,6,0,P|179:147|204:191,1,77.0000023498536,6|2,3:2|2:0,2:0:0:0:
237,196,239353,1,2,2:0:0:0:
237,196,239458,2,0,P|226:264|226:298,1,77.0000023498536,8|2,2:0|2:0,2:0:0:0:
200,368,239877,2,0,B|162:355|169:343|127:334,1,77.0000023498536,6|2,3:2|2:0,2:0:0:0:
85,349,240192,1,2,2:0:0:0:
85,349,240297,2,0,P|67:284|46:251,1,77.0000023498536,8|2,2:0|2:0,2:0:0:0:
8,191,240717,6,0,P|-6:155|8:120,1,77.0000023498536,6|2,3:2|2:0,2:0:0:0:
41,82,241031,1,2,2:0:0:0:
41,82,241136,2,0,P|86:102|126:115,1,77.0000023498536,10|2,2:0|2:0,2:0:0:0:
183,182,241556,2,0,P|200:173|218:167,3,38.5000011749268,0|2|2|2,3:2|2:0|2:0|2:0,2:0:0:0:
254,132,241975,2,0,P|299:152|339:165,1,77.0000023498536,10|2,2:0|2:0,2:0:0:0:
448,170,242395,5,2,3:2:0:0:
448,170,242500,1,2,2:0:0:0:
448,170,242605,2,0,P|439:187|433:205,1,38.5000011749268,2|2,2:0|2:0,2:0:0:0:
468,241,242814,2,0,P|476:258|479:267,3,25.6666674499512,10|8|8|8,2:0|2:0|2:0|2:0,2:0:0:0:
448,306,243129,1,8,0:0:0:0:
448,306,243234,1,8,2:0:0:0:
305,365,243549,1,8,2:0:0:0:
207,223,243863,5,14,3:2:0:0:
256,192,243968,12,0,250786,2:0:0:0:
