osu file format v14

[General]
AudioFilename: audio.mp3
AudioLeadIn: 0
PreviewTime: 13409
Countdown: 0
SampleSet: Soft
StackLeniency: 0.4
Mode: 0
LetterboxInBreaks: 0
WidescreenStoryboard: 1

[Editor]
Bookmarks: 250052
DistanceSpacing: 1.3
BeatDivisor: 4
GridSize: 32
TimelineZoom: 2.1

[Metadata]
Title:only my railgun
TitleUnicode:only my railgun
Artist:fripSide
ArtistUnicode:fripSide
Creator:Petal
Version:PotatoDew's Insane
Source:とある科学の超電磁砲
Tags:Opening Misaka Mikoto Shirai Kuroko Uiharu Kazari Saten Ruiko level sisters sister op japanese anime pop jpop matha full version toaru kagaku no railgun a certain scientific 超科學電磁泡 index PotatoDew dkblaze satellite oriental wanpachi yoshino nanjou
BeatmapID:2882314
BeatmapSetID:1358802

[Difficulty]
HPDrainRate:4.5
CircleSize:3.8
OverallDifficulty:8
ApproachRate:9
SliderMultiplier:1.5
SliderTickRate:1

[Events]
//Background and Video events
0,0,"BG.jpg",0,0
//Break Periods
2,185332,198158
//Storyboard Layer 0 (Background)
//Storyboard Layer 1 (Fail)
//Storyboard Layer 2 (Pass)
//Storyboard Layer 3 (Foreground)
//Storyboard Layer 4 (Overlay)
//Storyboard Sound Samples

[TimingPoints]
717,419.58041958042,4,2,1,55,1,0
5647,-83.3333333333333,4,2,1,55,0,0
6486,-100,4,2,1,55,0,0
7010,-83.3333333333333,4,2,3,55,0,0
10157,-71.4285714285714,4,2,1,55,0,0
10367,-71.4285714285714,4,2,3,55,0,0
11206,-83.3333333333333,4,2,3,55,0,0
12465,-111.111111111111,4,2,3,55,0,0
13304,-111.111111111111,4,2,1,55,0,0
13514,-111.111111111111,4,2,1,65,0,0
14143,-55.5555555555556,4,2,2,85,0,1
14247,-55.5555555555556,4,2,1,85,0,1
15821,-55.5555555555556,4,2,4,85,0,1
15925,-55.5555555555556,4,2,1,85,0,1
16661,-55.5555555555556,4,2,4,85,0,1
16765,-55.5555555555556,4,2,1,85,0,1
17500,-45.4545454545455,4,2,4,85,0,1
17710,-45.4545454545455,4,2,1,85,0,1
17919,-66.6666666666667,4,2,1,85,0,1
18339,-40,4,2,1,85,0,1
18758,-58.8235294117647,4,2,1,85,0,1
18916,-58.8235294117647,4,2,1,5,0,1
18968,-58.8235294117647,4,2,1,85,0,1
19178,-58.8235294117647,4,2,4,85,0,1
19283,-55.5555555555556,4,2,1,85,0,1
20017,-55.5555555555556,4,2,4,85,0,0
20227,-55.5555555555556,4,2,1,85,0,0
20856,-55.5555555555556,4,2,2,85,0,1
20960,-55.5555555555556,4,2,1,85,0,1
22535,-55.5555555555556,4,2,4,85,0,1
22639,-55.5555555555556,4,2,1,85,0,1
23374,-55.5555555555556,4,2,4,85,0,1
23478,-55.5555555555556,4,2,1,85,0,1
23531,-55.5555555555556,4,2,1,85,0,1
24213,-55.5555555555556,4,2,4,85,0,1
24527,-55.5555555555556,4,2,1,85,0,1
24790,-55.5555555555556,4,2,1,5,0,1
24842,-55.5555555555556,4,2,1,85,0,1
25891,-41.6666666666667,4,2,1,85,0,1
26311,-45.4545454545455,4,2,1,85,0,1
26730,-50,4,2,1,85,0,1
27150,-55.5555555555556,4,2,1,85,0,1
28409,-55.5555555555556,4,2,4,85,0,1
28513,-55.5555555555556,4,2,1,85,0,1
29248,-55.5555555555556,4,2,4,85,0,1
29352,-55.5555555555556,4,2,1,85,0,1
30507,-66.6666666666667,4,2,1,85,0,1
32605,-66.6666666666667,4,2,1,55,0,0
34283,-100,4,2,3,55,0,0
35961,-100,4,2,4,55,0,0
36171,-100,4,2,3,55,0,0
36800,-100,4,2,4,55,0,0
37009,-100,4,2,3,55,0,0
37640,-100,4,2,4,55,0,0
37849,-100,4,2,3,55,0,0
39318,-100,4,2,4,55,0,0
39528,-100,4,2,3,55,0,0
40157,-83.3333333333333,4,2,1,65,0,0
40996,-90.9090909090909,4,2,1,65,0,0
42675,-90.9090909090909,4,2,4,65,0,0
43094,-90.9090909090909,4,2,1,65,0,0
45192,-90.9090909090909,4,2,4,65,0,0
45297,-90.9090909090909,4,2,1,65,0,0
46870,-90.9090909090909,4,2,3,65,0,0
47710,-90.9090909090909,4,2,1,65,0,0
48024,-83.3333333333333,4,2,1,65,0,0
60297,-66.6666666666667,4,2,1,65,0,0
61136,-58.8235294117647,4,2,1,65,0,0
62605,-58.8235294117647,4,2,1,60,0,0
62814,-55.5555555555556,4,2,2,85,0,1
62918,-55.5555555555556,4,2,1,85,0,1
64493,-55.5555555555556,4,2,4,85,0,1
64597,-55.5555555555556,4,2,1,85,0,1
65332,-55.5555555555556,4,2,4,85,0,1
65436,-55.5555555555556,4,2,1,85,0,1
66171,-45.4545454545455,4,2,1,85,0,1
66591,-66.6666666666667,4,2,1,85,0,1
67010,-40,4,2,1,85,0,1
67430,-58.8235294117647,4,2,1,85,0,1
67587,-58.8235294117647,4,2,1,5,0,1
67640,-58.8235294117647,4,2,1,85,0,1
67849,-58.8235294117647,4,2,4,85,0,1
67954,-55.5555555555556,4,2,1,85,0,1
68059,-55.5555555555556,4,2,1,85,0,1
68689,-55.5555555555556,4,2,4,85,0,0
68793,-55.5555555555556,4,2,1,85,0,0
68846,-55.5555555555556,4,2,1,85,0,0
68898,-55.5555555555556,4,2,1,85,0,0
69528,-55.5555555555556,4,2,2,85,0,1
69632,-55.5555555555556,4,2,1,85,0,1
71206,-55.5555555555556,4,2,4,85,0,1
71310,-55.5555555555556,4,2,1,85,0,1
72045,-55.5555555555556,4,2,4,85,0,1
72150,-55.5555555555556,4,2,1,85,0,1
73461,-55.5555555555556,4,2,1,5,0,1
73513,-55.5555555555556,4,2,1,85,0,1
74563,-55.5555555555556,4,2,1,85,0,0
76241,-55.5555555555556,4,2,2,85,0,1
76345,-55.5555555555556,4,2,1,85,0,1
77919,-55.5555555555556,4,2,4,85,0,1
78023,-55.5555555555556,4,2,1,85,0,1
78758,-55.5555555555556,4,2,4,85,0,1
78862,-55.5555555555556,4,2,1,85,0,1
79598,-45.4545454545455,4,2,1,85,0,1
80017,-66.6666666666667,4,2,1,85,0,1
80437,-40,4,2,1,85,0,1
80856,-58.8235294117647,4,2,1,85,0,1
81276,-58.8235294117647,4,2,4,85,0,1
81381,-55.5555555555556,4,2,1,85,0,1
81486,-55.5555555555556,4,2,1,85,0,1
82115,-55.5555555555556,4,2,4,85,0,0
82219,-55.5555555555556,4,2,1,85,0,0
82954,-55.5555555555556,4,2,1,85,0,1
84633,-55.5555555555556,4,2,4,85,0,1
84737,-55.5555555555556,4,2,1,85,0,1
85472,-55.5555555555556,4,2,4,85,0,1
85577,-55.5555555555556,4,2,1,85,0,1
86888,-55.5555555555556,4,2,1,5,0,1
86940,-55.5555555555556,4,2,1,85,0,1
87989,-41.6666666666667,4,2,4,85,0,1
88199,-41.6666666666667,4,2,1,85,0,1
88409,-45.4545454545455,4,2,1,85,0,1
88828,-50,4,2,1,85,0,1
89248,-55.5555555555556,4,2,1,85,0,1
89668,-55.5555555555556,4,2,4,85,0,1
89772,-55.5555555555556,4,2,1,85,0,1
90507,-55.5555555555556,4,2,4,85,0,1
90611,-55.5555555555556,4,2,1,85,0,1
91346,-55.5555555555556,4,2,4,85,0,1
91450,-55.5555555555556,4,2,1,85,0,1
92605,-66.6666666666667,4,2,1,85,0,1
94703,-66.6666666666667,4,2,1,85,0,0
96171,-66.6666666666667,4,2,1,55,0,0
96381,-100,4,2,3,55,0,0
98059,-100,4,2,4,55,0,0
98269,-100,4,2,3,55,0,0
98898,-100,4,2,4,55,0,0
99107,-100,4,2,3,55,0,0
99737,-100,4,2,4,55,0,0
99947,-100,4,2,3,55,0,0
101416,-100,4,2,4,55,0,0
101626,-100,4,2,3,55,0,0
102255,-83.3333333333333,4,2,1,65,0,0
103094,-90.9090909090909,4,2,1,65,0,0
104772,-90.9090909090909,4,2,4,65,0,0
105402,-90.9090909090909,4,2,1,65,0,0
105612,-90.9090909090909,4,2,4,65,0,0
105717,-90.9090909090909,4,2,1,65,0,0
107290,-90.9090909090909,4,2,4,65,0,0
107395,-90.9090909090909,4,2,1,65,0,0
109807,-90.9090909090909,4,2,1,65,0,0
110122,-83.3333333333333,4,2,1,65,0,0
122395,-66.6666666666667,4,2,1,65,0,0
123234,-58.8235294117647,4,2,1,65,0,0
124283,-58.8235294117647,4,2,1,65,0,0
124912,-55.5555555555556,4,2,2,85,0,1
125016,-55.5555555555556,4,2,1,85,0,1
126591,-55.5555555555556,4,2,4,85,0,1
126695,-55.5555555555556,4,2,1,85,0,1
127430,-55.5555555555556,4,2,4,85,0,1
127534,-55.5555555555556,4,2,1,85,0,1
128269,-45.4545454545455,4,2,1,85,0,1
128689,-66.6666666666667,4,2,1,85,0,1
129108,-40,4,2,1,85,0,1
129528,-58.8235294117647,4,2,1,85,0,1
129685,-58.8235294117647,4,2,1,5,0,1
129737,-58.8235294117647,4,2,1,85,0,1
129947,-58.8235294117647,4,2,4,85,0,1
130052,-55.5555555555556,4,2,1,85,0,1
130157,-55.5555555555556,4,2,1,85,0,1
130786,-55.5555555555556,4,2,4,85,0,0
130890,-55.5555555555556,4,2,1,85,0,0
130944,-55.5555555555556,4,2,1,85,0,0
130996,-55.5555555555556,4,2,1,85,0,0
131626,-55.5555555555556,4,2,2,85,0,1
131730,-55.5555555555556,4,2,1,85,0,1
133304,-55.5555555555556,4,2,4,85,0,1
133408,-55.5555555555556,4,2,1,85,0,1
134143,-55.5555555555556,4,2,4,85,0,1
134248,-55.5555555555556,4,2,1,85,0,1
135559,-55.5555555555556,4,2,1,5,0,1
135611,-55.5555555555556,4,2,1,85,0,1
136661,-55.5555555555556,4,2,1,85,0,0
138339,-55.5555555555556,4,2,2,85,0,1
138443,-55.5555555555556,4,2,1,85,0,1
140017,-55.5555555555556,4,2,4,85,0,1
140121,-55.5555555555556,4,2,1,85,0,1
140856,-55.5555555555556,4,2,4,85,0,1
140961,-55.5555555555556,4,2,1,85,0,1
141696,-45.4545454545455,4,2,1,85,0,1
142115,-66.6666666666667,4,2,1,85,0,1
142535,-40,4,2,1,85,0,1
142954,-58.8235294117647,4,2,1,85,0,1
143112,-58.8235294117647,4,2,1,5,0,1
143164,-58.8235294117647,4,2,1,85,0,1
143374,-58.8235294117647,4,2,4,85,0,1
143479,-55.5555555555556,4,2,1,85,0,1
143584,-55.5555555555556,4,2,1,85,0,1
144213,-55.5555555555556,4,2,4,85,0,0
144318,-55.5555555555556,4,2,1,85,0,0
144423,-55.5555555555556,4,2,1,85,0,0
145052,-55.5555555555556,4,2,2,85,0,1
145156,-55.5555555555556,4,2,1,85,0,1
146730,-55.5555555555556,4,2,4,85,0,1
146834,-55.5555555555556,4,2,1,85,0,1
147098,-55.5555555555556,4,2,1,5,0,1
147150,-55.5555555555556,4,2,1,85,0,1
147570,-55.5555555555556,4,2,4,85,0,1
147675,-55.5555555555556,4,2,1,85,0,1
148986,-55.5555555555556,4,2,1,5,0,1
149038,-55.5555555555556,4,2,1,85,0,1
150087,-41.6666666666667,4,2,4,85,0,1
150297,-41.6666666666667,4,2,1,85,0,1
150507,-45.4545454545455,4,2,1,85,0,1
150926,-50,4,2,1,85,0,1
151346,-55.5555555555556,4,2,1,85,0,1
151765,-55.5555555555556,4,2,4,85,0,1
151869,-55.5555555555556,4,2,1,85,0,1
152605,-55.5555555555556,4,2,4,85,0,1
152709,-55.5555555555556,4,2,1,85,0,1
153444,-55.5555555555556,4,2,4,85,0,1
153548,-55.5555555555556,4,2,1,85,0,1
154703,-66.6666666666667,4,2,1,85,0,1
156800,-66.6666666666667,4,2,1,65,0,0
161416,-83.3333333333333,4,2,1,65,0,0
162255,-100,4,2,1,65,0,0
162884,-71.4285714285714,4,2,1,65,0,0
163094,-71.4285714285714,4,2,3,65,0,0
163303,-71.4285714285714,4,2,1,65,0,0
163514,-66.6666666666667,4,2,1,65,0,0
170227,-58.8235294117647,4,2,2,85,0,1
170542,-58.8235294117647,4,2,1,85,0,1
171905,-58.8235294117647,4,2,4,85,0,1
172220,-58.8235294117647,4,2,1,85,0,1
172744,-58.8235294117647,4,2,4,85,0,1
172954,-58.8235294117647,4,2,1,85,0,1
173584,-58.8235294117647,4,2,4,85,0,1
173793,-58.8235294117647,4,2,1,85,0,1
175262,-58.8235294117647,4,2,4,85,0,1
175472,-58.8235294117647,4,2,1,85,0,1
176101,-58.8235294117647,4,2,4,85,0,1
176311,-58.8235294117647,4,2,1,85,0,1
176940,-58.8235294117647,4,2,4,85,0,1
177150,-52.6315789473684,4,2,1,85,0,1
178094,-58.8235294117647,4,2,1,85,0,1
178619,-58.8235294117647,4,2,4,85,0,1
178723,-58.8235294117647,4,2,1,85,0,1
179458,-58.8235294117647,4,2,4,85,0,1
179563,-58.8235294117647,4,2,1,85,0,1
180297,-58.8235294117647,4,2,4,85,0,1
180402,-58.8235294117647,4,2,1,85,0,1
181975,-58.8235294117647,4,2,4,85,0,1
182080,-58.8235294117647,4,2,1,85,0,1
183444,-58.8235294117647,4,2,1,55,0,0
198758,-83.3333333333333,4,2,1,50,0,0
203793,-83.3333333333333,4,2,4,50,0,0
203898,-83.3333333333333,4,2,1,50,0,0
204633,-83.3333333333333,4,2,4,50,0,0
204842,-83.3333333333333,4,2,1,50,0,0
205472,-83.3333333333333,4,2,1,65,0,0
205786,-76.9230769230769,4,2,1,65,0,0
207150,-76.9230769230769,4,2,4,65,0,0
207255,-76.9230769230769,4,2,1,65,0,0
207989,-76.9230769230769,4,2,4,65,0,0
208094,-76.9230769230769,4,2,1,65,0,0
208828,-76.9230769230769,4,2,4,65,0,0
208932,-76.9230769230769,4,2,1,65,0,0
210507,-76.9230769230769,4,2,4,65,0,0
210612,-76.9230769230769,4,2,1,65,0,0
210926,-66.6666666666667,4,2,1,65,0,0
212185,-55.5555555555556,4,2,2,90,0,1
212289,-55.5555555555556,4,2,1,90,0,1
213863,-55.5555555555556,4,2,4,90,0,1
213967,-55.5555555555556,4,2,1,90,0,1
214703,-55.5555555555556,4,2,4,90,0,1
214807,-55.5555555555556,4,2,1,90,0,1
215542,-45.4545454545455,4,2,4,90,0,1
215751,-45.4545454545455,4,2,1,90,0,1
215961,-66.6666666666667,4,2,1,90,0,1
216381,-40,4,2,1,90,0,1
216800,-58.8235294117647,4,2,1,90,0,1
216958,-58.8235294117647,4,2,1,5,0,1
217010,-58.8235294117647,4,2,1,90,0,1
217220,-58.8235294117647,4,2,4,90,0,1
217325,-55.5555555555556,4,2,1,90,0,1
218059,-55.5555555555556,4,2,4,90,0,0
218163,-55.5555555555556,4,2,1,90,0,0
218898,-55.5555555555556,4,2,2,90,0,1
219002,-55.5555555555556,4,2,1,90,0,1
220577,-55.5555555555556,4,2,4,90,0,1
220681,-55.5555555555556,4,2,1,90,0,1
221416,-55.5555555555556,4,2,4,90,0,1
221521,-55.5555555555556,4,2,1,90,0,1
222255,-55.5555555555556,4,2,4,90,0,1
222569,-55.5555555555556,4,2,1,90,0,1
223933,-55.5555555555556,4,2,1,90,0,0
225612,-55.5555555555556,4,2,2,90,0,1
225716,-55.5555555555556,4,2,1,90,0,1
227290,-55.5555555555556,4,2,4,90,0,1
227394,-55.5555555555556,4,2,1,90,0,1
228129,-55.5555555555556,4,2,4,90,0,1
228234,-55.5555555555556,4,2,1,90,0,1
228968,-45.4545454545455,4,2,4,90,0,1
229282,-45.4545454545455,4,2,1,90,0,1
229388,-66.6666666666667,4,2,1,90,0,1
229807,-40,4,2,1,90,0,1
230227,-58.8235294117647,4,2,1,90,0,1
230384,-58.8235294117647,4,2,1,5,0,1
230437,-58.8235294117647,4,2,1,90,0,1
230647,-58.8235294117647,4,2,4,90,0,1
230751,-55.5555555555556,4,2,1,90,0,1
231486,-55.5555555555556,4,2,4,90,0,0
231590,-55.5555555555556,4,2,1,90,0,0
231800,-55.5555555555556,4,2,1,90,0,0
232325,-55.5555555555556,4,2,2,90,0,1
232429,-55.5555555555556,4,2,1,90,0,1
234003,-55.5555555555556,4,2,4,90,0,1
234107,-55.5555555555556,4,2,1,90,0,1
234842,-55.5555555555556,4,2,4,90,0,1
234946,-55.5555555555556,4,2,1,90,0,1
236258,-55.5555555555556,4,2,1,5,0,1
236311,-55.5555555555556,4,2,1,90,0,1
237360,-41.6666666666667,4,2,4,90,0,1
237570,-41.6666666666667,4,2,1,90,0,1
237779,-45.4545454545455,4,2,1,90,0,1
238199,-50,4,2,1,90,0,1
238619,-55.5555555555556,4,2,1,90,0,1
239038,-55.5555555555556,4,2,2,90,0,1
239142,-55.5555555555556,4,2,1,90,0,1
239877,-55.5555555555556,4,2,4,90,0,1
239981,-55.5555555555556,4,2,1,90,0,1
240717,-62.5,4,2,4,90,0,1
240821,-62.5,4,2,1,90,0,1
242814,-55.5555555555556,4,2,1,90,0,1
243234,-50,4,2,1,90,0,1
243863,-370.37037037037,4,2,2,90,0,0
243968,-370.37037037037,4,2,2,30,0,0
250051,-370.37037037037,4,2,1,10,0,0

[Colours]
Combo1 : 255,128,64
Combo2 : 155,206,206
Combo3 : 198,147,170
Combo4 : 163,183,220

[HitObjects]
18,137,717,6,0,L|111:127,1,75,2|2,3:2|2:0,2:0:0:0:
157,67,1136,1,2,3:2:0:0:
218,162,1346,1,2,2:0:0:0:
218,162,1451,6,0,P|193:202|189:272,1,112.5,2|2,2:0|2:0,2:0:0:0:
232,340,1975,1,2,3:2:0:0:
337,284,2185,1,2,2:0:0:0:
337,284,2290,6,0,P|336:335|394:351,1,112.5,2|2,2:0|2:0,2:0:0:0:
463,296,2814,1,2,3:2:0:0:
374,201,3024,1,2,2:0:0:0:
374,201,3129,6,0,B|382:154|382:154|391:148|391:148|403:86,1,112.5,2|2,2:0|2:0,2:0:0:0:
349,29,3654,1,2,3:2:0:0:
247,96,3863,1,2,2:0:0:0:
247,96,3968,1,2,2:0:0:0:
247,96,4073,6,0,L|165:84,1,75,2|2,3:2|2:0,2:0:0:0:
107,23,4493,1,2,3:2:0:0:
19,98,4703,1,2,2:0:0:0:
19,98,4807,6,0,B|34:179|34:179|2:210,1,112.5,2|2,2:0|2:0,2:0:0:0:
23,279,5332,1,2,2:0:0:0:
137,366,5542,1,6,2:0:0:0:
137,366,5647,6,0,B|116:322|116:322|141:297|141:297|131:242,1,134.999995880127,0|2,2:0|2:0,2:0:0:0:
224,241,6171,1,2,3:2:0:0:
250,234,6276,1,0,2:0:0:0:
277,234,6381,1,2,2:0:0:0:
302,243,6486,2,0,B|353:253|353:253|359:250|359:250|426:263,1,112.5,2|2,2:0|2:0,2:0:0:0:
483,174,7010,6,0,L|488:200,6,14.9999995422363,2|2|2|2|2|2|2,3:2|2:0|2:0|2:0|2:0|2:0|2:0,2:0:0:0:
460,145,7325,1,2,2:0:0:0:
465,109,7430,6,0,L|364:95,1,89.9999972534181,0|2,3:0|2:0,2:0:0:0:
281,17,7849,1,0,3:0:0:0:
163,111,8059,1,2,2:0:0:0:
163,111,8164,1,2,2:0:0:0:
163,111,8269,6,0,P|155:58|118:17,1,89.9999972534181,2|2,2:0|2:0,2:0:0:0:
41,73,8689,1,0,3:0:0:0:
78,211,8898,1,2,2:0:0:0:
78,211,9003,1,2,2:0:0:0:
78,211,9108,6,0,L|176:222,1,89.9999972534181,2|2,2:0|2:0,2:0:0:0:
300,158,9528,1,0,3:0:0:0:
276,190,9633,1,2,2:0:0:0:
269,229,9737,2,0,P|275:252|296:278,1,44.999998626709,2|2,2:0|2:0,2:0:0:0:
404,223,9947,2,0,P|390:219|348:221,1,44.999998626709,0|0,3:0|2:0,2:0:0:0:
269,348,10157,6,0,B|295:356|295:356|326:343,1,52.4999983978272,6|0,2:0|2:0,2:0:0:0:
164,340,10367,6,0,L|171:380,4,26.2499991989136,2|2|2|2|2,3:2|2:0|2:0|2:0|2:0,2:0:0:0:
152,316,10682,1,2,2:0:0:0:
140,288,10786,5,0,3:2:0:0:
110,277,10891,1,0,3:0:0:0:
88,253,10996,1,2,3:2:0:0:
84,221,11101,1,0,3:0:0:0:
91,190,11206,2,0,P|120:173|150:167,1,44.999998626709,0|0,3:0|3:0,2:0:0:0:
164,83,11416,2,0,P|193:99|214:120,1,44.999998626709,2|0,3:2|3:0,2:0:0:0:
282,207,11626,5,0,3:0:0:0:
318,186,11730,1,0,3:0:0:0:
359,180,11835,1,2,3:2:0:0:
399,190,11940,1,0,3:0:0:0:
433,214,12045,6,0,L|474:221,3,29.9999990844727,0|0|0|2,3:0|3:0|3:0|3:2,2:0:0:0:
432,249,12360,1,0,3:0:0:0:
426,286,12465,6,0,B|330:274|330:274|252:291|252:291|136:275,1,269.999991760254,4|0,3:0|2:0,2:0:0:0:
26,163,13514,5,2,2:0:0:0:
40,337,13723,1,2,2:0:0:0:
33,250,13933,1,2,2:0:0:0:
117,85,14143,6,0,L|196:72,1,67.4999979400635,4|0,3:2|2:0,2:0:0:0:
313,163,14353,1,2,2:0:0:0:
281,150,14458,2,0,P|229:109|216:29,1,134.999995880127,2|0,2:0|2:0,2:0:0:0:
336,0,14772,6,0,L|324:91,1,67.4999979400635,2|0,2:0|2:0,2:0:0:0:
475,211,14982,6,0,P|440:199|387:199,1,67.4999979400635,2|0,3:2|2:0,2:0:0:0:
285,260,15192,1,2,2:0:0:0:
315,283,15297,2,0,B|331:297|360:298|360:298|382:204,1,134.999995880127,2|0,2:0|2:0,2:0:0:0:
477,335,15612,6,0,P|477:325|469:343,1,67.4999979400635,2|0,2:0|2:0,2:0:0:0:
200,348,15821,6,0,P|224:359|266:365,1,67.4999979400635,2|0,3:2|2:0,2:0:0:0:
150,207,16031,1,2,2:0:0:0:
188,184,16136,2,0,L|172:321,1,134.999995880127,2|0,2:0|2:0,2:0:0:0:
20,344,16451,6,0,L|95:334,1,67.4999979400635,2|0,2:0|2:0,2:0:0:0:
62,181,16661,5,2,3:2:0:0:
62,181,16765,1,2,2:0:0:0:
62,181,16870,6,0,P|45:224|44:273,1,67.4999979400635,2|0,2:0|2:0,2:0:0:0:
77,79,17080,2,0,P|48:42|6:17,1,67.4999979400635,8|0,2:0|2:0,2:0:0:0:
222,127,17290,2,0,P|190:138|157:142,1,67.4999979400635,2|0,2:0|2:0,2:0:0:0:
377,61,17500,6,0,B|331:77|280:43|280:43|349:116|296:223,1,247.500007553101,2|2,3:2|2:0,2:0:0:0:
383,246,17919,6,0,P|307:210|213:235,1,168.750006437302,8|2,2:0|2:0,2:0:0:0:
33,286,18339,6,0,P|139:265|81:384,1,281.25,0|0,3:0|2:0,2:0:0:0:
90,276,18758,6,0,P|56:348|132:297,1,191.250003647804,8|0,2:0|2:0,2:0:0:0:
158,178,19178,5,6,3:2:0:0:
158,178,19283,2,0,P|106:164|70:167,1,67.4999979400635,2|0,2:0|2:0,2:0:0:0:
0,37,19493,5,2,2:0:0:0:
21,8,19598,2,0,P|54:10|96:-2,1,67.4999979400635,12|0,2:0|2:0,2:0:0:0:
176,54,19807,6,0,P|155:74|184:65,1,67.4999979400635,2|0,2:0|2:0,2:0:0:0:
360,16,20017,5,6,3:2:0:0:
264,96,20227,6,0,L|276:23,1,67.4999979400635,2|0,2:0|2:0,2:0:0:0:
230,259,20437,2,0,L|219:325,1,67.4999979400635,8|0,2:0|2:0,2:0:0:0:
248,178,20647,1,2,2:0:0:0:
360,16,20856,6,0,P|397:24|430:52,1,67.4999979400635,6|0,3:2|2:0,2:0:0:0:
494,186,21066,1,2,2:0:0:0:
459,160,21171,2,0,B|454:104|454:104|458:97|458:97|451:22,1,134.999995880127,2|0,2:0|2:0,2:0:0:0:
350,120,21486,6,0,P|368:164|358:204,1,67.4999979400635,2|0,2:0|2:0,2:0:0:0:
323,348,21696,6,0,L|312:271,1,67.4999979400635,2|0,3:2|2:0,2:0:0:0:
128,221,21905,1,2,2:0:0:0:
153,253,22010,2,0,B|226:268|226:268|249:299|302:291,1,134.999995880127,2|0,2:0|2:0,2:0:0:0:
271,176,22325,6,0,P|238:175|218:124,1,67.4999979400635,2|0,2:0|2:0,2:0:0:0:
4,98,22535,6,0,B|19:134|19:134|13:193,1,67.4999979400635,2|0,3:2|2:0,2:0:0:0:
160,13,22744,1,2,2:0:0:0:
118,18,22849,2,0,B|22:31|22:31|-1:53|9:90,1,134.999995880127,2|0,2:0|2:0,2:0:0:0:
110,171,23164,6,0,L|123:93,1,67.4999979400635,2|0,2:0|2:0,2:0:0:0:
50,244,23374,6,0,P|50:277|61:310,1,67.4999979400635,2|0,3:2|2:0,2:0:0:0:
153,283,23584,2,0,P|171:312|196:335,1,67.4999979400635,2|0,2:0|2:0,2:0:0:0:
325,289,23793,6,0,P|294:282|258:262,1,67.4999979400635,8|0,2:0|2:0,2:0:0:0:
413,184,24003,2,0,P|383:194|342:193,1,67.4999979400635,2|0,2:0|2:0,2:0:0:0:
236,166,24213,6,0,B|215:41|215:41|171:48|136:1,2,202.499993820191,6|2|2,3:2|2:0|2:0,2:0:0:0:
313,10,25052,6,0,L|329:98,1,67.4999979400635,0|0,3:0|2:0,2:0:0:0:
452,107,25262,2,0,L|439:40,1,67.4999979400635,2|0,2:0|2:0,2:0:0:0:
496,259,25472,6,0,L|508:192,1,67.4999979400635,8|0,2:0|2:0,2:0:0:0:
375,159,25682,2,0,L|362:225,1,67.4999979400635,2|0,2:0|2:0,2:0:0:0:
431,384,25891,6,0,B|491:350|491:350|393:332|393:332|381:323|381:323|276:303,1,269.999991760254,6|2,3:2|2:0,2:0:0:0:
188,266,26311,6,0,B|147:311|179:370|264:371|288:309|269:220|253:180,1,247.500007553101,8|2,2:0|2:0,2:0:0:0:
267,112,26730,6,0,B|197:88|160:143|181:180|127:219|57:184,1,225,0|0,3:0|2:0,2:0:0:0:
0,277,27150,6,0,B|41:258|41:258|54:156|54:156|-4:107,1,202.499993820191,14|0,2:0|2:0,2:0:0:0:
104,8,27570,6,0,L|115:93,1,67.4999979400635,6|0,3:2|2:0,2:0:0:0:
162,235,27779,1,2,2:0:0:0:
195,211,27884,2,0,P|192:159|115:103,1,134.999995880127,2|0,2:0|2:0,2:0:0:0:
227,31,28199,6,0,P|243:42|221:35,1,67.4999979400635,2|0,2:0|2:0,2:0:0:0:
440,166,28409,6,0,L|352:151,1,67.4999979400635,6|0,3:2|2:0,2:0:0:0:
388,310,28619,1,2,2:0:0:0:
418,277,28723,2,0,B|444:300|444:300|470:160,1,134.999995880127,2|0,2:0|2:0,2:0:0:0:
284,132,29038,6,0,B|268:166|268:166|231:146,1,67.4999979400635,2|0,2:0|2:0,2:0:0:0:
200,360,29248,6,0,P|146:369|107:358,1,67.4999979400635,6|2,3:2|2:0,2:0:0:0:
2,257,29458,1,2,2:0:0:0:
41,279,29563,2,0,B|75:290|104:266|104:266|86:303|106:354,1,134.999995880127,2|2,2:0|2:0,2:0:0:0:
164,181,29877,5,2,2:0:0:0:
138,181,29982,1,2,2:0:0:0:
111,183,30087,5,2,3:2:0:0:
86,160,30192,1,2,2:0:0:0:
73,128,30297,1,2,2:0:0:0:
74,94,30402,1,2,2:0:0:0:
89,63,30507,2,0,P|61:54|18:64,1,56.2500021457673,10|2,2:0|2:0,2:0:0:0:
234,24,30717,5,2,2:0:0:0:
229,51,30821,1,2,2:0:0:0:
220,77,30926,5,2,3:2:0:0:
253,72,31031,1,2,2:0:0:0:
286,78,31136,1,2,2:0:0:0:
314,96,31241,1,2,2:0:0:0:
340,116,31346,2,0,L|415:102,1,56.2500021457673,10|2,2:0|2:0,2:0:0:0:
495,7,31556,5,2,2:0:0:0:
495,7,31661,1,2,2:0:0:0:
495,7,31765,2,0,L|483:78,1,56.2500021457673,2|2,3:2|2:3,2:0:0:0:
385,50,31975,2,0,L|397:121,1,56.2500021457673,2|2,2:3|2:3,2:0:0:0:
475,191,32185,6,0,L|520:198,2,37.5000014305115,10|10|10,2:0|2:0|2:0,2:0:0:0:
437,200,32395,1,10,0:0:0:0:
402,210,32500,1,8,2:0:0:0:
256,192,32605,12,0,34073,2:0:0:0:
308,266,34283,6,0,P|214:219|98:190,1,225,6|2,2:0|2:0,2:0:0:0:
13,246,35122,2,0,L|-3:160,1,75,0|2,2:0|2:0,2:0:0:0:
70,106,35542,2,0,L|86:20,1,75,0|2,2:0|2:0,2:0:0:0:
220,7,35961,6,0,P|211:60|348:120,1,225,2|2,2:0|2:0,2:0:0:0:
446,56,36800,2,0,P|434:96|440:134,1,75,2|2,2:0|2:0,2:0:0:0:
497,197,37220,2,0,P|506:231|500:269,1,75,0|2,2:0|2:0,2:0:0:0:
397,339,37640,6,0,B|346:304|286:328|296:350|233:391|176:342,1,225,2|2,2:0|2:0,2:0:0:0:
221,192,38479,2,0,L|230:280,1,75,0|2,2:0|2:0,2:0:0:0:
116,156,38898,2,0,L|107:244,1,75,0|2,2:0|2:0,2:0:0:0:
22,367,39318,5,2,2:0:0:0:
104,315,39528,1,2,2:0:0:0:
20,176,39737,5,4,2:0:0:0:
22,275,39947,1,2,2:0:0:0:
185,349,40157,6,0,B|234:311|234:311|319:298,1,134.999995880127,6|0,2:0|2:0,2:0:0:0:
370,345,40577,6,0,B|332:296|332:296|319:211,1,134.999995880127,6|0,2:0|2:0,2:0:0:0:
371,146,40996,6,0,L|220:127,2,123.75000377655,6|2|2,3:2|2:0|2:0,2:0:0:0:
459,83,41835,2,0,P|474:138|469:182,1,82.5000025177003,2|2,3:2|2:0,2:0:0:0:
508,240,42150,1,2,0:0:0:0:
512,245,42255,2,0,P|497:300|471:335,1,82.5000025177003,2|2,3:2|2:0,2:0:0:0:
371,377,42675,5,6,3:2:0:0:
270,227,42989,1,0,3:0:0:0:
270,227,43094,1,2,3:2:0:0:
214,311,43304,1,2,2:0:0:0:
61,335,43514,6,0,P|54:291|23:246,1,82.5000025177003,2|2,3:2|2:0,2:0:0:0:
128,177,43828,1,2,0:0:0:0:
128,177,43933,2,0,L|141:273,1,82.5000025177003,2|2,3:2|2:0,2:0:0:0:
7,97,44353,6,0,B|44:29|44:29|139:-5,1,165.000005035401,6|2,3:2|3:2,2:0:0:0:
200,57,44982,1,2,2:0:0:0:
360,30,45192,2,0,P|312:47|289:81,1,82.5000025177003,6|2,3:2|2:0,2:0:0:0:
352,160,45507,1,2,0:0:0:0:
352,160,45612,2,0,L|453:144,1,82.5000025177003,2|2,3:2|2:0,2:0:0:0:
331,287,46031,6,0,B|267:277|267:277|233:290|233:290|157:280,1,165.000005035401,6|2,3:2|3:2,2:0:0:0:
107,211,46661,1,2,2:0:0:0:
178,127,46870,6,0,P|168:63|116:18,2,123.75000377655,2|2|2,2:0|2:0|2:0,2:0:0:0:
293,194,47710,5,6,2:0:0:0:
385,108,47919,5,2,2:0:0:0:
409,131,48024,2,0,L|416:196,1,44.999998626709,2|8,2:0|2:0,2:0:0:0:
480,265,48234,5,2,2:0:0:0:
501,246,48339,2,0,L|508:181,1,44.999998626709,2|0,2:0|2:0,2:0:0:0:
365,269,48549,5,2,3:2:0:0:
365,269,48654,1,2,2:0:0:0:
365,269,48758,1,2,2:0:0:0:
291,332,48968,2,0,P|229:318|182:328,1,89.9999972534181,10|2,2:0|2:0,2:0:0:0:
67,368,49388,6,0,B|109:334|109:334|89:204,1,179.999994506836,6|8,3:2|2:0,2:0:0:0:
12,81,50017,1,2,2:0:0:0:
12,81,50122,1,2,2:0:0:0:
12,81,50227,2,0,L|-1:137,2,44.999998626709,2|2|2,3:2|2:0|2:0,2:0:0:0:
87,33,50647,1,10,2:0:0:0:
160,157,50856,5,2,2:0:0:0:
160,157,50961,1,2,2:0:0:0:
160,157,51066,6,0,L|256:145,1,89.9999972534181,6|2,3:2|2:0,2:0:0:0:
352,36,51486,2,0,L|256:24,1,89.9999972534181,10|2,2:0|2:0,2:0:0:0:
356,157,51905,5,2,3:2:0:0:
356,157,52010,1,2,2:0:0:0:
423,270,52220,2,0,P|368:251|285:260,1,134.999995880127,2|2,2:0|2:0,2:0:0:0:
195,373,52744,6,0,L|209:273,1,89.9999972534181,6|0,3:2|2:0,2:0:0:0:
177,249,53059,1,2,2:0:0:0:
177,249,53164,5,10,2:0:0:0:
75,300,53374,1,2,2:0:0:0:
0,188,53584,5,0,3:0:0:0:
0,188,53689,1,2,2:0:0:0:
0,188,53793,1,2,2:0:0:0:
122,131,54003,2,0,L|217:119,1,89.9999972534181,8|0,2:0|2:0,2:0:0:0:
0,0,54423,5,6,3:2:0:0:
12,141,54633,5,2,2:0:0:0:
44,181,54737,2,0,L|-6:188,1,44.999998626709,2|8,2:0|2:0,2:0:0:0:
124,46,54947,5,2,2:0:0:0:
92,6,55052,2,0,L|143:-2,1,44.999998626709,2|0,2:0|2:0,2:0:0:0:
269,20,55262,5,0,3:0:0:0:
269,20,55367,1,2,2:0:0:0:
269,20,55472,1,2,2:0:0:0:
322,105,55682,2,0,P|339:150|325:209,1,89.9999972534181,10|2,2:0|2:0,2:0:0:0:
375,324,56101,6,0,B|421:301|421:301|283:273,1,179.999994506836,6|10,3:2|2:0,2:0:0:0:
177,363,56730,1,2,2:0:0:0:
177,363,56835,1,2,2:0:0:0:
177,363,56940,2,0,L|235:352,2,44.999998626709,2|2|2,3:2|2:0|2:0,2:0:0:0:
109,299,57360,1,10,2:0:0:0:
189,157,57570,1,2,2:0:0:0:
7,114,57779,6,0,P|8:170|114:203,1,179.999994506836,6|10,3:2|2:0,2:0:0:0:
189,157,58409,1,2,2:0:0:0:
267,25,58619,5,2,3:2:0:0:
378,93,58828,1,2,2:0:0:0:
347,113,58933,2,0,P|361:172|323:248,1,134.999995880127,2|2,2:0|2:0,2:0:0:0:
235,339,59458,5,6,3:2:0:0:
212,310,59563,1,2,2:0:0:0:
179,294,59668,1,2,2:0:0:0:
143,297,59772,1,2,2:0:0:0:
108,308,59877,2,0,L|115:367,1,44.999998626709,10|2,2:0|2:0,2:0:0:0:
21,220,60087,5,2,2:0:0:0:
21,220,60192,1,2,2:0:0:0:
21,220,60297,6,0,P|29:193|48:173,5,37.5000014305115,2|2|2|2|2|2,3:2|2:0|2:0|2:0|2:0|2:0,2:0:0:0:
96,134,60717,2,0,P|121:122|149:124,5,37.5000014305115,10|2|2|2|2|2,2:0|2:0|2:0|2:0|2:0|2:0,2:0:0:0:
220,69,61136,6,0,B|233:132|233:132|297:186,1,127.50000243187,6|0,3:2|2:0,2:0:0:0:
484,192,61451,6,0,B|422:171|422:171|344:200,1,127.50000243187,2|0,2:0|2:0,2:0:0:0:
274,306,61765,6,0,B|298:285|298:285|304:254,1,63.7500012159348,2|0,2:0|2:0,2:0:0:0:
339,108,61975,5,2,2:0:0:0:
212,235,62185,5,2,2:0:0:0:
110,244,62395,1,2,2:0:0:0:
8,253,62605,1,2,2:0:0:0:
55,86,62814,6,0,P|85:98|136:98,1,67.4999979400635,6|0,3:2|2:0,2:0:0:0:
264,72,63024,1,2,2:0:0:0:
262,35,63129,2,0,P|181:36|147:105,1,134.999995880127,2|0,2:0|2:0,2:0:0:0:
231,213,63444,6,0,P|223:170|208:129,1,67.4999979400635,2|0,2:0|2:0,2:0:0:0:
394,289,63654,6,0,P|361:278|310:280,1,67.4999979400635,2|0,3:2|2:0,2:0:0:0:
186,350,63863,1,2,2:0:0:0:
217,373,63968,2,0,B|303:360|303:360|324:337|326:311,1,134.999995880127,2|0,2:0|2:0,2:0:0:0:
323,170,64283,6,0,P|333:159|330:184,1,67.4999979400635,2|0,2:0|2:0,2:0:0:0:
482,7,64493,6,0,L|387:23,1,67.4999979400635,2|0,3:2|2:0,2:0:0:0:
467,192,64703,1,2,2:0:0:0:
496,163,64807,2,0,B|505:103|505:103|500:95|500:95|512:26,1,134.999995880127,2|0,2:0|2:0,2:0:0:0:
323,51,65122,6,0,B|287:55|287:55|266:16,1,67.4999979400635,2|0,2:0|2:0,2:0:0:0:
177,163,65332,6,0,P|207:132|213:89,1,67.4999979400635,2|0,3:2|2:0,2:0:0:0:
126,81,65542,2,0,P|95:51|52:45,1,67.4999979400635,2|0,2:0|2:0,2:0:0:0:
7,185,65751,6,0,P|18:153|43:131,1,67.4999979400635,8|0,2:0|2:0,2:0:0:0:
148,250,65961,2,0,P|116:238|94:213,1,67.4999979400635,2|0,2:0|2:0,2:0:0:0:
269,372,66171,6,0,B|320:327|320:327|114:354,1,247.500007553101,6|0,3:2|2:0,2:0:0:0:
177,163,66591,6,0,P|220:192|217:316,1,168.750006437302,8|0,2:0|2:0,2:0:0:0:
410,373,67010,6,0,B|421:284|421:284|460:223|460:223|475:94,1,281.25,2|2,3:2|2:0,2:0:0:0:
362,219,67430,6,0,P|439:227|511:319,1,191.250003647804,8|0,2:0|2:0,2:0:0:0:
321,361,67849,5,6,3:2:0:0:
321,361,67954,2,0,L|310:285,1,67.4999979400635,2|0,2:0|2:0,2:0:0:0:
308,154,68164,5,2,2:0:0:0:
336,122,68269,2,0,P|337:89|359:48,1,67.4999979400635,8|0,2:0|2:0,2:0:0:0:
221,25,68479,6,0,B|202:50|202:50|165:32,1,67.4999979400635,2|0,2:0|2:0,2:0:0:0:
155,237,68689,5,2,3:2:0:0:
155,237,68793,1,2,2:0:0:0:
155,237,68898,6,0,L|87:242,1,67.4999979400635,2|0,2:0|2:0,2:0:0:0:
362,219,69108,2,0,L|430:212,1,67.4999979400635,8|0,2:0|2:0,2:0:0:0:
258,228,69318,1,2,2:0:0:0:
86,365,69528,6,0,P|135:337|184:337,1,67.4999979400635,6|0,3:2|2:0,2:0:0:0:
305,331,69737,1,2,2:0:0:0:
295,369,69842,2,0,B|216:382|216:382|210:358|171:342,1,134.999995880127,2|0,2:0|2:0,2:0:0:0:
258,228,70157,6,0,L|237:132,1,67.4999979400635,2|0,2:0|2:0,2:0:0:0:
105,40,70367,6,0,P|113:80|138:116,1,67.4999979400635,2|0,3:2|2:0,2:0:0:0:
4,186,70577,1,2,2:0:0:0:
28,151,70682,2,0,L|163:125,1,134.999995880127,2|0,2:0|2:0,2:0:0:0:
227,37,70996,6,0,P|260:44|278:89,1,67.4999979400635,2|0,2:0|2:0,2:0:0:0:
512,111,71206,6,0,B|477:95|477:95|430:102,1,67.4999979400635,2|0,3:2|2:0,2:0:0:0:
420,289,71416,1,2,2:0:0:0:
458,265,71521,2,0,B|473:217|473:217|470:204|470:204|493:121,1,134.999995880127,2|0,2:0|2:0,2:0:0:0:
329,153,71835,6,0,P|355:175|400:193,1,67.4999979400635,2|0,2:0|2:0,2:0:0:0:
325,329,72045,5,2,3:2:0:0:
325,329,72150,1,2,2:0:0:0:
325,329,72255,6,0,L|335:261,1,67.4999979400635,2|0,2:0|2:0,2:0:0:0:
214,384,72465,2,0,L|226:317,1,67.4999979400635,8|0,2:0|2:0,2:0:0:0:
137,242,72675,2,0,L|125:308,1,67.4999979400635,2|0,2:0|2:0,2:0:0:0:
226,41,72884,6,0,B|196:90|225:138|225:138|260:188|223:243,2,202.499993820191,6|2|2,3:2|2:0|2:0,2:0:0:0:
24,44,73723,6,0,L|101:55,1,67.4999979400635,0|0,3:0|2:0,2:0:0:0:
132,138,73933,2,0,L|65:149,1,67.4999979400635,2|0,2:0|2:0,2:0:0:0:
297,94,74143,6,0,L|363:103,1,67.4999979400635,8|0,2:0|2:0,2:0:0:0:
405,0,74353,2,0,L|338:9,1,67.4999979400635,2|0,2:0|2:0,2:0:0:0:
432,169,74563,6,0,B|445:137|445:137|443:88,1,67.4999979400635,6|2,3:2|2:0,2:0:0:0:
371,257,74772,5,2,2:0:0:0:
371,257,74877,2,0,B|365:221|365:221|341:181,1,67.4999979400635,2|10,2:0|2:0,2:0:0:0:
362,363,75087,5,2,2:0:0:0:
362,363,75192,2,0,B|339:335|339:335|299:313,1,67.4999979400635,2|2,2:0|2:0,2:0:0:0:
193,360,75402,6,0,L|239:350,5,44.999998626709,10|2|2|2|2|2,2:0|2:0|2:0|2:0|2:0|2:0,2:0:0:0:
127,307,75821,6,0,L|79:294,2,44.999998626709,10|2|2,2:0|2:0|2:0,2:0:0:0:
53,313,76031,2,0,L|96:324,2,44.999998626709,2|2|2,2:0|2:0|2:0,2:0:0:0:
14,208,76241,6,0,P|17:161|31:124,1,67.4999979400635,6|0,3:2|2:0,2:0:0:0:
161,62,76451,1,2,2:0:0:0:
134,93,76556,2,0,L|-17:115,1,134.999995880127,2|0,2:0|2:0,2:0:0:0:
5,0,76870,6,0,L|80:14,1,67.4999979400635,2|0,2:0|2:0,2:0:0:0:
220,131,77080,6,0,L|201:222,1,67.4999979400635,2|0,3:2|2:0,2:0:0:0:
287,326,77290,1,2,2:0:0:0:
321,304,77395,2,0,P|288:241|208:226,1,134.999995880127,2|0,2:0|2:0,2:0:0:0:
111,187,77710,6,0,P|121:225|153:268,1,67.4999979400635,2|0,2:0|2:0,2:0:0:0:
323,31,77919,6,0,B|291:31|291:31|254:25,1,67.4999979400635,2|0,3:2|2:0,2:0:0:0:
478,131,78129,1,2,2:0:0:0:
441,144,78234,2,0,B|412:83|412:83|333:50,1,134.999995880127,2|0,2:0|2:0,2:0:0:0:
336,163,78549,6,0,P|334:158|329:178,1,67.4999979400635,2|0,2:0|2:0,2:0:0:0:
420,279,78758,6,0,P|423:312|435:357,1,67.4999979400635,2|0,3:2|2:0,2:0:0:0:
337,384,78968,2,0,P|334:351|323:306,1,67.4999979400635,2|0,2:0|2:0,2:0:0:0:
185,317,79178,6,0,P|178:350|175:384,1,67.4999979400635,8|0,2:0|2:0,2:0:0:0:
81,345,79388,2,0,P|88:312|92:279,1,67.4999979400635,2|0,2:0|2:0,2:0:0:0:
189,190,79598,6,0,B|126:160|128:87|128:87|107:154|34:152,1,247.500007553101,6|2,3:2|2:0,2:0:0:0:
109,13,80017,6,0,P|128:75|103:189,1,168.750006437302,8|2,2:0|2:0,2:0:0:0:
258,263,80437,6,0,B|303:237|303:237|332:61|332:61|395:28,1,281.25,0|0,3:0|2:0,2:0:0:0:
397,180,80856,6,0,P|300:173|248:89,1,191.250003647804,8|0,2:0|2:0,2:0:0:0:
468,39,81276,5,6,3:2:0:0:
468,39,81381,2,0,L|454:136,1,67.4999979400635,2|0,2:0|2:0,2:0:0:0:
480,271,81591,5,2,2:0:0:0:
512,249,81696,2,0,P|499:206|458:164,1,67.4999979400635,8|0,2:0|2:0,2:0:0:0:
446,384,81905,6,0,L|539:371,1,67.4999979400635,2|0,2:0|2:0,2:0:0:0:
311,290,82115,5,6,3:2:0:0:
311,290,82219,1,2,2:0:0:0:
311,290,82325,6,0,L|305:363,1,67.4999979400635,2|0,2:0|2:0,2:0:0:0:
329,83,82535,2,0,L|336:15,1,67.4999979400635,8|0,2:0|2:0,2:0:0:0:
320,187,82744,1,2,2:0:0:0:
199,365,82954,6,0,L|126:356,1,67.4999979400635,6|0,3:2|2:0,2:0:0:0:
52,217,83164,1,2,2:0:0:0:
97,201,83269,2,0,B|111:231|134:244|134:244|116:340,1,134.999995880127,2|0,2:0|2:0,2:0:0:0:
23,353,83584,6,0,B|0:327|0:327|9:275,1,67.4999979400635,2|0,2:0|2:0,2:0:0:0:
11,96,83793,6,0,P|51:109|105:106,1,67.4999979400635,0|0,3:0|2:0,2:0:0:0:
217,23,84003,1,2,2:0:0:0:
182,9,84108,2,0,P|116:19|84:89,1,134.999995880127,2|0,2:0|2:0,2:0:0:0:
187,165,84423,6,0,L|167:75,1,67.4999979400635,2|0,2:0|2:0,2:0:0:0:
294,292,84633,6,0,B|267:315|267:315|219:303,1,67.4999979400635,2|0,3:2|2:0,2:0:0:0:
341,147,84842,1,2,2:0:0:0:
304,129,84947,2,0,B|319:199|319:199|313:209|313:209|332:312,1,134.999995880127,2|0,2:0|2:0,2:0:0:0:
450,359,85262,6,0,P|428:344|453:348,1,67.4999979400635,2|0,2:0|2:0,2:0:0:0:
470,193,85472,5,2,3:2:0:0:
470,193,85577,1,2,2:0:0:0:
470,193,85682,6,0,P|453:148|406:115,1,67.4999979400635,2|0,2:0|2:0,2:0:0:0:
404,38,85891,2,0,P|356:30|304:54,1,67.4999979400635,8|0,2:0|2:0,2:0:0:0:
199,73,86101,2,0,P|212:42|236:18,1,67.4999979400635,2|0,2:0|2:0,2:0:0:0:
24,16,86311,6,0,B|61:10|85:46|85:46|62:177,2,202.499993820191,6|2|2,3:2|2:0|2:0,2:0:0:0:
152,200,87150,6,0,P|187:215|240:217,1,67.4999979400635,0|0,3:0|2:0,2:0:0:0:
298,177,87360,2,0,P|328:154|356:109,1,67.4999979400635,2|0,2:0|2:0,2:0:0:0:
484,35,87570,6,0,P|453:57|425:102,1,67.4999979400635,8|0,2:0|2:0,2:0:0:0:
430,172,87780,2,0,P|434:209|459:256,1,67.4999979400635,2|0,2:0|2:0,2:0:0:0:
411,366,87989,6,0,B|344:321|356:244|356:244|315:312|220:306,1,269.999991760254,6|2,3:2|2:0,2:0:0:0:
164,384,88409,6,0,B|215:361|215:361|239:224|239:224|190:171,1,247.500007553101,8|2,2:0|2:0,2:0:0:0:
32,134,88828,6,0,P|110:154|104:37,1,225,0|0,3:0|2:0,2:0:0:0:
22,8,89248,6,0,B|103:21|103:21|114:15|114:15|247:33,1,202.499993820191,8|0,2:0|2:0,2:0:0:0:
299,174,89668,6,0,L|286:98,1,67.4999979400635,6|0,3:2|2:0,2:0:0:0:
472,19,89877,1,2,2:0:0:0:
445,52,89982,2,0,L|311:81,1,134.999995880127,2|0,2:0|2:0,2:0:0:0:
421,163,90297,6,0,P|448:158|432:174,1,67.4999979400635,2|0,2:0|2:0,2:0:0:0:
348,375,90507,6,0,P|341:341|362:288,1,67.4999979400635,6|0,3:2|2:0,2:0:0:0:
151,340,90717,1,2,2:0:0:0:
185,361,90821,2,0,B|263:374|228:320|321:342,1,134.999995880127,2|0,2:0|2:0,2:0:0:0:
268,183,91136,6,0,B|264:217|264:217|304:229,1,67.4999979400635,2|0,2:0|2:0,2:0:0:0:
74,287,91346,6,0,B|97:261|97:261|156:242,1,67.4999979400635,6|2,3:2|2:0,2:0:0:0:
79,76,91556,1,2,2:0:0:0:
120,89,91661,2,0,B|133:147|133:147|140:154|140:154|155:232,1,134.999995880127,2|2,2:0|2:0,2:0:0:0:
225,88,91975,5,2,2:0:0:0:
251,79,92080,1,2,2:0:0:0:
279,77,92185,5,2,3:2:0:0:
303,100,92290,1,2,2:0:0:0:
331,117,92395,1,2,2:0:0:0:
364,123,92500,1,2,2:0:0:0:
397,124,92605,6,0,P|406:97|405:55,1,56.2500021457673,10|2,2:0|2:0,2:0:0:0:
355,234,92814,5,2,2:0:0:0:
359,261,92919,1,2,2:0:0:0:
363,288,93024,5,2,3:2:0:0:
357,321,93129,1,2,2:0:0:0:
333,345,93234,1,2,2:0:0:0:
300,355,93339,1,2,2:0:0:0:
268,342,93444,6,0,L|258:271,1,56.2500021457673,10|2,2:0|2:0,2:0:0:0:
102,363,93654,5,2,2:0:0:0:
102,363,93758,1,2,2:0:0:0:
102,363,93863,2,0,L|191:350,1,56.2500021457673,2|2,3:2|2:3,2:0:0:0:
180,238,94073,2,0,L|91:225,1,56.2500021457673,2|2,2:3|2:3,2:0:0:0:
26,279,94283,6,0,L|13:338,2,37.5000014305115,8|8|8,2:0|2:0|2:0,2:0:0:0:
18,238,94493,1,8,2:0:0:0:
10,204,94598,1,8,2:0:0:0:
256,192,94703,12,0,96171,2:0:0:0:
213,145,96381,6,0,L|453:176,1,225,6|2,2:0|2:0,2:0:0:0:
494,274,97220,2,0,P|498:323|481:363,1,75,0|2,2:0|2:0,2:0:0:0:
378,300,97640,2,0,P|374:349|391:389,1,75,0|2,2:0|2:0,2:0:0:0:
260,255,98059,6,0,P|231:319|84:338,1,225,2|2,2:0|2:0,2:0:0:0:
22,197,98898,2,0,L|119:213,1,75,2|2,2:0|2:0,2:0:0:0:
175,95,99318,2,0,L|78:111,1,75,0|2,2:0|2:0,2:0:0:0:
305,5,99737,6,0,P|284:75|288:241,1,225,2|2,2:0|2:0,2:0:0:0:
445,171,100577,2,0,P|396:128|354:122,1,75,0|2,2:0|2:0,2:0:0:0:
357,292,100996,2,0,P|418:271|444:237,1,75,0|2,2:0|2:0,2:0:0:0:
248,138,101416,5,2,2:0:0:0:
141,167,101626,1,2,2:0:0:0:
1,229,101835,5,4,2:0:0:0:
107,259,102045,1,2,2:0:0:0:
35,102,102255,6,0,B|96:91|96:91|103:82|103:82|187:67,1,134.999995880127,6|0,2:0|2:0,2:0:0:0:
180,0,102675,6,0,B|200:58|200:58|196:68|196:68|225:149,1,134.999995880127,6|0,2:0|2:0,2:0:0:0:
205,234,103094,6,0,P|216:291|200:362,2,123.75000377655,6|0|0,3:2|2:0|2:0,2:0:0:0:
286,189,103933,2,0,L|375:178,1,82.5000025177003,2|2,3:2|2:0,2:0:0:0:
427,105,104248,1,0,0:0:0:0:
427,105,104353,2,0,L|516:116,1,82.5000025177003,2|2,3:2|2:0,2:0:0:0:
381,8,104772,5,6,3:2:0:0:
252,106,105087,1,0,3:0:0:0:
252,106,105192,1,0,3:0:0:0:
174,39,105402,1,2,2:0:0:0:
47,7,105612,6,0,L|39:105,1,82.5000025177003,2|2,3:2|2:0,2:0:0:0:
105,182,105926,1,0,0:0:0:0:
105,182,106031,2,0,P|129:226|131:283,1,82.5000025177003,2|2,3:2|2:0,2:0:0:0:
11,373,106451,6,0,B|74:368|74:368|100:353|100:353|192:345,1,165.000005035401,6|2,3:2|3:2,2:0:0:0:
241,282,107080,1,2,2:0:0:0:
218,115,107290,2,0,L|206:216,1,82.5000025177003,6|2,3:2|2:0,2:0:0:0:
331,298,107605,1,0,0:0:0:0:
331,298,107710,2,0,P|325:247|297:212,1,82.5000025177003,2|2,3:2|2:0,2:0:0:0:
327,53,108129,6,0,B|307:85|314:110|314:110|437:135,1,165.000005035401,6|2,3:2|3:2,2:0:0:0:
478,206,108758,1,2,2:0:0:0:
416,304,108968,6,0,P|446:351|513:378,2,123.75000377655,0|2|2,3:0|2:0|2:0,2:0:0:0:
268,367,109807,5,6,3:2:0:0:
167,242,110017,5,2,2:0:0:0:
193,266,110122,2,0,L|185:339,1,44.999998626709,2|8,2:0|2:0,2:0:0:0:
87,369,110332,5,2,2:0:0:0:
61,345,110437,2,0,L|69:272,1,44.999998626709,2|0,2:0|2:0,2:0:0:0:
25,173,110647,5,0,3:0:0:0:
25,173,110751,1,2,2:0:0:0:
25,173,110856,1,2,2:0:0:0:
104,101,111066,2,0,P|156:82|207:84,1,89.9999972534181,10|2,2:0|2:0,2:0:0:0:
333,37,111486,6,0,B|297:7|297:7|315:153,1,179.999994506836,6|10,3:2|2:0,2:0:0:0:
412,239,112115,1,2,2:0:0:0:
412,239,112220,1,2,2:0:0:0:
412,239,112325,2,0,L|469:247,2,44.999998626709,0|2|2,3:0|2:0|2:0,2:0:0:0:
339,307,112744,1,8,2:0:0:0:
215,198,112954,5,2,2:0:0:0:
215,198,113059,1,0,2:0:0:0:
215,198,113164,6,0,L|203:303,1,89.9999972534181,6|2,3:2|2:0,2:0:0:0:
52,348,113584,2,0,L|40:243,1,89.9999972534181,10|2,2:0|2:0,2:0:0:0:
108,135,114003,5,2,3:2:0:0:
108,135,114108,1,2,2:0:0:0:
22,15,114318,2,0,L|196:38,1,134.999995880127,2|2,2:0|2:0,2:0:0:0:
285,138,114842,6,0,P|261:88|264:34,1,89.9999972534181,2|0,3:2|2:0,2:0:0:0:
287,21,115157,1,2,2:0:0:0:
287,21,115262,5,10,2:0:0:0:
413,1,115472,1,2,2:0:0:0:
512,131,115682,5,2,3:2:0:0:
512,131,115786,1,2,2:0:0:0:
512,131,115891,1,2,2:0:0:0:
445,236,116101,2,0,L|464:335,1,89.9999972534181,8|0,2:0|2:0,2:0:0:0:
298,218,116521,5,6,3:2:0:0:
355,362,116730,5,2,2:0:0:0:
387,338,116835,2,0,L|453:351,1,44.999998626709,2|8,2:0|2:0,2:0:0:0:
236,337,117045,5,2,2:0:0:0:
204,313,117150,2,0,L|138:326,1,44.999998626709,2|0,2:0|2:0,2:0:0:0:
56,375,117360,5,0,3:0:0:0:
56,375,117465,1,2,2:0:0:0:
56,375,117570,1,2,2:0:0:0:
5,274,117779,2,0,L|20:164,1,89.9999972534181,10|2,2:0|2:0,2:0:0:0:
3,27,118199,6,0,B|48:9|90:25|85:57|118:95|182:68,1,179.999994506836,6|10,3:2|2:0,2:0:0:0:
307,7,118828,1,2,2:0:0:0:
307,7,118933,1,2,2:0:0:0:
307,7,119038,2,0,L|244:16,2,44.999998626709,2|2|2,3:2|2:0|2:0,2:0:0:0:
387,68,119458,1,10,2:0:0:0:
252,192,119668,1,2,2:0:0:0:
381,325,119877,6,0,P|357:278|351:146,1,179.999994506836,6|10,3:2|2:0,2:0:0:0:
387,68,120507,1,2,2:0:0:0:
221,103,120717,5,2,3:2:0:0:
158,197,120926,1,2,2:0:0:0:
132,225,121031,2,0,B|105:260|105:260|131:365,1,134.999995880127,2|2,2:0|2:0,2:0:0:0:
269,281,121556,5,6,3:2:0:0:
299,261,121661,1,2,2:0:0:0:
334,254,121765,1,2,2:0:0:0:
369,257,121870,1,2,2:0:0:0:
401,272,121975,2,0,L|411:324,1,44.999998626709,10|2,2:0|2:0,2:0:0:0:
483,176,122185,5,2,2:0:0:0:
483,176,122290,1,2,2:0:0:0:
483,176,122395,6,0,L|471:125,5,37.5000014305115,2|2|2|2|2|2,3:2|2:0|2:0|2:0|2:0|2:0,2:0:0:0:
426,62,122814,2,0,L|390:23,5,37.5000014305115,10|2|2|2|2|2,2:0|2:0|2:0|2:0|2:0|2:0,2:0:0:0:
300,6,123234,6,0,P|310:77|281:160,1,127.50000243187,6|0,3:2|2:0,2:0:0:0:
120,247,123549,6,0,P|176:202|262:186,1,127.50000243187,2|0,2:0|2:0,2:0:0:0:
365,250,123863,6,0,P|331:236|303:203,1,63.7500012159348,2|0,2:0|2:0,2:0:0:0:
211,95,124073,5,2,2:0:0:0:
389,158,124283,5,2,2:0:0:0:
456,234,124493,1,2,2:0:0:0:
434,333,124703,1,2,2:0:0:0:
270,296,124912,6,0,P|231:284|185:297,1,67.4999979400635,6|0,3:2|2:0,2:0:0:0:
30,338,125122,1,2,2:0:0:0:
68,359,125227,2,0,P|143:359|185:302,1,134.999995880127,2|0,2:0|2:0,2:0:0:0:
94,208,125542,6,0,L|102:274,1,67.4999979400635,2|0,2:0|2:0,2:0:0:0:
12,102,125751,6,0,P|33:74|70:53,1,67.4999979400635,0|0,3:0|2:0,2:0:0:0:
212,56,125961,1,2,2:0:0:0:
214,17,126066,2,0,B|135:5|135:5|114:28|75:31,1,134.999995880127,2|0,2:0|2:0,2:0:0:0:
184,166,126381,6,0,P|197:173|190:172,1,67.4999979400635,2|0,2:0|2:0,2:0:0:0:
392,18,126591,6,0,B|361:39|361:39|313:30,1,67.4999979400635,2|0,3:2|2:0,2:0:0:0:
424,209,126800,1,2,2:0:0:0:
446,178,126905,2,0,P|422:98|425:19,1,134.999995880127,2|0,2:0|2:0,2:0:0:0:
311,160,127220,6,0,P|297:208|263:246,1,67.4999979400635,2|0,2:0|2:0,2:0:0:0:
419,376,127430,6,0,L|490:365,1,67.4999979400635,2|0,3:2|2:0,2:0:0:0:
265,364,127640,2,0,L|336:353,1,67.4999979400635,2|0,2:0|2:0,2:0:0:0:
462,283,127849,6,0,L|396:273,1,67.4999979400635,8|0,2:0|2:0,2:0:0:0:
287,222,128059,2,0,L|220:211,1,67.4999979400635,2|0,2:0|2:0,2:0:0:0:
106,364,128269,6,0,B|142:397|203:358|194:289|102:252|34:297,1,247.500007553101,6|0,3:2|2:0,2:0:0:0:
43,158,128689,6,0,B|95:148|95:148|124:277,1,168.750006437302,8|0,2:0|2:0,2:0:0:0:
212,89,129108,6,0,B|328:109|328:109|340:105|340:105|492:132,1,281.25,2|2,3:2|2:0,2:0:0:0:
373,188,129528,6,0,B|340:168|340:168|329:64|329:64|378:14,1,191.250003647804,8|0,2:0|2:0,2:0:0:0:
479,218,129947,5,6,3:2:0:0:
479,218,130052,2,0,L|468:302,1,67.4999979400635,2|0,2:0|2:0,2:0:0:0:
359,380,130262,5,2,2:0:0:0:
392,366,130367,2,0,P|440:375|483:402,1,67.4999979400635,10|0,2:0|2:0,2:0:0:0:
293,251,130577,6,0,B|318:276|318:276|301:304,1,67.4999979400635,2|0,2:0|2:0,2:0:0:0:
430,106,130786,5,2,3:2:0:0:
430,106,130890,1,2,2:0:0:0:
430,106,130996,6,0,L|503:100,1,67.4999979400635,2|0,2:0|2:0,2:0:0:0:
223,124,131206,2,0,L|155:131,1,67.4999979400635,10|0,2:0|2:0,2:0:0:0:
327,115,131415,1,2,2:0:0:0:
170,336,131626,6,0,P|171:296|188:257,1,67.4999979400635,6|0,3:2|2:0,2:0:0:0:
3,225,131835,1,2,2:0:0:0:
32,197,131940,2,0,B|112:192|71:248|171:251,1,134.999995880127,2|0,2:0|2:0,2:0:0:0:
43,359,132255,6,0,P|61:343|53:360,1,67.4999979400635,2|0,2:0|2:0,2:0:0:0:
266,324,132465,6,0,L|343:339,1,67.4999979400635,0|0,3:0|2:0,2:0:0:0:
469,282,132675,1,2,2:0:0:0:
435,296,132779,2,0,B|412:318|420:355|420:355|398:326|351:322,1,134.999995880127,2|0,2:0|2:0,2:0:0:0:
321,169,133094,6,0,P|320:219|352:245,1,67.4999979400635,2|0,2:0|2:0,2:0:0:0:
478,34,133304,6,0,B|475:70|475:70|499:117,1,67.4999979400635,2|0,3:2|2:0,2:0:0:0:
277,16,133514,1,2,2:0:0:0:
313,38,133619,2,0,B|386:25|386:25|394:28|394:28|468:15,1,134.999995880127,2|0,2:0|2:0,2:0:0:0:
417,189,133933,6,0,L|403:117,1,67.4999979400635,2|0,2:0|2:0,2:0:0:0:
237,101,134143,5,2,3:2:0:0:
237,101,134248,1,2,2:0:0:0:
237,101,134353,6,0,P|211:80|195:51,1,67.4999979400635,2|0,2:0|2:0,2:0:0:0:
213,199,134563,2,0,P|180:206|148:200,1,67.4999979400635,10|0,2:0|2:0,2:0:0:0:
231,331,134772,2,0,P|270:288|278:252,1,67.4999979400635,2|0,2:0|2:0,2:0:0:0:
56,323,134982,6,0,B|9:276|9:276|165:296,2,202.499993820191,6|2|2,3:2|2:0|2:0,2:0:0:0:
41,180,135821,6,0,L|25:90,1,67.4999979400635,0|0,3:0|2:0,2:0:0:0:
106,67,136031,2,0,L|88:-22,1,67.4999979400635,2|0,2:0|2:0,2:0:0:0:
191,203,136241,6,0,L|206:112,1,67.4999979400635,8|0,2:0|2:0,2:0:0:0:
290,119,136451,2,0,L|303:29,1,67.4999979400635,2|0,2:0|2:0,2:0:0:0:
382,278,136661,6,0,B|373:310|373:310|417:321,1,67.4999979400635,6|2,3:2|2:0,2:0:0:0:
294,340,136870,5,2,2:0:0:0:
294,340,136975,2,0,B|263:353|263:353|283:394,1,67.4999979400635,2|10,2:0|2:0,2:0:0:0:
189,312,137185,5,2,2:0:0:0:
189,312,137290,2,0,B|159:297|159:297|140:339,1,67.4999979400635,2|2,2:0|2:0,2:0:0:0:
292,248,137500,6,0,L|279:188,5,44.999998626709,10|2|2|2|2|2,2:0|2:0|2:0|2:0|2:0|2:0,2:0:0:0:
327,124,137919,6,0,L|336:80,2,44.999998626709,10|2|2,2:0|2:0|2:0,2:0:0:0:
368,53,138129,2,0,L|359:97,2,44.999998626709,2|2|2,2:0|2:0|2:0,2:0:0:0:
253,7,138339,6,0,L|167:19,1,67.4999979400635,6|0,3:2|2:0,2:0:0:0:
42,109,138549,1,2,2:0:0:0:
70,79,138654,2,0,B|101:66|98:27|98:27|130:59|194:44,1,134.999995880127,2|0,2:0|2:0,2:0:0:0:
195,169,138968,6,0,B|169:144|169:144|130:163,1,67.4999979400635,2|0,2:0|2:0,2:0:0:0:
9,325,139178,6,0,P|42:292|89:283,1,67.4999979400635,0|0,3:0|2:0,2:0:0:0:
228,365,139388,1,2,2:0:0:0:
189,383,139493,2,0,P|121:366|81:307,1,134.999995880127,2|0,2:0|2:0,2:0:0:0:
187,263,139807,6,0,P|176:286|192:266,1,67.4999979400635,2|0,2:0|2:0,2:0:0:0:
390,365,140017,6,0,B|354:361|354:361|301:374,1,67.4999979400635,2|0,3:2|2:0,2:0:0:0:
459,229,140227,1,2,2:0:0:0:
480,264,140332,2,0,P|470:341|415:380,1,134.999995880127,2|0,2:0|2:0,2:0:0:0:
305,262,140647,6,0,P|343:266|389:279,1,67.4999979400635,2|0,2:0|2:0,2:0:0:0:
447,73,140856,5,2,3:2:0:0:
447,73,140961,1,2,2:0:0:0:
447,73,141066,6,0,L|475:0,1,67.4999979400635,2|0,2:0|2:0,2:0:0:0:
416,176,141276,2,0,L|465:237,1,67.4999979400635,8|0,2:0|2:0,2:0:0:0:
273,109,141486,2,0,L|339:98,1,67.4999979400635,2|0,2:0|2:0,2:0:0:0:
99,13,141696,6,0,P|150:112|110:243,1,247.500007553101,6|0,3:2|2:0,2:0:0:0:
72,121,142115,6,0,B|175:128|122:185|245:199,1,168.750006437302,8|0,2:0|2:0,2:0:0:0:
362,322,142535,6,0,P|242:300|86:363,1,281.25,0|2,3:2|2:0,2:0:0:0:
239,336,142954,6,0,P|340:344|434:395,1,191.250003647804,8|0,2:0|2:0,2:0:0:0:
483,247,143374,5,6,3:2:0:0:
483,247,143479,2,0,B|490:326,1,67.4999979400635,2|0,2:0|2:0,2:0:0:0:
388,176,143689,5,2,2:0:0:0:
411,151,143793,2,0,P|449:139|511:148,1,67.4999979400635,14|0,2:0|2:0,2:0:0:0:
512,0,144003,6,0,B|476:8|476:8|465:50,1,67.4999979400635,2|0,2:0|2:0,2:0:0:0:
310,42,144213,5,6,3:2:0:0:
310,42,144318,1,2,2:0:0:0:
310,42,144423,6,0,L|383:48,1,67.4999979400635,2|0,2:0|2:0,2:0:0:0:
103,24,144633,2,0,L|35:17,1,67.4999979400635,8|0,2:0|2:0,2:0:0:0:
207,33,144843,1,2,2:0:0:0:
0,195,145052,6,0,L|75:180,1,67.4999979400635,6|0,3:2|2:0,2:0:0:0:
236,246,145262,1,2,2:0:0:0:
201,258,145367,2,0,B|167:267|137:253|137:253|128:209|81:202,1,134.999995880127,2|0,2:0|2:0,2:0:0:0:
206,123,145682,6,0,P|193:150|191:124,1,67.4999979400635,2|0,2:0|2:0,2:0:0:0:
402,202,145891,6,0,L|479:215,1,67.4999979400635,0|0,3:0|2:0,2:0:0:0:
473,372,146101,1,2,2:0:0:0:
512,377,146206,2,0,B|500:309|500:309|495:303|495:303|480:225,1,134.999995880127,2|0,2:0|2:0,2:0:0:0:
322,163,146521,6,0,P|313:199|324:247,1,67.4999979400635,2|0,2:0|2:0,2:0:0:0:
172,366,146730,6,0,B|204:357|204:357|250:371,1,67.4999979400635,2|0,3:2|2:0,2:0:0:0:
2,317,146940,1,2,2:0:0:0:
36,292,147045,2,0,B|107:323|61:346|138:380,1,134.999995880127,2|0,2:0|2:0,2:0:0:0:
213,241,147360,6,0,P|173:256|151:288,1,67.4999979400635,2|0,2:0|2:0,2:0:0:0:
360,366,147570,5,2,3:2:0:0:
360,366,147675,1,2,2:0:0:0:
360,366,147779,6,0,P|339:337|308:316,1,67.4999979400635,2|0,2:0|2:0,2:0:0:0:
375,245,147989,2,0,P|371:209|354:175,1,67.4999979400635,8|0,2:0|2:0,2:0:0:0:
465,83,148199,2,0,P|462:116|448:147,1,67.4999979400635,2|0,2:0|2:0,2:0:0:0:
480,310,148409,6,0,B|385:296|385:296|374:286|374:286|235:264,2,202.499993820191,6|2|2,3:2|2:0|2:0,2:0:0:0:
357,179,149248,6,0,L|349:113,1,67.4999979400635,0|0,3:0|2:0,2:0:0:0:
247,122,149458,2,0,L|255:55,1,67.4999979400635,2|0,2:0|2:0,2:0:0:0:
155,233,149668,6,0,L|146:299,1,67.4999979400635,8|0,2:0|2:0,2:0:0:0:
44,290,149878,2,0,L|52:356,1,67.4999979400635,2|0,2:0|2:0,2:0:0:0:
306,367,150087,6,0,B|240:345|240:345|461:298,1,269.999991760254,6|2,3:2|2:0,2:0:0:0:
491,364,150507,6,0,B|454:297|479:250|479:250|440:185|362:201,1,247.500007553101,8|2,2:0|2:0,2:0:0:0:
488,36,150926,6,0,B|452:11|452:11|374:30|374:30|378:94|314:122,1,225,0|0,3:0|2:0,2:0:0:0:
248,70,151346,6,0,P|297:135|210:135,1,202.499993820191,8|0,2:0|2:0,2:0:0:0:
48,25,151765,6,0,L|123:39,1,67.4999979400635,6|0,3:2|2:0,2:0:0:0:
116,230,151975,1,2,2:0:0:0:
134,195,152080,2,0,P|115:130|142:64,1,134.999995880127,2|0,2:0|2:0,2:0:0:0:
0,167,152395,6,0,P|15:219|6:267,1,67.4999979400635,2|0,2:0|2:0,2:0:0:0:
146,364,152605,6,0,L|68:351,1,67.4999979400635,6|0,3:2|2:0,2:0:0:0:
285,344,152814,1,2,2:0:0:0:
313,310,152919,2,0,B|249:324|249:324|244:330|244:330|147:349,1,134.999995880127,2|0,2:0|2:0,2:0:0:0:
288,177,153234,6,0,P|262:213|223:231,1,67.4999979400635,2|0,2:0|2:0,2:0:0:0:
447,358,153444,6,0,L|431:277,1,67.4999979400635,6|2,3:2|2:0,2:0:0:0:
463,159,153654,1,2,2:0:0:0:
497,180,153758,2,0,P|429:204|414:271,1,134.999995880127,2|2,2:0|2:0,2:0:0:0:
369,128,154073,5,2,2:0:0:0:
375,100,154178,1,2,2:0:0:0:
381,72,154283,5,2,3:2:0:0:
351,54,154388,1,2,2:0:0:0:
318,43,154493,1,2,2:0:0:0:
284,40,154598,1,2,2:0:0:0:
251,50,154703,2,0,L|267:120,1,56.2500021457673,10|2,2:0|2:0,2:0:0:0:
306,267,154912,5,2,2:0:0:0:
282,280,155017,1,2,2:0:0:0:
258,293,155122,5,2,3:2:0:0:
234,270,155227,1,2,2:0:0:0:
208,248,155332,1,2,2:0:0:0:
177,237,155437,1,2,2:0:0:0:
144,229,155542,2,0,L|87:239,1,56.2500021457673,10|2,2:0|2:0,2:0:0:0:
26,373,155751,5,2,2:0:0:0:
26,373,155856,1,2,2:0:0:0:
26,373,155961,6,0,L|38:298,1,56.2500021457673,2|8,3:2|2:0,2:0:0:0:
88,238,156171,2,0,L|76:163,1,56.2500021457673,8|8,2:0|2:0,2:0:0:0:
251,140,156381,6,0,L|238:192,2,37.5000014305115,8|8|8,2:0|2:0|2:0,2:0:0:0:
214,134,156591,1,8,2:0:0:0:
178,128,156696,1,8,2:0:0:0:
141,122,156800,6,0,B|73:181|-13:141|-16:48|41:-7|127:-23|220:-3|267:75|215:102|301:213|406:157|406:157|355:166|305:124,1,675.000025749207,2|2,3:2|3:2,2:0:0:0:
220,231,158269,6,0,B|253:210|247:150|247:150|281:267|176:315|176:315|146:256|97:237|35:250,1,450.000017166138,2|2,2:0|2:0,2:0:0:0:
107,384,159213,1,2,2:0:0:0:
107,384,159318,6,0,B|120:285|120:285|130:277|130:277|146:142,1,225.000008583069,2|2,2:0|2:0,2:0:0:0:
345,55,159947,5,2,2:0:0:0:
345,55,160052,1,2,2:0:0:0:
345,55,160157,6,0,B|309:187|309:187|429:222|429:222|389:142,1,337.500012874604,2|2,3:2|2:0,2:0:0:0:
360,142,160891,1,2,2:0:0:0:
336,151,160996,5,2,3:2:0:0:
327,189,161101,1,2,2:0:0:0:
318,227,161206,1,2,2:0:0:0:
309,265,161311,1,2,2:0:0:0:
301,303,161416,6,0,P|302:338|314:375,3,44.999998626709,10|2|2|2,3:2|2:0|2:0|2:0,2:0:0:0:
191,303,161835,5,2,3:2:0:0:
165,290,161940,1,2,2:0:0:0:
137,283,162045,1,2,2:0:0:0:
108,282,162150,1,2,2:0:0:0:
80,289,162255,2,0,L|34:296,3,37.5,10|2|2|2,2:0|2:0|2:0|2:0,2:0:0:0:
139,195,162675,5,2,3:2:0:0:
134,176,162779,1,2,2:0:0:0:
128,158,162884,6,0,B|154:150|154:150|185:163,1,52.4999983978272,2|2,2:0|2:0,2:0:0:0:
17,192,163094,6,0,L|55:200,4,26.2499991989136,10|2|2|2|2,2:0|2:0|2:0|2:0|2:0,2:0:0:0:
8,169,163409,1,2,2:0:0:0:
16,142,163514,6,0,B|36:93|36:93|102:52,1,112.500004291535,2|2,3:2|2:0,2:0:0:0:
129,46,163828,1,2,2:0:0:0:
173,53,163933,1,10,2:0:0:0:
255,134,164143,5,2,2:0:0:0:
281,113,164248,1,2,2:0:0:0:
298,84,164353,5,2,3:2:0:0:
339,67,164458,1,0,2:0:0:0:
383,70,164563,1,2,2:0:0:0:
417,98,164668,1,0,2:0:0:0:
431,140,164772,6,0,L|417:208,1,56.2500021457673,10|2,2:0|2:0,2:0:0:0:
326,276,164982,2,0,L|314:220,1,56.2500021457673,2|2,2:0|2:0,2:0:0:0:
229,339,165192,6,0,L|280:349,2,37.5000014305115,2|2|2,3:2|2:0|2:0,2:0:0:0:
154,318,165402,2,0,L|205:308,2,37.5000014305115,2|2|2,2:0|2:0|2:0,2:0:0:0:
137,221,165612,6,0,L|86:231,2,37.5000014305115,10|2|2,2:0|2:0|2:0,2:0:0:0:
212,200,165822,2,0,L|161:190,2,37.5000014305115,2|2|2,2:0|2:0|2:0,2:0:0:0:
275,111,166031,5,2,3:2:0:0:
287,67,166136,1,2,2:3:0:0:
277,23,166241,6,0,B|249:13|249:13|224:44,1,56.2500021457673,10|2,2:0|2:3,2:0:0:0:
124,96,166451,6,0,P|161:99|209:112,1,56.2500021457673,10|2,2:0|2:3,2:0:0:0:
65,20,166661,2,0,P|34:30|-20:36,1,56.2500021457673,10|10,2:0|2:0,2:0:0:0:
44,159,166870,5,2,3:2:0:0:
38,203,166975,1,2,2:0:0:0:
33,247,167080,1,2,2:0:0:0:
29,291,167185,1,2,2:0:0:0:
25,335,167290,6,0,L|98:356,1,56.2500021457673,10|8,2:0|2:0,2:0:0:0:
200,206,167500,2,0,L|127:227,1,56.2500021457673,8|8,2:0|2:0,2:0:0:0:
277,353,167710,5,8,2:0:0:0:
318,368,167814,1,8,2:0:0:0:
363,369,167919,1,8,2:0:0:0:
405,354,168024,1,8,2:0:0:0:
437,322,168129,5,8,2:0:0:0:
406,274,168234,1,8,2:0:0:0:
396,218,168339,1,8,2:0:0:0:
423,168,168444,1,8,2:0:0:0:
472,141,168549,5,12,2:0:0:0:
256,192,168654,12,0,169388,2:0:0:0:
167,157,169598,5,2,2:0:0:0:
278,147,169807,1,2,2:0:0:0:
390,138,170017,1,2,2:0:0:0:
317,355,170227,6,0,B|264:324|212:347|212:347|189:328|189:328|123:366|61:325,1,255.000004863739,14|8,3:2|2:0,2:0:0:0:
10,211,170856,5,2,2:0:0:0:
10,211,170961,1,2,2:0:0:0:
10,211,171066,1,2,3:2:0:0:
132,33,171276,6,0,B|154:95|131:158|131:158|195:133|284:189,1,255.000004863739,2|2,2:0|2:0,2:0:0:0:
500,78,171905,6,0,B|446:27|446:27|473:240,1,255.000004863739,6|10,3:2|2:0,2:0:0:0:
396,323,172535,1,2,2:0:0:0:
141,355,172744,6,0,B|166:304|166:304|222:258|299:307,2,191.250003647804,6|2|2,3:2|2:0|2:0,2:0:0:0:
364,201,173584,5,6,3:2:0:0:
278,55,173793,2,0,B|157:76|157:76|144:89|144:89|15:114,1,255.000004863739,2|2,2:0|2:0,2:0:0:0:
16,150,174318,1,2,2:0:0:0:
29,192,174423,5,2,3:2:0:0:
86,192,174528,1,2,2:0:0:0:
131,156,174633,1,2,2:0:0:0:
143,100,174737,1,2,2:0:0:0:
118,48,174842,6,0,B|91:27|91:27|52:29,1,63.7500012159348,10|2,2:0|2:0,2:0:0:0:
226,160,175052,2,0,B|255:161|255:161|282:140,1,63.7500012159348,2|2,2:0|2:0,2:0:0:0:
445,27,175262,6,0,B|403:68|409:113|409:113|416:117|416:117|431:163|374:220,1,191.250003647804,6|2,3:2|2:0,2:0:0:0:
310,257,175682,5,8,2:0:0:0:
229,69,175891,1,2,2:0:0:0:
150,336,176101,6,0,B|232:325|232:325|292:350|292:350|430:333,1,255.000004863739,6|8,3:2|2:0,2:0:0:0:
480,261,176730,1,2,2:0:0:0:
325,44,176940,5,6,3:2:0:0:
161,128,177150,2,0,B|173:300|395:196|262:56|103:37|19:142,1,427.499988584519,2|2,2:0|3:2,2:0:0:0:
23,300,177989,5,2,2:0:0:0:
71,286,178094,2,0,L|82:352,1,63.7500012159348,2|8,2:0|2:0,2:0:0:0:
206,341,178304,5,2,2:0:0:0:
249,350,178409,1,2,2:0:0:0:
293,348,178514,1,2,2:0:0:0:
331,324,178619,6,0,L|345:194,1,127.50000243187,6|2,3:2|2:0,2:0:0:0:
408,111,178933,1,2,2:0:0:0:
408,111,179038,6,0,L|278:97,1,127.50000243187,10|2,2:0|2:0,2:0:0:0:
221,25,179353,1,2,2:0:0:0:
221,25,179458,5,6,3:2:0:0:
184,51,179563,1,2,2:0:0:0:
140,61,179668,1,2,2:0:0:0:
98,45,179772,1,2,2:0:0:0:
71,9,179877,6,0,L|58:155,1,127.50000243187,10|0,2:0|2:0,2:0:0:0:
155,270,180297,5,6,3:2:0:0:
191,295,180402,1,2,2:0:0:0:
235,298,180507,1,2,2:0:0:0:
278,286,180612,1,2,2:0:0:0:
311,256,180717,1,10,2:0:0:0:
347,231,180821,1,2,2:0:0:0:
391,223,180926,1,2,2:0:0:0:
433,236,181031,1,2,2:0:0:0:
468,262,181136,6,0,L|479:172,3,63.7500012159348,2|2|2|2,3:2|2:0|2:0|2:0,2:0:0:0:
419,111,181556,2,0,L|408:21,3,63.7500012159348,10|2|2|2,2:0|2:0|2:0|2:0,2:0:0:0:
260,6,181975,5,6,3:2:0:0:
284,43,182080,1,2,2:0:0:0:
287,87,182185,1,2,2:0:0:0:
272,129,182290,1,2,2:0:0:0:
241,161,182395,5,10,2:0:0:0:
209,167,182500,1,2,2:0:0:0:
177,174,182605,1,2,2:0:0:0:
145,181,182710,1,2,2:0:0:0:
114,188,182814,5,2,3:2:0:0:
82,243,182919,1,2,2:0:0:0:
81,306,183024,1,2,2:0:0:0:
127,349,183129,1,2,2:0:0:0:
189,352,183234,6,0,P|148:312|45:324,1,127.50000243187,10|2,2:0|2:0,2:0:0:0:
22,176,198758,6,0,L|128:188,1,89.9999972534181,6|2,2:0|2:0,2:0:0:0:
141,213,199073,2,0,L|247:201,1,89.9999972534181,2|0,2:0|2:0,2:0:0:0:
259,181,199388,1,2,2:0:0:0:
379,96,199598,5,2,2:0:0:0:
385,126,199703,1,2,2:0:0:0:
391,156,199807,1,2,2:0:0:0:
397,186,199912,6,0,L|382:327,1,134.999995880127,2|2,2:0|2:0,2:0:0:0:
255,370,200437,5,2,2:0:0:0:
224,361,200542,1,2,2:0:0:0:
192,356,200647,1,2,2:0:0:0:
160,358,200751,2,0,P|177:296|119:227,1,134.999995880127,2|2,2:0|2:0,2:0:0:0:
20,94,201276,5,2,2:0:0:0:
25,125,201381,1,2,2:0:0:0:
128,74,201591,2,0,L|113:218,1,134.999995880127,2|2,2:0|2:0,2:0:0:0:
267,54,202115,6,0,P|315:32|368:44,1,89.9999972534181,2|2,2:0|2:0,2:0:0:0:
383,13,202430,2,0,P|433:27|466:70,1,89.9999972534181,2|0,2:0|2:0,2:0:0:0:
495,64,202744,1,2,2:0:0:0:
416,179,202954,5,2,2:0:0:0:
389,183,203059,1,2,2:0:0:0:
362,187,203164,1,2,2:0:0:0:
335,193,203269,6,0,L|186:173,1,134.999995880127,2|2,2:0|2:0,2:0:0:0:
115,348,203793,5,2,2:0:0:0:
141,342,203898,1,2,2:0:0:0:
167,343,204003,1,2,2:0:0:0:
193,347,204108,6,0,B|275:337|241:303|348:293,1,134.999995880127,2|2,2:0|2:0,2:0:0:0:
480,222,204633,5,2,2:0:0:0:
426,375,204842,2,0,L|406:272,2,89.9999972534181,2|2|2,2:0|2:0|2:0,2:0:0:0:
378,181,205472,5,6,2:0:0:0:
365,149,205577,1,0,2:0:0:0:
369,115,205682,1,2,2:0:0:0:
385,85,205786,6,0,P|328:34|241:34,1,146.249993305207,2|2,2:0|2:0,2:0:0:0:
91,108,206311,5,2,2:0:0:0:
119,126,206416,1,0,2:0:0:0:
151,137,206521,1,2,2:0:0:0:
183,146,206626,6,0,L|10:174,1,146.249993305207,2|2,2:0|2:0,2:0:0:0:
132,356,207150,5,2,2:0:0:0:
164,344,207255,1,0,2:0:0:0:
196,332,207360,1,2,2:0:0:0:
228,320,207465,6,0,B|301:338|301:338|311:333|311:333|405:354,1,146.249993305207,2|2,2:0|2:0,2:0:0:0:
473,276,207989,5,2,2:0:0:0:
464,242,208094,1,2,2:0:0:0:
411,145,208304,1,2,2:0:0:0:
422,112,208409,2,0,P|409:59|354:16,1,97.4999955368044,2|2,2:0|2:0,2:0:0:0:
230,100,208828,6,0,L|219:172,2,48.7499977684022,6|2|2,3:2|2:3|2:3,2:0:0:0:
149,60,209143,2,0,L|138:-12,2,48.7499977684022,2|2|2,2:3|2:3|2:3,2:0:0:0:
74,115,209458,2,0,L|63:181,1,48.7499977684022,2|2,2:3|2:3,2:0:0:0:
9,258,209668,5,2,2:3:0:0:
15,291,209772,1,2,2:3:0:0:
35,318,209877,1,2,2:3:0:0:
65,334,209982,1,2,2:3:0:0:
99,331,210087,6,0,P|133:319|152:298,1,48.7499977684022,2|2,2:3|2:3,2:0:0:0:
206,188,210297,2,0,P|172:200|153:221,1,48.7499977684022,2|2,2:3|2:3,2:0:0:0:
251,329,210507,5,6,3:2:0:0:
294,337,210612,1,2,2:3:0:0:
337,345,210717,1,2,2:3:0:0:
379,353,210821,1,2,2:3:0:0:
421,362,210926,6,0,B|434:337|434:337|417:303,1,56.2500021457673,2|2,2:3|2:3,2:0:0:0:
305,178,211136,2,0,B|321:200|321:200|357:205,1,56.2500021457673,2|2,2:3|2:3,2:0:0:0:
469,84,211346,5,2,2:3:0:0:
469,84,211451,1,2,2:3:0:0:
469,84,211556,6,0,L|379:72,1,56.2500021457673,2|2,2:3|2:3,2:0:0:0:
318,65,211765,2,0,L|228:53,1,56.2500021457673,2|2,2:3|2:3,2:0:0:0:
167,46,211975,2,0,L|77:34,1,56.2500021457673,2|2,2:3|2:3,2:0:0:0:
203,186,212185,6,0,B|218:220|218:220|206:261,1,67.4999979400635,6|0,3:2|2:0,2:0:0:0:
338,326,212395,1,2,2:0:0:0:
298,344,212500,2,0,B|219:331|267:289|171:275,1,134.999995880127,2|0,2:0|2:0,2:0:0:0:
89,372,212814,6,0,P|116:364|87:356,1,67.4999979400635,2|0,2:0|2:0,2:0:0:0:
0,214,213024,6,0,L|13:143,1,67.4999979400635,2|0,3:2|2:0,2:0:0:0:
184,46,213234,1,2,2:0:0:0:
155,77,213339,2,0,B|128:104|128:104|74:90|34:124,1,134.999995880127,2|0,2:0|2:0,2:0:0:0:
88,255,213654,6,0,P|102:224|93:183,1,67.4999979400635,2|0,2:0|2:0,2:0:0:0:
277,151,213863,6,0,B|242:143|242:143|205:165,1,67.4999979400635,2|0,3:2|2:0,2:0:0:0:
356,11,214073,1,2,2:0:0:0:
335,47,214178,2,0,B|347:120|292:98|312:184,1,134.999995880127,2|0,2:0|2:0,2:0:0:0:
444,168,214493,6,0,P|419:164|444:171,1,67.4999979400635,2|0,2:0|2:0,2:0:0:0:
488,349,214703,6,0,L|472:267,1,67.4999979400635,2|0,3:2|2:0,2:0:0:0:
393,328,214912,2,0,L|377:246,1,67.4999979400635,2|0,2:0|2:0,2:0:0:0:
250,363,215122,6,0,L|266:281,1,67.4999979400635,10|0,2:0|2:0,2:0:0:0:
155,384,215332,2,0,L|171:302,1,67.4999979400635,2|0,2:0|2:0,2:0:0:0:
31,204,215542,6,0,B|127:177|127:177|153:153|153:153|266:120,1,247.500007553101,6|2,3:2|2:0,2:0:0:0:
154,66,215961,6,0,L|201:250,1,168.750006437302,10|0,2:0|2:0,2:0:0:0:
334,180,216381,6,0,B|452:153|481:41|386:-7|340:39|343:97,1,281.25,2|2,3:2|2:0,2:0:0:0:
391,250,216800,6,0,B|428:217|419:166|419:166|442:214|508:220,1,191.250003647804,10|0,2:0|2:0,2:0:0:0:
485,22,217220,5,6,3:2:0:0:
485,22,217325,2,0,P|456:43|408:49,1,67.4999979400635,2|0,2:0|2:0,2:0:0:0:
278,16,217535,5,2,2:0:0:0:
238,6,217640,2,0,P|210:0|157:9,1,67.4999979400635,10|0,2:0|2:0,2:0:0:0:
43,99,217849,6,0,B|78:88|78:88|90:46,1,67.4999979400635,2|0,2:0|2:0,2:0:0:0:
189,230,218059,5,2,3:2:0:0:
189,230,218163,1,2,2:0:0:0:
189,230,218269,6,0,L|116:236,1,67.4999979400635,2|0,2:0|2:0,2:0:0:0:
396,212,218479,2,0,L|464:205,1,67.4999979400635,10|0,2:0|2:0,2:0:0:0:
292,221,218688,1,2,2:0:0:0:
476,384,218898,6,0,P|490:358|487:308,1,67.4999979400635,6|0,3:2|2:0,2:0:0:0:
294,337,219108,1,2,2:0:0:0:
323,307,219213,2,0,L|481:292,1,134.999995880127,2|0,2:0|2:0,2:0:0:0:
483,141,219528,6,0,P|467:180|461:226,1,67.4999979400635,2|0,2:0|2:0,2:0:0:0:
417,27,219737,6,0,P|385:21|322:50,1,67.4999979400635,2|0,3:2|2:0,2:0:0:0:
198,97,219947,1,2,2:0:0:0:
233,118,220052,2,0,P|303:112|331:53,1,134.999995880127,2|0,2:0|2:0,2:0:0:0:
223,7,220367,6,0,L|138:-5,1,67.4999979400635,2|0,2:0|2:0,2:0:0:0:
33,163,220577,6,0,P|45:121|39:79,1,67.4999979400635,2|0,3:2|2:0,2:0:0:0:
70,299,220786,1,2,2:0:0:0:
38,324,220891,2,0,B|23:257|23:257|28:247|28:247|7:161,1,134.999995880127,2|0,2:0|2:0,2:0:0:0:
182,198,221206,6,0,P|152:214|108:214,1,67.4999979400635,2|0,2:0|2:0,2:0:0:0:
350,259,221416,5,2,3:2:0:0:
350,259,221521,1,2,2:0:0:0:
350,259,221626,6,0,L|443:281,1,67.4999979400635,2|0,2:0|2:0,2:0:0:0:
244,282,221835,2,0,L|178:351,1,67.4999979400635,10|0,2:0|2:0,2:0:0:0:
257,113,222045,2,0,L|276:177,1,67.4999979400635,2|0,2:0|2:0,2:0:0:0:
466,141,222255,6,0,P|393:156|393:54,2,202.499993820191,6|2|2,3:2|2:0|2:0,2:0:0:0:
273,75,223094,6,0,P|281:42|297:13,1,67.4999979400635,2|0,3:2|2:0,2:0:0:0:
180,95,223304,2,0,P|166:64|159:32,1,67.4999979400635,2|0,2:0|2:0,2:0:0:0:
65,135,223514,6,0,P|92:156|141:173,1,67.4999979400635,10|0,2:0|2:0,2:0:0:0:
59,274,223723,2,0,P|93:272|142:254,1,67.4999979400635,2|0,2:0|2:0,2:0:0:0:
251,382,223933,6,0,L|234:298,1,67.4999979400635,6|2,3:2|2:0,2:0:0:0:
292,237,224143,5,2,2:0:0:0:
292,237,224248,2,0,L|275:153,1,67.4999979400635,2|10,2:0|2:0,2:0:0:0:
333,92,224458,5,2,2:0:0:0:
333,92,224563,2,0,L|316:8,1,67.4999979400635,2|2,2:0|2:0,2:0:0:0:
501,26,224772,6,0,B|476:18|476:18|432:36,5,44.999998626709,6|2|2|2|2|2,3:2|2:0|2:0|2:0|2:0|2:0,2:0:0:0:
512,134,225192,6,0,B|494:126|494:126|469:134,2,44.999998626709,10|2|2,2:0|2:0|2:0,2:0:0:0:
434,154,225402,2,0,B|459:162|459:162|477:154,2,44.999998626709,2|2|2,2:0|2:0|2:0,2:0:0:0:
365,290,225612,6,0,L|380:203,1,67.4999979400635,6|0,3:2|2:0,2:0:0:0:
231,117,225821,1,2,2:0:0:0:
265,99,225926,2,0,B|336:128|281:166|376:205,1,134.999995880127,2|0,2:0|2:0,2:0:0:0:
246,252,226241,6,0,P|268:261|248:259,1,67.4999979400635,2|0,2:0|2:0,2:0:0:0:
144,145,226451,6,0,P|137:197|104:238,1,67.4999979400635,2|0,3:2|2:0,2:0:0:0:
96,351,226661,1,2,2:0:0:0:
65,328,226765,2,0,B|50:254|50:254|60:220|111:221,1,134.999995880127,2|0,2:0|2:0,2:0:0:0:
58,94,227080,6,0,P|33:131|3:149,1,67.4999979400635,2|0,2:0|2:0,2:0:0:0:
251,16,227290,6,0,L|159:-2,1,67.4999979400635,2|0,3:2|2:0,2:0:0:0:
421,31,227500,1,2,2:0:0:0:
394,65,227605,2,0,B|322:81|322:81|301:52|252:46,1,134.999995880127,2|0,2:0|2:0,2:0:0:0:
276,204,227919,6,0,P|258:173|253:126,1,67.4999979400635,2|0,2:0|2:0,2:0:0:0:
430,285,228129,5,2,3:2:0:0:
430,285,228234,1,2,2:0:0:0:
430,285,228339,6,0,L|336:295,1,67.4999979400635,2|0,2:0|2:0,2:0:0:0:
265,303,228549,2,0,L|171:313,1,67.4999979400635,10|0,2:0|2:0,2:0:0:0:
32,328,228758,2,0,L|100:321,1,67.4999979400635,2|0,2:0|2:0,2:0:0:0:
23,106,228968,6,0,P|108:85|61:204,1,247.500007553101,6|0,3:2|2:0,2:0:0:0:
61,114,229388,6,0,P|29:141|110:155,1,168.750006437302,10|0,2:0|2:0,2:0:0:0:
293,16,229807,6,0,B|246:-11|203:24|203:24|223:103|300:129|420:60,1,281.25,2|2,3:2|2:0,2:0:0:0:
435,10,230227,6,0,P|381:86|375:213,1,191.250003647804,10|0,2:0|2:0,2:0:0:0:
236,311,230647,5,6,3:2:0:0:
236,311,230751,2,0,P|288:296|324:300,1,67.4999979400635,2|0,2:0|2:0,2:0:0:0:
442,260,230961,5,2,2:0:0:0:
412,295,231066,2,0,L|436:380,1,67.4999979400635,10|0,2:0|2:0,2:0:0:0:
273,198,231276,6,0,B|252:171|252:171|260:122,1,67.4999979400635,2|0,2:0|2:0,2:0:0:0:
125,110,231486,5,6,3:2:0:0:
125,110,231590,1,2,2:0:0:0:
125,110,231695,6,0,L|119:37,1,67.4999979400635,2|0,2:0|2:0,2:0:0:0:
143,317,231905,2,0,L|150:385,1,67.4999979400635,10|0,2:0|2:0,2:0:0:0:
134,213,232115,1,2,2:0:0:0:
8,86,232325,6,0,L|-4:179,1,67.4999979400635,6|0,3:2|2:0,2:0:0:0:
8,331,232535,1,2,2:0:0:0:
41,305,232640,2,0,B|54:237|-3:255|22:172,1,134.999995880127,2|0,2:0|2:0,2:0:0:0:
190,178,232954,6,0,P|152:206|97:215,1,67.4999979400635,2|0,2:0|2:0,2:0:0:0:
227,345,233164,6,0,L|308:335,1,67.4999979400635,2|0,3:2|2:0,2:0:0:0:
315,201,233374,1,2,2:0:0:0:
355,182,233479,2,0,B|344:243|344:243|335:249|335:249|322:323,1,134.999995880127,2|0,2:0|2:0,2:0:0:0:
477,269,233793,6,0,P|454:274|469:278,1,67.4999979400635,2|0,2:0|2:0,2:0:0:0:
467,48,234003,6,0,B|459:81|459:81|482:139,1,67.4999979400635,2|0,3:2|2:0,2:0:0:0:
290,49,234213,1,2,2:0:0:0:
313,22,234318,2,0,B|388:5|388:5|407:32|458:32,1,134.999995880127,2|0,2:0|2:0,2:0:0:0:
355,182,234633,6,0,L|373:103,1,67.4999979400635,2|0,2:0|2:0,2:0:0:0:
125,111,234842,6,0,P|164:113|209:145,1,67.4999979400635,2|0,3:2|2:0,2:0:0:0:
149,214,235052,2,0,P|110:212|65:180,1,67.4999979400635,2|0,2:0|2:0,2:0:0:0:
269,362,235262,6,0,P|308:360|353:328,1,67.4999979400635,10|0,2:0|2:0,2:0:0:0:
293,259,235472,2,0,P|254:261|209:293,1,67.4999979400635,2|0,2:0|2:0,2:0:0:0:
476,189,235682,6,0,B|455:333|455:333|419:265,2,202.499993820191,6|2|2,3:2|2:0|2:0,2:0:0:0:
385,42,236521,6,0,L|302:55,1,67.4999979400635,2|0,3:2|2:0,2:0:0:0:
231,6,236730,2,0,L|148:19,1,67.4999979400635,2|0,2:0|2:0,2:0:0:0:
143,179,236940,6,0,L|209:189,1,67.4999979400635,10|0,2:0|2:0,2:0:0:0:
297,143,237150,2,0,L|363:153,1,67.4999979400635,2|0,2:0|2:0,2:0:0:0:
332,331,237360,6,0,B|255:376|200:325|223:294|153:227|71:300,1,269.999991760254,6|2,3:2|2:0,2:0:0:0:
33,376,237779,6,0,B|72:331|72:331|52:201|52:201|-1:175,1,247.500007553101,10|2,2:0|2:0,2:0:0:0:
137,27,238199,6,0,B|100:77|100:77|277:38,1,225,2|2,3:2|2:0,2:0:0:0:
333,106,238619,6,0,P|285:44|381:61,1,202.499993820191,10|0,2:0|2:0,2:0:0:0:
457,174,239038,6,0,P|455:207|470:237,1,67.4999979400635,6|0,3:2|2:0,2:0:0:0:
298,212,239248,1,2,2:0:0:0:
317,245,239353,2,0,P|369:229|458:266,1,134.999995880127,2|0,2:0|2:0,2:0:0:0:
336,370,239668,6,0,P|368:345|380:306,1,67.4999979400635,2|0,2:0|2:0,2:0:0:0:
150,200,239877,6,0,B|176:178|176:178|222:189,1,67.4999979400635,6|0,3:2|2:0,2:0:0:0:
212,346,240087,1,2,2:0:0:0:
171,357,240192,2,0,B|147:299|147:299|151:289|151:289|125:217,1,134.999995880127,2|0,2:0|2:0,2:0:0:0:
20,320,240507,6,0,P|48:319|30:335,1,67.4999979400635,2|0,2:0|2:0,2:0:0:0:
12,127,240717,6,0,B|37:146|37:146|87:153,1,60,6|2,3:2|2:0,2:0:0:0:
228,39,240926,1,2,2:0:0:0:
185,52,241031,2,0,B|116:82|157:103|82:130,1,120,2|2,2:0|2:0,2:0:0:0:
294,213,241346,5,2,2:0:0:0:
286,183,241451,1,2,2:0:0:0:
269,157,241556,5,0,3:2:0:0:
236,173,241661,1,2,2:0:0:0:
218,204,241765,1,2,2:0:0:0:
221,239,241870,1,2,2:0:0:0:
234,272,241975,6,0,P|236:302|222:331,1,60,10|2,2:0|2:0,2:0:0:0:
411,248,242185,5,2,2:0:0:0:
440,243,242290,1,2,2:0:0:0:
473,238,242395,5,2,3:2:0:0:
459,276,242500,1,2,2:0:0:0:
430,305,242605,1,2,2:0:0:0:
392,319,242710,1,2,2:0:0:0:
354,303,242814,6,0,B|333:273|333:273|338:226,1,67.4999979400635,10|0,2:0|2:0,2:0:0:0:
186,102,243024,2,0,B|207:132|207:132|202:179,1,67.4999979400635,8|8,2:0|2:0,2:0:0:0:
78,306,243234,6,0,L|89:245,3,50,8|8|8|8,2:0|2:0|2:0|2:0,2:0:0:0:
88,352,243549,5,8,2:0:0:0:
138,361,243654,1,8,3:2:0:0:
183,372,243758,1,8,2:0:0:0:
230,384,243863,6,0,B|333:179|333:179|209:219|209:219|314:6,1,597.375014584351,14|0,3:2|2:0,2:0:0:0:
