osu file format v14

[General]
AudioFilename: audio.mp3
AudioLeadIn: 0
PreviewTime: 106378
Countdown: 1
SampleSet: Soft
StackLeniency: 0.5
Mode: 0
LetterboxInBreaks: 0
WidescreenStoryboard: 0

[Editor]
Bookmarks: 136840,242071,302532
DistanceSpacing: 0.4
BeatDivisor: 4
GridSize: 32
TimelineZoom: 1.8

[Metadata]
Title:late in autumn
TitleUnicode:late in autumn
Artist:fripSide
ArtistUnicode:fripSide
Creator:Kashima
Version:Konayuki
Source:
Tags:marathon del05 infinite synthesis takahiro toguchida yoshino nanjo yuki-ka satoshi yaginuma karen
BeatmapID:1926033
BeatmapSetID:922307

[Difficulty]
HPDrainRate:6
CircleSize:4.2
OverallDifficulty:7
ApproachRate:9
SliderMultiplier:2
SliderTickRate:1

[Events]
//Background and Video events
0,0,"bbg.jpg",0,0
//Break Periods
2,242271,253148
//Storyboard Layer 0 (Background)
//Storyboard Layer 1 (Fail)
//Storyboard Layer 2 (Pass)
//Storyboard Layer 3 (Foreground)
//Storyboard Sound Samples

[TimingPoints]
225,461.538461538462,4,2,1,50,1,0
225,-125,4,2,1,50,0,0
2071,-100,4,2,1,50,0,0
3917,-153.846153846154,4,2,1,50,0,0
5763,-92.5925925925926,4,2,1,50,0,0
7609,-103.092783505155,4,2,1,50,0,0
14071,-133.333333333333,4,2,1,50,0,0
15917,-133.333333333333,4,2,1,45,0,0
17763,-142.857142857143,4,2,1,40,0,0
19609,-153.846153846154,4,2,1,35,0,0
21455,-133.333333333333,4,2,1,40,0,0
21917,-133.333333333333,4,2,1,45,0,0
22378,-117.647058823529,4,2,1,50,0,0
24225,-117.647058823529,4,2,1,55,0,0
25148,-100,4,2,1,55,0,0
26071,-100,4,2,2,60,0,0
31609,-90.9090909090909,4,2,2,60,0,0
61148,-121.212121212121,4,2,3,45,0,0
75917,-120.481927710843,4,2,2,60,0,0
105455,-120.481927710843,4,2,2,40,0,0
106609,-120.481927710843,4,2,2,45,0,0
106840,-120.481927710843,4,2,2,50,0,0
107071,-120.481927710843,4,2,2,55,0,0
107301,-90.9090909090909,4,2,2,60,0,1
136840,-100,4,2,2,60,0,0
159917,-90.9090909090909,4,2,2,60,0,0
166378,-121.212121212121,4,2,3,50,0,0
181148,-90.9090909090909,4,2,2,60,0,0
210686,-90.9090909090909,4,2,2,40,0,0
211840,-90.9090909090909,4,2,2,45,0,0
212071,-90.9090909090909,4,2,2,50,0,0
212301,-90.9090909090909,4,2,2,55,0,0
212532,-100,4,2,2,60,0,1
242071,-121.212121212121,4,2,3,45,0,0
269763,-90.9090909090909,4,2,2,50,0,0
271148,-90.9090909090909,4,2,2,50,0,0
273455,-120,4,2,2,45,0,0
287763,-120,4,2,2,50,0,0
287994,-120,4,2,2,55,0,0
288225,-90.9090909090909,4,2,2,60,0,1
302532,-90.9090909090909,4,2,2,60,0,0
302994,-83.3333333333333,4,2,2,65,0,1
331782,-83.3333333333333,4,2,2,5,0,1
331840,-76.9230769230769,4,2,2,65,0,1
332013,-76.9230769230769,4,2,2,5,0,1
332071,-71.4285714285714,4,2,2,65,0,1
332244,-71.4285714285714,4,2,2,5,0,1
332301,-66.6666666666667,4,2,2,65,0,1
332475,-66.6666666666667,4,2,2,5,0,1
332532,-90.9090909090909,4,2,2,65,0,0
347301,-100,4,2,2,55,0,0

[Colours]
Combo1 : 251,214,102
Combo2 : 128,128,255
Combo3 : 255,155,205

[HitObjects]
204,108,225,6,0,B|156:34|107:49|39:81|2:206|179:178|194:326,1,400,2|0,0:0|0:0,0:0:0:0:
308,108,1840,1,0,0:0:0:0:
308,108,1955,1,0,0:0:0:0:
308,108,2071,6,0,B|356:34|405:49|473:81|510:206|333:178|319:324,1,400,2|2,0:0|0:0,0:0:0:0:
236,119,3917,6,0,B|212:45|114:-15|94:-4|90:108|176:184,1,324.999985122681,2|0,0:0|0:0,0:0:0:0:
330,211,5763,6,0,B|405:227|506:172|506:149|411:90|315:124,1,324.000007910156,2|0,0:0|0:0,0:0:0:0:
202,245,6571,1,0,0:0:0:0:
202,245,6686,6,0,B|151:301|148:416|167:428|266:375|285:274,1,324.000007910156,2|0,0:0|0:0,0:0:0:0:
196,85,7609,6,0,P|145:74|202:244,1,388.800009492188,2|0,0:0|0:0,0:0:0:0:
201,244,8763,1,0,0:0:0:0:
151,166,9225,1,0,0:0:0:0:
151,166,9340,1,0,0:0:0:0:
151,166,9455,6,0,L|350:166,1,194.400004746094,2|0,0:0|0:0,0:0:0:0:
345,166,10378,2,0,L|245:339,1,194.400004746094,2|0,0:0|0:0,0:0:0:0:
247,333,11301,6,0,B|185:215|37:315|18:186|66:128|104:94|172:139,1,388.800009492188,2|0,0:0|0:0,0:0:0:0:
255,90,12455,1,0,0:0:0:0:
349,133,12917,1,0,0:0:0:0:
349,133,13032,1,0,0:0:0:0:
349,133,13148,1,2,0:0:0:0:
328,223,14071,5,0,0:0:0:0:
404,232,14302,1,0,0:0:0:0:
461,151,14532,1,0,0:0:0:0:
398,47,14763,1,0,0:0:0:0:
264,99,14994,2,0,P|208:102|100:93,1,150.000005722046,2|0,0:0|0:0,0:0:0:0:
264,99,15917,5,2,0:0:0:0:
398,47,16148,1,0,0:0:0:0:
461,151,16378,1,0,0:0:0:0:
404,232,16609,1,0,0:0:0:0:
328,223,16840,2,0,L|163:240,1,150.000005722046,2|0,0:0|0:0,0:0:0:0:
328,223,17763,5,0,0:0:0:0:
373,187,17994,1,0,0:0:0:0:
360,114,18224,1,0,0:0:0:0:
271,92,18455,1,0,0:0:0:0:
197,177,18686,2,0,L|169:320,1,139.999995727539,2|0,0:0|0:0,0:0:0:0:
197,177,19609,5,0,0:0:0:0:
271,92,19839,1,0,0:0:0:0:
360,114,20070,1,0,0:0:0:0:
373,187,20301,1,0,0:0:0:0:
328,223,20532,2,0,L|302:353,1,129.999994049073,2|0,0:0|0:0,0:0:0:0:
328,223,21455,6,0,L|290:137,1,75.0000028610231,2|0,0:0|0:0,0:0:0:0:
245,308,21917,2,0,L|354:300,1,75.0000028610231,2|0,0:0|0:0,0:0:0:0:
235,224,22378,2,0,L|132:202,1,85.0000016212464,2|0,0:0|0:0,0:0:0:0:
135,202,22725,1,0,0:0:0:0:
120,198,22840,1,0,0:0:0:0:
83,36,23071,1,0,0:0:0:0:
214,112,23301,6,0,L|129:108,1,85.0000016212464,2|0,0:0|0:0,0:0:0:0:
277,264,23763,2,0,L|265:179,1,85.0000016212464,0|0,0:0|0:0,0:0:0:0:
64,192,24225,6,0,L|148:195,1,85.0000016212464,2|0,0:0|0:0,0:0:0:0:
166,195,24571,1,0,0:0:0:0:
182,195,24686,1,0,0:0:0:0:
135,363,24917,1,0,0:0:0:0:
187,287,25148,6,0,L|286:280,1,100,2|0,0:0|0:0,0:0:0:0:
415,285,25609,2,0,L|337:347,1,100,0|0,0:0|0:0,0:0:0:0:
306,177,26071,6,0,B|293:106|390:5|424:40|431:157|354:224,1,300,8|0,0:1|0:0,0:0:0:0:
306,177,26994,6,0,B|293:106|390:5|424:40|431:157|354:224,1,300,8|0,0:1|0:0,0:0:0:0:
306,177,27917,6,0,B|293:106|390:5|424:40|431:157|354:224,1,300,8|0,0:1|0:0,0:0:0:0:
383,60,28840,1,8,0:1:0:0:
341,86,28955,2,0,P|313:129|306:179,1,100,8|8,0:1|0:1,0:0:0:0:
377,200,29301,2,0,P|398:156|406:104,1,100,8|0,0:1|0:0,0:0:0:0:
383,60,29648,1,0,0:0:0:0:
306,18,29763,6,8,L|150:28,2,150,8|8|8,0:1|0:1|0:1,0:0:0:0:
265,106,30571,1,0,0:0:0:0:
265,106,30686,2,8,L|109:116,2,150,8|8|8,0:1|0:1|0:1,0:0:0:0:
217,279,31609,6,0,P|264:326|369:296,1,165.000005035401,4|0,0:3|0:0,0:0:0:0:
382,293,32070,1,8,0:0:0:0:
389,153,32301,1,0,0:0:0:0:
485,250,32532,1,0,3:0:0:0:
480,265,32647,1,0,0:0:0:0:
359,320,32878,1,0,0:0:0:0:
361,336,32994,2,0,L|229:319,1,110,10|0,0:0|0:0,0:0:0:0:
97,181,33455,6,0,P|149:178|211:220,1,110,2|0,3:2|0:0,0:0:0:0:
280,137,33801,1,0,0:0:0:0:
376,164,33917,2,0,L|255:147,1,110,8|0,0:0|0:0,0:0:0:0:
123,13,34378,1,2,3:2:0:0:
132,26,34494,1,0,0:0:0:0:
283,57,34724,1,2,0:0:0:0:
271,44,34840,2,0,L|391:21,1,110,8|2,0:0|0:0,0:0:0:0:
184,124,35301,6,0,P|125:122|54:110,1,110,6|0,3:2|0:0,0:0:0:0:
209,203,35647,1,0,0:0:0:0:
132,230,35763,2,0,P|75:212|10:182,1,110,8|0,0:0|0:0,0:0:0:0:
59,17,36225,1,2,3:2:0:0:
64,32,36340,1,0,0:0:0:0:
271,44,36570,1,0,0:0:0:0:
277,28,36686,2,0,L|268:141,1,110,8|0,0:0|0:0,0:0:0:0:
376,265,37148,6,0,P|318:280|280:327,1,110,2|0,3:2|0:0,0:0:0:0:
430,330,37494,1,2,0:0:0:0:
436,204,37609,2,0,P|372:180|314:198,1,110,8|2,0:0|0:0,0:0:0:0:
149,297,38070,1,2,3:2:0:0:
88,240,38186,2,0,L|75:182,1,55,2|0,0:0|3:0,0:0:0:0:
164,302,38417,1,2,0:0:0:0:
238,247,38532,2,0,L|251:189,1,55,10|0,3:2|0:0,0:0:0:0:
157,120,38763,1,2,3:2:0:0:
161,135,38878,1,0,3:2:0:0:
164,213,38994,6,0,P|173:122|178:34,1,165,4|0,3:3|0:0,0:0:0:0:
170,33,39455,1,8,0:0:0:0:
299,119,39686,1,0,0:0:0:0:
446,77,39917,1,0,3:0:0:0:
442,93,40032,1,0,0:0:0:0:
271,38,40263,1,0,0:0:0:0:
265,22,40378,1,10,0:0:0:0:
381,163,40609,1,0,0:0:0:0:
493,12,40840,6,0,P|427:-2|384:25,1,110,2|0,3:2|0:0,0:0:0:0:
368,249,41186,1,0,0:0:0:0:
455,222,41301,2,0,P|465:172|469:114,1,110,8|0,0:0|0:0,0:0:0:0:
273,216,41763,1,2,3:2:0:0:
279,231,41878,1,0,0:0:0:0:
389,354,42109,1,2,0:0:0:0:
396,339,42224,2,0,P|443:329|513:323,1,110,8|2,0:0|0:0,0:0:0:0:
304,374,42686,6,0,P|249:369|195:358,1,110,6|0,3:2|0:0,0:0:0:0:
200,175,43032,1,0,0:0:0:0:
203,272,43147,2,0,P|155:244|111:211,1,110,8|0,0:0|0:0,0:0:0:0:
231,60,43609,1,2,3:2:0:0:
225,75,43724,1,0,0:0:0:0:
318,202,43955,1,2,0:0:0:0:
334,199,44070,1,8,0:0:0:0:
349,39,44301,1,2,0:0:0:0:
413,126,44532,6,0,P|358:116|288:116,1,110,2|0,3:2|0:0,0:0:0:0:
283,326,44878,1,8,0:0:0:0:
369,271,44994,2,0,P|316:288|254:322,1,110,0|8,0:0|0:0,0:0:0:0:
121,158,45455,1,10,3:2:0:0:
70,93,45570,1,0,0:0:0:0:
129,172,45801,1,0,0:0:0:0:
172,102,45916,1,10,3:2:0:0:
139,186,46147,1,10,3:2:0:0:
150,268,46263,1,0,3:2:0:0:
162,349,46378,6,0,P|88:335|-1:318,1,165,4|2,3:3|0:0,0:0:0:0:
9,331,46840,1,8,0:0:0:0:
234,296,47070,1,2,0:0:0:0:
64,237,47301,1,2,3:2:0:0:
57,221,47417,1,0,0:0:0:0:
298,206,47647,1,0,0:0:0:0:
295,222,47763,1,8,0:0:0:0:
430,369,47994,1,2,0:0:0:0:
401,294,48109,1,2,0:0:0:0:
350,356,48224,6,0,P|424:342|513:325,1,165,2|2,3:2|0:0,0:0:0:0:
506,340,48686,1,10,0:0:0:0:
282,305,48917,1,2,0:0:0:0:
476,225,49147,1,2,3:2:0:0:
477,242,49263,1,0,0:0:0:0:
209,347,49494,1,0,0:0:0:0:
204,331,49609,1,8,0:0:0:0:
233,101,49840,1,0,0:0:0:0:
348,225,50070,6,0,P|280:229|188:169,1,165,6|0,3:2|0:0,0:0:0:0:
187,168,50532,1,10,0:0:0:0:
235,14,50763,1,2,0:0:0:0:
89,108,50994,1,2,3:2:0:0:
94,123,51109,1,0,0:0:0:0:
321,139,51340,1,0,0:0:0:0:
326,123,51455,1,8,0:0:0:0:
181,261,51686,1,2,0:0:0:0:
210,340,51801,1,2,0:0:0:0:
259,280,51917,6,0,P|154:283|62:297,1,165,2|8,3:2|0:0,0:0:0:0:
86,305,52378,1,0,0:0:0:0:
243,188,52609,1,8,0:0:0:0:
359,349,52840,1,10,3:2:0:0:
440,324,52955,2,0,P|444:288|443:249,1,55,0|0,0:0|0:0,0:0:0:0:
353,168,53186,1,0,0:0:0:0:
363,180,53301,2,0,P|385:187|420:189,1,55,10|0,3:2|0:0,0:0:0:0:
512,103,53532,2,0,P|484:104|458:112,1,55,10|0,3:2|0:0,0:0:0:0:
285,230,53763,6,0,P|265:174|281:105,1,110,4|0,3:3|0:0,0:0:0:0:
300,240,54109,1,0,0:0:0:0:
240,304,54224,2,0,P|204:258|185:206,1,110,8|0,0:0|0:0,0:0:0:0:
349,95,54686,1,2,3:2:0:0:
344,79,54801,1,0,0:0:0:0:
202,62,55032,1,0,0:0:0:0:
189,73,55147,2,0,P|184:99|185:132,1,55,8|0,0:0|0:0,0:0:0:0:
85,76,55378,2,0,P|86:102|96:134,1,55,8|0,0:0|0:0,0:0:0:0:
16,300,55609,6,0,P|36:244|20:175,1,110,6|0,3:2|0:0,0:0:0:0:
1,310,55955,1,0,0:0:0:0:
61,374,56070,2,0,P|97:328|116:276,1,110,8|0,0:0|0:0,0:0:0:0:
314,277,56532,1,2,3:2:0:0:
321,291,56647,1,0,0:0:0:0:
498,283,56878,1,0,0:0:0:0:
495,299,56994,1,8,0:0:0:0:
347,194,57224,1,8,0:0:0:0:
400,360,57455,6,0,P|410:304|416:241,1,110,6|0,3:2|0:0,0:0:0:0:
423,110,57801,1,0,0:0:0:0:
434,121,57917,2,0,P|376:116|319:105,1,110,8|0,0:0|0:0,0:0:0:0:
133,171,58378,1,0,3:0:0:0:
153,247,58494,1,2,0:0:0:0:
116,171,58724,1,2,0:0:0:0:
79,240,58840,1,10,3:2:0:0:
105,160,59070,1,0,3:0:0:0:
77,87,59186,1,0,3:0:0:0:
118,17,59301,6,0,P|184:15|226:47,1,110,2|0,3:2|0:0,0:0:0:0:
237,160,59647,1,0,0:0:0:0:
342,102,59763,2,0,P|311:93|267:90,1,55,8|0,0:0|0:0,0:0:0:0:
287,236,59994,2,0,P|314:232|340:224,1,55
512,184,60225,5,2,3:2:0:0:
509,201,60340,1,0,0:0:0:0:
495,275,60455,1,0,3:0:0:0:
492,292,60571,1,0,0:0:0:0:
438,352,60686,5,8,3:2:0:0:
421,349,60802,1,0,0:0:0:0:
346,335,60917,1,0,3:0:0:0:
330,332,61033,1,0,3:0:0:0:
254,315,61147,5,6,3:2:0:0:
173,296,61609,5,8,0:0:0:0:
94,276,61840,1,0,0:0:0:0:
93,255,61955,1,0,0:0:0:0:
91,234,62071,1,0,3:0:0:0:
90,213,62186,1,0,0:0:0:0:
230,232,62417,1,0,0:0:0:0:
228,211,62532,1,8,0:0:0:0:
223,130,62763,1,0,0:0:0:0:
346,254,62994,5,2,3:2:0:0:
426,237,63455,5,8,0:0:0:0:
505,217,63686,1,0,0:0:0:0:
506,196,63801,1,0,0:0:0:0:
508,175,63916,1,0,3:0:0:0:
509,154,64032,1,0,0:0:0:0:
369,173,64263,1,0,0:0:0:0:
371,152,64378,1,8,0:0:0:0:
376,70,64609,1,0,0:0:0:0:
275,171,64840,6,0,L|100:150,1,165.000006294251,2|8,3:2|0:0,0:0:0:0:
84,41,65532,1,0,0:0:0:0:
102,49,65647,1,0,0:0:0:0:
120,58,65763,1,0,3:0:0:0:
138,66,65878,1,0,0:0:0:0:
256,77,66109,1,0,0:0:0:0:
273,67,66224,2,0,L|338:67,1,41.2500015735627,8|0,0:0|0:0,0:0:0:0:
416,140,66455,2,0,L|351:140,1,41.2500015735627,0|0,0:0|0:0,0:0:0:0:
344,228,66686,6,0,P|335:290|329:354,1,123.750004720688,2|2,3:2|0:0,0:0:0:0:
344,364,67147,2,0,L|429:365,1,82.5000031471254,0|2,0:0|0:0,0:0:0:0:
507,291,67494,1,0,0:0:0:0:
495,274,67609,2,0,L|439:280,1,41.2500015735627,0|0,3:0|0:0,0:0:0:0:
246,335,67955,1,0,0:0:0:0:
231,320,68070,2,0,L|189:315,1,41.2500015735627,8|0,0:0|0:0,0:0:0:0:
259,233,68301,2,0,L|217:228,1,41.2500015735627,0|0,0:0|0:0,0:0:0:0:
107,341,68532,5,2,3:2:0:0:
32,301,68994,5,8,0:0:0:0:
104,259,69224,1,0,0:0:0:0:
113,240,69340,1,0,0:0:0:0:
116,219,69455,1,0,3:0:0:0:
110,199,69570,1,0,0:0:0:0:
6,114,69801,1,0,0:0:0:0:
16,131,69917,1,8,0:0:0:0:
89,78,70148,1,0,0:0:0:0:
186,159,70378,5,2,3:2:0:0:
260,194,70840,5,8,0:0:0:0:
342,180,71070,1,0,0:0:0:0:
336,159,71186,1,0,0:0:0:0:
337,138,71301,1,0,3:0:0:0:
344,118,71417,1,0,0:0:0:0:
415,21,71647,1,0,0:0:0:0:
398,10,71763,1,8,0:0:0:0:
325,39,71994,1,0,0:0:0:0:
422,152,72224,6,0,B|463:129|507:137|507:137|532:157|546:184,1,123.750004720688,2|0,3:2|0:0,0:0:0:0:
511,167,72686,2,0,P|501:206|496:249,1,82.5000031471254,8|0,0:0|0:0,0:0:0:0:
358,320,73032,1,0,0:0:0:0:
367,301,73147,2,0,P|366:283|356:237,1,41.2500015735627,0|0,3:0|0:0,0:0:0:0:
441,363,73378,2,0,P|446:345|453:299,1,41.2500015735627,0|0,0:0|0:0,0:0:0:0:
276,282,73609,1,8,0:0:0:0:
257,290,73724,1,0,0:0:0:0:
236,292,73840,1,0,0:0:0:0:
215,287,73955,1,0,0:0:0:0:
154,223,74070,6,0,P|158:162|169:87,1,123.750004720688,2|0,3:2|0:0,0:0:0:0:
184,89,74532,2,0,P|192:45|175:10,1,82.5000031471254,0|0,0:0|0:0,0:0:0:0:
71,33,74878,1,0,0:0:0:0:
54,45,74994,2,0,L|0:49,1,41.2500015735627,0|0,3:0|0:0,0:0:0:0:
35,155,75224,2,0,L|76:151,1,41.2500015735627,0|0,3:0|0:0,0:0:0:0:
251,142,75455,2,0,P|260:125|274:88,1,41.2500015735627,8|0,3:2|0:0,0:0:0:0:
282,11,75686,1,0,3:0:0:0:
300,20,75801,1,0,0:0:0:0:
351,97,75917,6,0,P|397:118|475:105,1,124.500001804733,4|0,3:2|0:0,0:0:0:0:
484,96,76378,2,0,L|462:195,1,83.0000012031555,8|0,0:0|0:0,0:0:0:0:
493,270,76725,1,0,0:0:0:0:
476,257,76840,1,0,3:0:0:0:
455,254,76955,1,0,0:0:0:0:
367,346,77185,1,0,0:0:0:0:
381,361,77301,2,0,L|365:265,1,83.0000012031555,8|0,0:0|0:0,0:0:0:0:
292,124,77763,6,0,P|235:132|258:205,1,124.500001804733,0|0,3:0|0:0,0:0:0:0:
245,203,78224,2,0,L|142:187,1,83.0000012031555,8|0,0:0|0:0,0:0:0:0:
78,139,78571,1,0,0:0:0:0:
82,159,78686,1,0,3:0:0:0:
86,179,78801,1,0,0:0:0:0:
130,347,79032,1,0,0:0:0:0:
147,356,79148,2,0,P|172:321|187:270,1,83.0000012031555,8|0,0:0|0:0,0:0:0:0:
242,155,79609,6,0,P|224:99|214:18,1,124.500001804733,0|0,3:0|0:0,0:0:0:0:
227,19,80070,2,0,L|331:32,1,83.0000012031555,8|0,0:0|0:0,0:0:0:0:
373,92,80417,1,0,0:0:0:0:
393,89,80532,1,0,3:0:0:0:
410,77,80648,1,0,0:0:0:0:
490,175,80878,1,0,0:0:0:0:
475,189,80994,2,0,L|367:174,1,83.0000012031555,8|0,0:0|0:0,0:0:0:0:
330,292,81455,6,0,P|239:274|174:263,1,124.500001804733,2|2,3:2|0:0,0:0:0:0:
197,285,81917,2,0,L|187:174,1,83.0000012031555,0|2,0:0|0:0,0:0:0:0:
283,161,82263,1,0,0:0:0:0:
278,181,82378,1,8,3:2:0:0:
273,201,82494,1,8,0:0:0:0:
156,357,82725,1,0,0:0:0:0:
171,371,82840,2,0,L|266:365,1,83.0000012031555,8|0,3:2|3:0,0:0:0:0:
409,286,83301,6,0,P|415:222|426:152,1,124.500001804733,4|0,3:2|0:0,0:0:0:0:
444,160,83763,2,0,L|351:132,1,83.0000012031555,8|0,0:0|0:0,0:0:0:0:
318,63,84109,1,0,0:0:0:0:
317,42,84225,1,0,3:0:0:0:
326,23,84340,1,0,0:0:0:0:
240,113,84571,1,0,0:0:0:0:
252,129,84686,2,0,L|162:140,1,83.0000012031555,8|0,0:0|0:0,0:0:0:0:
22,14,85148,6,0,P|79:16|116:81,1,124.500001804733,0|0,3:0|0:0,0:0:0:0:
102,82,85609,2,0,L|84:181,1,83.0000012031555,8|0,0:0|0:0,0:0:0:0:
117,239,85955,1,0,0:0:0:0:
133,251,86071,1,0,3:0:0:0:
153,252,86186,1,0,0:0:0:0:
306,237,86417,1,0,0:0:0:0:
303,216,86532,2,0,P|267:204|213:201,1,83.0000012031555,8|0,0:0|0:0,0:0:0:0:
52,366,86994,6,0,P|34:306|27:223,1,124.500001804733,0|0,3:0|0:0,0:0:0:0:
41,234,87455,2,0,L|132:259,1,83.0000012031555,8|0,0:0|0:0,0:0:0:0:
175,326,87801,1,0,0:0:0:0:
248,278,87917,1,2,3:2:0:0:
264,290,88032,2,0,L|260:198,1,83.0000012031555,0|2,0:0|3:2,0:0:0:0:
271,190,88378,1,8,3:2:0:0:
385,310,88609,1,2,3:2:0:0:
512,221,88840,6,0,P|449:209|378:209,1,124.500001804733,2|0,3:2|0:0,0:0:0:0:
377,223,89301,2,0,L|356:134,1,83.0000012031555,10|0,0:0|0:0,0:0:0:0:
381,46,89648,1,0,0:0:0:0:
396,32,89763,2,0,L|452:37,1,41.5000006015778,8|8,3:2|0:0,0:0:0:0:
488,122,89994,2,0,L|436:128,1,41.5000006015778,0|0,3:0|0:0,0:0:0:0:
268,148,90225,5,8,3:2:0:0:
254,132,90340,1,0,3:0:0:0:
226,59,90455,1,0,3:0:0:0:
280,2,90571,1,0,3:0:0:0:
339,53,90686,6,0,L|162:29,1,166.000002406311,4|8,3:2|0:0,0:0:0:0:
96,181,91378,1,0,0:0:0:0:
21,90,91609,1,0,3:0:0:0:
30,108,91724,2,0,L|146:83,1,83.0000012031555,0|0,0:0|0:0,0:0:0:0:
128,100,92071,1,8,0:0:0:0:
151,250,92301,1,0,0:0:0:0:
306,172,92532,5,2,3:2:0:0:
290,185,92647,2,0,L|179:160,1,83.0000012031555,0|0,0:0|0:0,0:0:0:0:
188,171,92994,1,10,0:0:0:0:
73,357,93225,1,0,0:0:0:0:
91,367,93340,1,0,0:0:0:0:
108,377,93455,6,0,L|196:364,1,83.0000012031555,2|0,3:2|0:0,0:0:0:0:
267,315,93801,1,0,0:0:0:0:
284,325,93917,2,0,L|273:372,1,41.5000006015778,8|0,0:0|0:0,0:0:0:0:
145,287,94147,2,0,L|137:243,1,41.5000006015778,0|0,0:0|0:0,0:0:0:0:
246,82,94378,6,0,P|240:158|222:257,1,166.000002406311,4|8,3:2|0:0,0:0:0:0:
372,340,95071,1,0,0:0:0:0:
482,274,95301,1,0,3:0:0:0:
467,259,95417,2,0,L|380:238,1,83.0000012031555,0|0,0:0|0:0,0:0:0:0:
367,244,95763,1,8,0:0:0:0:
257,329,95994,1,0,0:0:0:0:
339,157,96225,5,2,3:2:0:0:
353,141,96340,2,0,L|439:119,1,83.0000012031555,0|0,0:0|0:0,0:0:0:0:
451,130,96686,1,10,0:0:0:0:
303,58,96917,1,0,0:0:0:0:
402,4,97147,2,0,L|391:60,1,41.5000006015778,8|8,3:2|0:0,0:0:0:0:
209,71,97378,2,0,L|199:26,1,41.5000006015778,0|0,3:0|0:0,0:0:0:0:
303,58,97609,1,8,3:2:0:0:
299,78,97725,1,0,3:0:0:0:
281,157,97840,1,0,3:0:0:0:
261,237,97955,1,0,3:0:0:0:
238,318,98071,6,0,P|323:305|412:294,1,166.000002406311,4|8,3:2|0:0,0:0:0:0:
475,146,98763,1,0,0:0:0:0:
364,216,98994,1,0,3:0:0:0:
352,198,99109,2,0,L|367:106,1,83.0000012031555,0|0,0:0|0:0,0:0:0:0:
379,101,99455,1,8,0:0:0:0:
483,243,99686,1,0,0:0:0:0:
471,8,99917,6,0,P|396:8|334:27,1,124.500001804733,0|0,3:0|0:0,0:0:0:0:
333,32,100378,2,0,P|299:50|247:57,1,83.0000012031555,8|0,0:0|0:0,0:0:0:0:
120,16,100840,1,0,3:0:0:0:
136,28,100955,2,0,P|150:63|161:121,1,83.0000012031555
154,126,101301,1,8,0:0:0:0:
199,334,101532,1,0,0:0:0:0:
94,222,101763,6,0,P|144:207|220:245,1,124.500001804733,4|0,3:2|0:0,0:0:0:0:
206,251,102225,2,0,P|215:210|232:167,1,83.0000012031555,8|0,0:0|0:0,0:0:0:0:
408,213,102686,1,0,3:0:0:0:
395,229,102801,2,0,P|351:222|299:210,1,83.0000012031555,0|0,0:0|0:0,0:0:0:0:
312,193,103148,1,8,0:0:0:0:
368,63,103378,1,0,0:0:0:0:
220,129,103609,6,0,P|228:201|230:305,1,166.000002406311,0|8,3:0|0:0,0:0:0:0:
407,353,104301,1,0,0:0:0:0:
424,364,104417,1,0,0:0:0:0:
442,373,104532,2,0,P|449:348|458:312,1,41.5000006015778,8|8,3:2|0:0,0:0:0:0:
313,340,104763,2,0,P|317:360|326:381,1,41.5000006015778,0|0,3:0|0:0,0:0:0:0:
390,259,104994,1,8,3:2:0:0:
396,239,105109,1,0,3:0:0:0:
382,157,105225,1,0,3:0:0:0:
317,108,105340,1,0,3:0:0:0:
239,126,105455,5,8,0:1:0:0:
244,141,105801,5,8,0:1:0:0:
249,155,106147,5,8,0:1:0:0:
305,255,106378,6,0,L|241:241,1,41.5000006015778,8|0,0:1|0:0,0:0:0:0:
157,323,106609,2,0,L|97:312,1,41.5000006015778,8|0,0:1|0:0,0:0:0:0:
55,162,106840,1,8,0:1:0:0:
87,91,106955,1,8,0:1:0:0:
165,89,107071,1,8,0:1:0:0:
218,147,107186,1,8,0:1:0:0:
161,237,107301,6,0,P|168:154|185:59,1,165,4|0,3:3|0:0,0:0:0:0:
200,61,107763,2,0,P|250:77|310:88,1,110,8|0,1:2|0:0,0:0:0:0:
446,51,108109,1,2,0:0:0:0:
437,30,108225,2,0,L|369:33,1,55,8|0,0:1|0:0,0:0:0:0:
354,166,108455,1,0,0:1:0:0:
354,166,108686,2,0,L|371:240,1,55,10|0,1:2|0:0,0:0:0:0:
508,205,108917,2,0,L|491:279,1,55,2|0,0:0|0:0,0:0:0:0:
400,381,109148,6,0,P|374:306|301:323,1,165,2|0,3:2|0:0,0:0:0:0:
297,341,109609,2,0,L|182:327,1,110,8|0,1:2|0:0,0:0:0:0:
73,191,110070,1,0,3:2:0:0:
83,210,110186,2,0,L|101:102,1,110,2|0,0:0|0:0,0:0:0:0:
91,81,110532,1,10,1:2:0:0:
188,225,110763,1,0,0:0:0:0:
340,94,110994,6,0,L|167:138,1,165,6|0,3:2|0:2,0:0:0:0:
199,145,111455,2,0,L|212:67,1,55,8|0,1:2|0:0,0:0:0:0:
353,112,111686,2,0,L|362:166,1,55,0|2,0:0|0:0,0:0:0:0:
409,267,111917,1,8,0:1:0:0:
398,286,112032,2,0,L|324:260,1,55,0|2,0:0|0:0,0:0:0:0:
272,316,112263,1,0,0:0:0:0:
281,335,112378,1,10,1:2:0:0:
277,197,112609,1,2,0:0:0:0:
169,362,112840,6,0,P|177:276|184:170,1,165,2|0,3:2|0:0,0:0:0:0:
166,181,113301,1,8,1:2:0:0:
259,79,113532,1,0,0:0:0:0:
143,30,113763,2,0,L|209:15,1,55,8|8,3:2|0:0,0:0:0:0:
386,45,113994,2,0,L|320:30,1,55,0|0,3:0|0:0,0:0:0:0:
256,93,114224,1,8,1:2:0:0:
262,114,114340,1,0,3:0:0:0:
335,163,114455,1,0,3:0:0:0:
329,184,114571,1,0,3:0:0:0:
265,253,114686,6,0,P|347:228|441:208,1,165,4|0,3:3|0:0,0:0:0:0:
438,194,115147,2,0,L|418:314,1,110,8|0,1:2|0:0,0:0:0:0:
360,384,115494,1,2,0:0:0:0:
344,368,115609,2,0,L|332:306,1,55,8|0,0:1|0:0,0:0:0:0:
224,384,115840,1,0,0:1:0:0:
224,384,116070,2,0,L|236:322,1,55,10|0,1:2|0:0,0:0:0:0:
116,312,116301,2,0,L|126:365,1,55,2|0,0:0|0:0,0:0:0:0:
260,217,116532,6,0,P|180:206|93:186,1,165,2|0,3:2|0:0,0:0:0:0:
82,171,116994,1,8,1:2:0:0:
186,33,117224,1,0,0:0:0:0:
284,124,117455,1,8,0:1:0:0:
264,134,117570,2,0,P|208:125|141:111,1,110,2|0,0:0|0:1,0:0:0:0:
136,102,117917,1,10,1:2:0:0:
178,272,118148,1,2,0:0:0:0:
342,213,118378,6,0,P|355:162|367:88,1,110,6|0,3:2|0:0,0:0:0:0:
314,38,118724,1,0,0:0:0:0:
379,118,118840,2,0,L|459:107,1,55,8|0,1:2|0:0,0:0:0:0:
478,14,119070,2,0,L|423:21,1,55,0|0,0:0|0:0,0:0:0:0:
260,109,119301,1,8,0:1:0:0:
239,100,119417,2,0,L|217:25,1,55,2|0,0:0|0:0,0:0:0:0:
111,7,119647,1,8,0:1:0:0:
107,28,119763,1,10,1:2:0:0:
131,220,119994,1,2,3:2:0:0:
21,117,120225,6,0,P|69:120|136:136,1,110,2|0,3:2|0:0,0:0:0:0:
188,284,120570,1,2,3:2:0:0:
266,240,120686,2,0,L|251:182,1,55,10|0,1:2|0:0,0:0:0:0:
207,68,120917,1,2,3:2:0:0:
220,85,121032,1,0,0:0:0:0:
303,116,121148,6,0,L|360:104,1,55,6|8,3:2|0:0,0:0:0:0:
512,45,121378,1,2,3:2:0:0:
499,121,121494,1,0,0:0:0:0:
482,196,121609,1,14,3:2:0:0:
387,331,121840,1,2,3:2:0:0:
379,311,121955,1,0,0:0:0:0:
301,270,122071,6,0,L|500:292,1,165,4|0,3:2|0:0,0:0:0:0:
479,304,122532,1,8,1:2:0:0:
387,193,122763,1,0,0:0:0:0:
222,328,122994,1,8,0:1:0:0:
207,310,123109,2,0,P|212:254|226:189,1,110,2|0,0:0|0:0,0:0:0:0:
240,188,123455,1,10,1:2:0:0:
127,248,123686,1,2,0:0:0:0:
108,259,123801,1,0,0:0:0:0:
74,342,123917,6,0,P|69:286|43:173,1,165,2|0,3:2|0:0,0:0:0:0:
24,172,124378,2,0,P|82:163|150:148,1,110,8|0,1:2|0:0,0:0:0:0:
290,101,124840,1,8,0:1:0:0:
275,85,124955,2,0,P|221:73|166:65,1,110,2|0,0:0|0:0,0:0:0:0:
144,68,125301,1,10,1:2:0:0:
308,206,125532,1,2,0:0:0:0:
213,161,125763,6,0,P|221:214|228:279,1,110,6|0,3:2|0:0,0:0:0:0:
316,366,126109,1,0,0:0:0:0:
398,301,126224,2,0,L|318:283,1,55,8|0,1:2|0:0,0:0:0:0:
226,358,126455,2,0,L|172:370,1,55,0|0,0:0|0:0,0:0:0:0:
25,333,126686,1,0,3:2:0:0:
28,311,126801,2,0,P|69:282|141:278,1,110,2|0,0:0|0:0,0:0:0:0:
144,288,127147,1,10,1:2:0:0:
10,129,127378,1,0,0:0:0:0:
30,128,127494,1,0,0:0:0:0:
57,214,127609,6,0,P|70:135|82:34,1,165,2|0,3:2|0:0,0:0:0:0:
67,33,128070,1,8,1:2:0:0:
157,157,128301,1,0,0:0:0:0:
271,98,128532,2,0,L|202:88,1,55,8|8,3:2|0:0,0:0:0:0:
157,7,128763,2,0,L|226:-3,1,55,0|0,3:2|0:0,0:0:0:0:
362,79,128994,1,10,3:2:0:0:
377,94,129109,1,0,3:2:0:0:
470,93,129224,1,2,3:2:0:0:
485,78,129339,1,0,3:2:0:0:
413,13,129455,6,0,P|423:95|437:177,1,165,4|0,3:3|0:0,0:0:0:0:
455,189,129917,1,8,1:2:0:0:
401,363,130147,1,0,0:0:0:0:
328,271,130378,1,2,3:2:0:0:
345,284,130494,2,0,L|487:275,1,110,0|2,0:0|0:0,0:0:0:0:
473,288,130840,1,8,1:2:0:0:
374,196,131070,1,2,0:0:0:0:
293,361,131301,6,0,P|286:278|276:196,1,165,4|0,3:2|0:0,0:0:0:0:
263,179,131763,1,8,1:2:0:0:
348,45,131994,1,0,0:0:0:0:
342,66,132109,1,0,0:0:0:0:
336,87,132224,2,0,P|306:96|275:96,1,55,2|0,3:2|0:0,0:0:0:0:
190,80,132455,2,0,P|159:72|132:57,1,55,2|0,0:0|0:0,0:0:0:0:
276,250,132686,2,0,P|244:246|216:234,1,55,10|0,1:2|0:0,0:0:0:0:
144,186,132917,2,0,P|118:167|100:142,1,55,2|0,0:0|0:0,0:0:0:0:
2,15,133148,6,0,P|10:66|18:140,1,110,4|0,3:2|0:0,0:0:0:0:
22,299,133494,1,0,0:0:0:0:
62,224,133609,2,0,L|-2:210,1,55,8|0,1:2|0:0,0:0:0:0:
6,384,133840,2,0,L|70:370,1,55,0|0,0:0|0:0,0:0:0:0:
149,326,134070,1,8,0:1:0:0:
167,337,134186,2,0,P|175:312|180:269,1,55,2|0,0:0|0:0,0:0:0:0:
272,330,134417,1,8,0:1:0:0:
293,330,134533,2,0,P|287:304|270:264,1,55,10|0,1:2|0:0,0:0:0:0:
402,266,134763,2,0,P|384:246|349:220,1,55,2|0,0:0|0:0,0:0:0:0:
190,197,134994,6,0,P|252:195|311:150,1,110,2|0,3:2|0:0,0:0:0:0:
343,18,135340,1,0,0:0:0:0:
385,96,135455,2,0,L|368:170,1,55,8|0,1:2|0:0,0:0:0:0:
221,115,135686,2,0,L|208:61,1,55
6,193,135916,5,2,3:2:0:0:
1,219,136031,1,0,0:0:0:0:
66,299,136147,5,2,3:2:0:0:
92,302,136263,1,0,0:0:0:0:
166,233,136377,5,10,1:2:0:0:
169,206,136494,1,0,3:2:0:0:
105,126,136609,5,2,3:2:0:0:
79,122,136724,1,0,3:2:0:0:
87,211,136840,6,0,P|175:230|257:210,1,150,4|0,3:3|0:0,0:0:0:0:
273,206,137302,1,8,0:0:0:0:
389,38,137532,1,0,0:0:0:0:
233,96,137763,1,0,3:0:0:0:
193,88,137878,1,0,0:0:0:0:
233,96,138109,1,0,0:0:0:0:
193,88,138225,2,0,L|81:112,1,100,10|0,0:0|0:0,0:0:0:0:
381,42,138686,6,0,L|421:194,1,150,2|0,3:2|0:0,0:0:0:0:
426,226,139148,1,8,0:0:0:0:
214,254,139379,1,0,0:0:0:0:
303,67,139609,1,2,3:2:0:0:
284,113,139724,1,0,0:0:0:0:
303,67,139956,1,2,0:0:0:0:
284,113,140071,2,0,L|261:171,1,50,8|0,0:0|0:0,0:0:0:0:
198,301,140302,2,0,L|180:242,1,50,2|0,0:0|0:0,0:0:0:0:
258,238,140532,6,0,L|404:208,1,150,6|0,3:2|0:0,0:0:0:0:
497,172,140994,2,0,L|466:267,1,100,8|0,0:0|0:0,0:0:0:0:
306,349,141456,1,2,3:2:0:0:
272,267,141571,2,0,P|289:219|314:176,1,100,0|0,0:0|0:0,0:0:0:0:
216,335,141917,2,0,L|111:312,1,100,8|0,0:0|0:0,0:0:0:0:
40,116,142379,6,0,L|56:241,1,100,2|0,3:2|0:0,0:0:0:0:
137,123,142725,2,0,L|153:248,1,100,2|0,0:0|0:0,0:0:0:0:
234,130,143071,1,2,0:0:0:0:
246,229,143302,6,0,L|234:130,1,100,2|0,3:2|3:0,0:0:0:0:
340,233,143648,2,0,L|328:134,1,100,2|0,3:2|3:0,0:0:0:0:
419,136,143994,2,0,L|425:187,1,50,2|0,3:2|3:2,0:0:0:0:
436,316,144225,6,0,P|369:317|289:349,1,150,4|0,3:3|0:0,0:0:0:0:
111,204,144686,1,8,0:0:0:0:
205,351,144917,1,0,0:0:0:0:
86,296,145148,1,0,3:0:0:0:
122,289,145263,2,0,L|226:266,1,100
112,213,145609,2,0,L|131:127,1,50,10|0,0:0|0:0,0:0:0:0:
54,41,145840,2,0,L|66:119,1,50,0|0,0:0|0:0,0:0:0:0:
143,85,146071,6,0,L|323:67,1,150,2|0,3:2|0:0,0:0:0:0:
240,114,146532,2,0,L|201:252,1,100,8|0,0:0|0:0,0:0:0:0:
60,294,146994,2,0,L|119:284,1,50,2|0,3:2|0:0,0:0:0:0:
193,125,147340,1,2,0:0:0:0:
60,294,147456,2,0,L|119:284,1,50,8|0,0:0|0:0,0:0:0:0:
192,268,147686,2,0,L|251:258,1,50,2|0,0:0|0:0,0:0:0:0:
469,326,147917,6,0,P|397:284|320:300,1,150,6|0,3:2|0:0,0:0:0:0:
298,311,148379,1,8,0:0:0:0:
281,74,148609,1,0,0:0:0:0:
305,203,148840,1,2,3:2:0:0:
376,172,148956,2,0,L|430:147,1,50
368,251,149186,1,2,3:2:0:0:
439,289,149302,2,0,L|449:337,1,50,8|0,3:2|0:0,0:0:0:0:
305,328,149532,2,0,L|294:279,1,50,2|0,3:2|0:0,0:0:0:0:
222,101,149763,6,0,P|205:179|229:261,2,150,2|8|8,3:2|0:0|0:0,0:0:0:0:
299,35,150686,2,0,L|144:48,1,150,10|0,3:2|0:0,0:0:0:0:
78,91,151148,1,10,3:2:0:0:
65,129,151264,1,0,3:0:0:0:
116,193,151379,1,10,3:2:0:0:
103,231,151495,1,0,3:2:0:0:
216,290,151609,6,0,L|68:317,1,150,4|2,3:3|0:0,0:0:0:0:
30,324,152071,1,8,0:0:0:0:
190,219,152302,1,2,0:0:0:0:
52,107,152532,1,2,3:2:0:0:
58,146,152648,1,0,0:0:0:0:
177,79,152879,1,0,0:0:0:0:
172,39,152994,2,0,L|280:28,1,100,8|2,0:0|0:0,0:0:0:0:
308,97,153340,1,2,0:0:0:0:
239,140,153456,6,0,P|229:228|232:281,1,100,2|0,3:2|0:0,0:0:0:0:
234,272,153802,1,2,0:0:0:0:
346,159,153917,2,0,P|318:216|307:257,1,100,10|2,0:0|0:0,0:0:0:0:
327,366,154379,1,2,3:2:0:0:
372,302,154494,2,0,L|469:322,1,100
308,250,154840,2,0,P|355:215|366:194,1,50,8|0,0:0|0:0,0:0:0:0:
398,167,155071,2,0,P|417:140|425:107,1,50,0|0,0:0|0:0,0:0:0:0:
306,26,155302,6,0,L|293:188,1,150,6|0,3:2|0:0,0:0:0:0:
233,223,155763,2,0,L|136:246,1,100,10|2,0:0|0:0,0:0:0:0:
164,29,156225,1,2,3:2:0:0:
221,91,156340,1,0,0:0:0:0:
218,115,156455,1,0,0:0:0:0:
216,140,156570,1,0,0:0:0:0:
163,28,156686,2,0,L|66:51,1,100,8|2,0:0|0:0,0:0:0:0:
21,113,157032,1,2,0:0:0:0:
44,188,157148,6,0,P|56:275|44:341,2,150,2|8|8,3:2|0:0|0:0,0:0:0:0:
97,107,158071,1,10,3:2:0:0:
129,100,158186,1,0,0:0:0:0:
162,93,158302,1,0,0:0:0:0:
194,86,158417,1,0,0:0:0:0:
262,112,158532,2,0,P|271:150|269:181,1,50,10|0,3:2|0:0,0:0:0:0:
312,60,158763,2,0,L|354:21,1,50,10|0,3:2|0:0,0:0:0:0:
490,212,158994,6,0,P|419:204|346:232,1,150,4|0,0:3|0:0,0:0:0:0:
355,331,159456,2,0,L|346:230,1,100,8|0,0:0|0:0,0:0:0:0:
413,107,159917,6,0,P|335:98|252:135,1,165.000005035401,2|0,3:2|0:0,0:0:0:0:
261,259,160379,2,0,L|256:196,1,55.0000016784668,8|0,0:0|0:0,0:0:0:0:
252,149,160609,2,0,L|248:86,1,55.0000016784668,8|0,0:0|0:0,0:0:0:0:
24,54,160840,6,0,P|116:71|184:48,1,165.000005035401,6|0,3:2|0:0,0:0:0:0:
182,49,161302,2,0,L|152:202,1,110.000003356934,8|0,0:0|0:0,0:0:0:0:
8,178,161763,6,0,P|109:196|184:171,1,165.000005035401,2|0,3:2|0:0,0:0:0:0:
183,173,162225,2,0,L|166:246,1,55.0000016784668,8|0,0:0|0:0,0:0:0:0:
162,281,162456,2,0,L|149:341,1,55.0000016784668,8|0,0:0|0:0,0:0:0:0:
265,248,162686,6,0,P|332:260|430:238,1,165.000005035401,6|0,3:2|0:0,0:0:0:0:
465,221,163148,1,8,0:0:0:0:
242,140,163379,1,0,0:0:0:0:
283,338,163609,1,0,3:0:0:0:
223,280,163725,2,0,L|214:226,1,55.0000016784668,2|0,0:0|0:0,0:0:0:0:
203,361,163956,1,2,3:2:0:0:
124,333,164071,2,0,L|105:225,1,110.000003356934,10|0,3:2|3:0,0:0:0:0:
31,154,164532,6,0,P|112:148|182:191,2,165.000005035401,2|0|0,3:2|0:0|0:0,0:0:0:0:
324,43,165456,2,8,P|242:37|173:79,2,165.000005035401,2|0|0,3:2|0:0|3:0,0:0:0:0:
255,194,166379,5,6,3:2:0:0:
376,330,166609,1,0,0:0:0:0:
444,274,166840,1,8,0:0:0:0:
429,187,167071,1,0,0:0:0:0:
423,157,167186,1,0,0:0:0:0:
418,127,167301,1,0,3:0:0:0:
412,97,167417,1,0,0:0:0:0:
286,30,167648,1,0,0:0:0:0:
250,29,167763,1,8,0:0:0:0:
332,94,167994,1,0,0:0:0:0:
258,194,168225,5,2,3:2:0:0:
185,339,168456,1,0,0:0:0:0:
269,361,168686,1,8,0:0:0:0:
352,333,168917,1,0,0:0:0:0:
349,303,169032,1,0,0:0:0:0:
346,273,169147,1,0,3:0:0:0:
343,243,169263,1,0,0:0:0:0:
439,180,169494,1,0,0:0:0:0:
474,183,169609,1,8,0:0:0:0:
426,255,169840,1,0,0:0:0:0:
256,192,170071,5,2,3:2:0:0:
328,77,170302,1,0,0:0:0:0:
247,43,170532,1,8,0:0:0:0:
164,72,170763,1,0,0:0:0:0:
153,100,170878,1,0,0:0:0:0:
150,130,170993,1,0,3:0:0:0:
155,159,171109,2,0,L|185:268,1,82.5000007867813,0|0,0:0|0:0,0:0:0:0:
251,242,171456,2,0,L|296:274,1,41.2500003933907,8|0,0:0|0:0,0:0:0:0:
339,216,171686,1,0,0:0:0:0:
482,138,171917,6,0,L|377:128,1,82.5000007867813,2|0,3:2|0:0,0:0:0:0:
365,47,172263,2,0,L|475:57,1,82.5000007867813,2|0,0:0|0:0,0:0:0:0:
482,138,172609,2,0,L|497:181,1,41.2500003933907,2|0,0:0|0:0,0:0:0:0:
492,277,172840,5,0,3:0:0:0:
257,192,173301,1,8,0:0:0:0:
257,192,173763,5,2,3:2:0:0:
127,89,173994,1,0,0:0:0:0:
127,89,174224,1,8,0:0:0:0:
257,192,174456,1,0,0:0:0:0:
268,220,174571,1,0,0:0:0:0:
202,243,174686,1,0,3:0:0:0:
213,271,174801,1,0,0:0:0:0:
317,148,175032,1,0,0:0:0:0:
328,176,175147,1,8,0:0:0:0:
202,243,175379,1,0,0:0:0:0:
257,192,175609,5,2,3:2:0:0:
433,230,175840,1,0,0:0:0:0:
433,230,176070,1,8,0:0:0:0:
257,192,176302,1,0,0:0:0:0:
217,211,176417,1,0,0:0:0:0:
270,263,176532,1,0,3:0:0:0:
230,282,176647,1,0,0:0:0:0:
242,121,176879,1,0,0:0:0:0:
202,140,176994,1,8,0:0:0:0:
270,263,177225,1,0,0:0:0:0:
255,192,177456,6,0,L|229:46,1,123.750001180172,2|0,3:2|0:0,0:0:0:0:
331,22,177918,2,0,L|316:104,1,82.5000007867813,8|0,0:0|0:0,0:0:0:0:
338,178,178264,1,0,0:0:0:0:
364,167,178379,2,0,L|459:124,1,82.5000007867813,0|0,3:0|0:0,0:0:0:0:
425,236,178725,2,0,L|509:254,1,82.5000007867813,0|0,0:0|0:0,0:0:0:0:
400,316,179071,2,0,L|428:349,1,41.2500003933907,0|0,0:0|0:0,0:0:0:0:
326,268,179301,6,0,L|215:250,1,82.5000007867813,2|0,3:2|0:0,0:0:0:0:
211,250,179648,1,0,0:0:0:0:
279,154,179763,2,0,L|194:177,1,82.5000007867813,0|0,0:0|0:0,0:0:0:0:
167,184,180110,1,0,0:0:0:0:
235,84,180225,2,0,L|179:76,1,41.2500003933907,0|0,3:0|0:0,0:0:0:0:
120,66,180455,2,0,L|64:58,1,41.2500003933907,0|0,3:0|0:0,0:0:0:0:
45,129,180686,5,8,3:2:0:0:
29,167,180802,1,0,0:0:0:0:
30,243,180917,5,0,3:0:0:0:
46,281,181032,1,0,0:0:0:0:
145,206,181148,6,0,L|266:191,1,110.000003356934,4|0,3:2|0:0,0:0:0:0:
274,172,181494,1,0,0:0:0:0:
323,233,181609,2,0,P|342:281|328:341,1,110.000003356934,8|0,0:0|0:0,0:0:0:0:
207,318,181955,1,0,0:0:0:0:
225,302,182071,1,0,3:0:0:0:
250,292,182186,1,0,0:0:0:0:
419,258,182417,1,0,0:0:0:0:
440,274,182532,1,8,0:0:0:0:
477,99,182763,1,0,0:0:0:0:
367,206,182994,6,0,L|257:192,1,110.000003356934,0|0,3:0|0:0,0:0:0:0:
237,173,183340,1,0,0:0:0:0:
278,107,183456,2,0,P|294:51|279:3,1,110.000003356934,8|0,0:0|0:0,0:0:0:0:
148,102,183801,1,0,0:0:0:0:
174,106,183917,1,0,3:0:0:0:
201,104,184032,1,0,0:0:0:0:
401,58,184263,1,0,0:0:0:0:
411,32,184378,1,8,0:0:0:0:
351,234,184609,1,0,0:0:0:0:
145,206,184840,6,0,L|266:191,1,110.000003356934,0|0,3:0|0:0,0:0:0:0:
277,206,185186,1,0,0:0:0:0:
293,227,185301,1,8,0:0:0:0:
78,260,185532,1,0,0:0:0:0:
67,232,185647,1,0,0:0:0:0:
64,202,185762,1,0,3:0:0:0:
69,173,185878,2,0,L|100:63,1,110.000003356934
164,130,186225,2,0,L|218:119,1,55.0000016784668,8|0,0:0|0:0,0:0:0:0:
351,82,186455,1,0,0:0:0:0:
367,203,186686,6,0,L|249:191,1,110.000003356934,2|0,3:2|0:0,0:0:0:0:
112,318,187032,2,0,L|234:331,1,110.000003356934,2|0,0:0|0:0,0:0:0:0:
367,203,187379,2,0,L|307:198,1,55.0000016784668,2|0,0:0|0:0,0:0:0:0:
137,214,187609,5,8,3:2:0:0:
276,271,187725,1,8,0:0:0:0:
276,271,187955,1,0,0:0:0:0:
137,214,188070,1,8,3:2:0:0:
137,214,188532,6,0,L|258:199,1,110.000003356934,4|0,3:2|0:0,0:0:0:0:
263,180,188879,1,0,0:0:0:0:
278,157,188994,1,8,0:0:0:0:
386,22,189225,1,0,0:0:0:0:
412,30,189340,1,0,0:0:0:0:
363,105,189455,1,0,3:0:0:0:
389,113,189571,2,0,L|507:86,1,110.000003356934,0|0,0:0|0:0,0:0:0:0:
470,183,189917,2,0,P|464:239|476:299,1,110.000003356934,8|0,0:0|0:0,0:0:0:0:
367,203,190379,6,0,L|249:191,1,110.000003356934,0|0,3:0|0:0,0:0:0:0:
242,214,190725,1,0,0:0:0:0:
226,236,190839,1,8,0:0:0:0:
53,339,191071,1,0,0:0:0:0:
65,314,191186,1,0,0:0:0:0:
156,300,191301,1,0,3:0:0:0:
148,273,191417,2,0,L|119:161,1,110.000003356934,0|0,0:0|0:0,0:0:0:0:
76,128,191763,2,0,P|148:144|211:131,1,110.000003356934,8|0,0:0|0:0,0:0:0:0:
483,208,192225,6,0,L|299:156,1,165.000005035401,0|0,3:0|0:0,0:0:0:0:
220,133,192687,2,0,P|252:187|248:278,1,110.000003356934,8|0,0:0|0:0,0:0:0:0:
245,317,193033,1,0,0:0:0:0:
221,330,193148,2,0,L|89:313,1,110.000003356934,2|0,3:2|0:0,0:0:0:0:
167,246,193494,2,0,P|131:205|113:132,1,110.000003356934,2|0,0:0|0:0,0:0:0:0:
219,186,193840,2,0,L|212:122,1,55.0000016784668,2|0,0:2|0:0,0:0:0:0:
350,272,194071,6,0,L|230:258,1,110.000003356934,2|0,3:2|0:0,0:0:0:0:
217,240,194417,1,0,0:0:0:0:
297,190,194532,2,0,P|313:124|362:74,1,110.000003356934,10|0,0:0|0:0,0:0:0:0:
363,78,194879,1,0,0:0:0:0:
388,68,194994,5,8,3:2:0:0:
467,152,195109,1,8,0:0:0:0:
372,194,195225,5,0,3:0:0:0:
428,261,195340,1,0,0:0:0:0:
350,310,195456,5,8,3:2:0:0:
328,326,195571,1,0,3:0:0:0:
279,336,195686,1,0,3:0:0:0:
206,324,195802,1,0,3:0:0:0:
108,292,195917,6,0,L|91:212,1,55.0000016784668,4|0,3:2|0:0,0:0:0:0:
41,93,196148,2,0,L|129:137,1,55.0000016784668,0|0,0:0|0:0,0:0:0:0:
182,212,196379,2,0,L|165:132,1,55.0000016784668,8|0,0:0|0:0,0:0:0:0:
157,46,196609,2,0,L|245:90,1,55.0000016784668
297,173,196840,1,0,3:0:0:0:
290,148,196955,2,0,L|275:87,1,55.0000016784668
292,20,197186,2,0,L|399:52,1,110.000003356934,0|0,3:0|0:0,0:0:0:0:
423,59,197532,2,0,L|431:136,1,55.0000016784668,0|0,3:0|0:0,0:0:0:0:
477,280,197763,6,0,L|500:170,1,110.000003356934,2|0,3:2|0:0,0:0:0:0:
401,310,198109,1,0,0:0:0:0:
391,283,198225,2,0,P|375:201|397:141,1,110.000003356934,10|0,0:0|0:0,0:0:0:0:
345,367,198571,1,0,0:0:0:0:
321,353,198686,2,0,P|261:295|243:238,1,110.000003356934,2|0,3:2|0:0,0:0:0:0:
245,93,199148,6,0,L|260:1,1,55.0000016784668,8|0,0:0|0:0,0:0:0:0:
267,83,199379,2,0,L|280:3,1,55.0000016784668
404,292,199609,6,0,L|421:212,1,55.0000016784668,4|0,3:2|0:0,0:0:0:0:
471,93,199840,2,0,L|383:137,1,55.0000016784668
330,212,200071,2,0,L|347:132,1,55.0000016784668,8|0,0:0|0:0,0:0:0:0:
355,46,200301,2,0,L|267:90,1,55.0000016784668,0|0,0:0|0:0,0:0:0:0:
215,173,200532,1,0,3:0:0:0:
223,146,200648,2,0,L|242:71,1,55.0000016784668
220,20,200878,2,0,L|113:52,1,110.000003356934,0|0,3:0|0:0,0:0:0:0:
89,59,201224,2,0,L|81:136,1,55.0000016784668,0|0,3:0|0:0,0:0:0:0:
55,284,201456,6,0,L|32:174,1,110.000003356934,2|0,3:2|0:0,0:0:0:0:
131,314,201802,1,0,0:0:0:0:
141,287,201917,2,0,P|157:205|135:145,1,110.000003356934,10|0,0:0|0:0,0:0:0:0:
187,371,202264,1,0,0:0:0:0:
210,356,202379,5,8,3:2:0:0:
327,317,202494,1,8,0:0:0:0:
199,260,202609,5,0,3:0:0:0:
278,206,202724,1,0,0:0:0:0:
185,160,202840,5,8,3:2:0:0:
163,142,202956,1,0,3:0:0:0:
144,85,203071,1,0,3:0:0:0:
178,22,203187,1,0,3:0:0:0:
261,37,203302,6,0,L|369:21,1,110.000003356934,4|0,3:2|0:0,0:0:0:0:
456,49,203648,1,0,0:0:0:0:
451,76,203763,2,0,L|468:273,1,165.000005035401,8|0,0:0|0:0,0:0:0:0:
416,330,204225,1,0,3:0:0:0:
408,303,204340,2,0,L|273:280,1,110.000003356934,0|0,0:0|0:0,0:0:0:0:
134,252,204686,2,0,P|227:245|260:220,1,110.000003356934,8|0,0:0|0:0,0:0:0:0:
259,218,205032,1,0,0:0:0:0:
324,121,205148,6,0,P|375:104|446:99,1,110.000003356934,0|0,3:0|0:0,0:0:0:0:
325,192,205494,1,0,0:0:0:0:
350,202,205609,2,0,P|398:226|451:272,1,110.000003356934,8|0,0:0|0:0,0:0:0:0:
278,245,205956,1,0,0:0:0:0:
288,269,206071,2,0,P|305:320|310:391,1,110.000003356934,0|0,3:0|0:0,0:0:0:0:
207,262,206417,1,0,0:0:0:0:
205,289,206532,2,0,P|198:322|186:340,1,55.0000016784668,8|0,0:0|0:0,0:0:0:0:
129,295,206763,2,0,P|106:310|80:317,1,55.0000016784668,0|0,0:0|0:0,0:0:0:0:
76,240,206994,6,0,L|57:67,1,165.000005035401,4|0,3:2|0:0,0:0:0:0:
15,53,207455,2,0,P|69:51|140:26,1,110.000003356934,8|0,0:0|0:0,0:0:0:0:
226,8,207917,1,0,3:0:0:0:
218,40,208032,2,0,L|193:163,1,110.000003356934,0|0,0:0|3:0,0:0:0:0:
188,180,208378,1,8,3:2:0:0:
38,254,208609,1,0,3:0:0:0:
258,297,208840,6,0,P|349:307|396:196,1,220.000006713867,0|8,3:2|0:0,0:0:0:0:
276,215,209532,2,0,P|309:202|312:146,1,55.0000016784668,0|0,0:0|0:0,0:0:0:0:
245,122,209763,1,8,3:2:0:0:
261,144,209878,1,8,0:0:0:0:
370,249,209994,2,0,L|472:237,1,55.0000016784668,0|0,3:0|0:0,0:0:0:0:
436,227,210225,1,8,3:2:0:0:
442,207,210340,1,0,3:0:0:0:
428,125,210456,1,0,3:0:0:0:
363,76,210571,1,0,3:0:0:0:
285,94,210686,5,8,0:1:0:0:
270,101,211032,5,8,0:1:0:0:
256,110,211379,5,8,0:1:0:0:
244,116,211609,6,0,L|154:124,1,55.0000016784668,8|0,0:1|0:0,0:0:0:0:
127,292,211840,2,0,L|181:287,1,55.0000016784668,8|0,0:1|0:0,0:0:0:0:
284,185,212071,1,8,0:1:0:0:
243,244,212187,1,8,0:1:0:0:
251,314,212302,1,8,0:1:0:0:
305,360,212417,1,8,0:1:0:0:
474,338,212532,6,0,L|332:323,1,100,4|0,3:3|0:3,0:0:0:0:
355,303,212879,1,0,0:0:0:0:
399,162,212994,2,0,P|414:207|418:263,1,100,8|0,1:2|0:0,0:0:0:0:
305,360,213340,2,0,L|164:355,1,100,2|0,0:0|0:0,0:0:0:0:
64,240,213686,2,0,P|87:229|127:213,1,50,0|0,0:1|0:0,0:0:0:0:
128,348,213917,2,0,P|107:333|72:306,1,50,10|0,1:2|0:0,0:0:0:0:
186,236,214148,2,0,P|183:261|177:304,1,50,2|0,0:0|0:0,0:0:0:0:
160,164,214379,6,0,L|297:148,1,100,2|0,3:2|0:0,0:0:0:0:
289,154,214725,1,0,0:0:0:0:
412,87,214840,2,0,L|306:74,1,100,8|0,1:2|0:0,0:0:0:0:
288,80,215186,1,0,0:0:0:0:
372,289,215301,2,0,P|394:226|356:148,1,150,0|0,3:2|0:0,0:0:0:0:
176,192,215763,6,0,L|105:185,1,50,10|0,1:2|0:0,0:0:0:0:
54,50,215994,2,0,L|104:55,1,50
248,146,216225,6,0,P|261:206|225:266,1,100,6|0,3:2|0:0,0:0:0:0:
236,262,216571,1,0,0:2:0:0:
82,194,216686,2,0,P|140:212|174:273,1,100,8|0,1:2|0:0,0:0:0:0:
88,374,217032,2,0,L|95:271,1,100,2|0,0:0|0:0,0:0:0:0:
110,116,217379,2,0,P|127:91|175:61,1,50,2|0,0:0|0:0,0:0:0:0:
235,141,217609,2,0,P|264:135|319:148,1,50,10|0,1:2|0:0,0:0:0:0:
324,243,217840,2,0,P|349:260|379:308,1,50,2|0,0:0|0:0,0:0:0:0:
188,322,218071,6,0,P|121:332|56:324,1,100,2|0,3:2|0:0,0:0:0:0:
64,325,218417,1,0,0:0:0:0:
148,256,218532,2,0,P|93:215|53:164,1,100,8|0,1:2|0:0,0:0:0:0:
58,170,218878,1,0,0:0:0:0:
208,209,218994,5,8,1:2:0:0:
252,214,219109,1,8,0:0:0:0:
258,169,219225,1,0,3:0:0:0:
213,164,219340,1,0,0:0:0:0:
228,237,219456,5,8,1:2:0:0:
280,194,219571,1,0,3:0:0:0:
238,142,219687,1,0,3:0:0:0:
184,183,219802,1,0,3:0:0:0:
228,237,219917,6,0,P|244:294|231:368,1,100,4|0,3:3|0:0,0:0:0:0:
236,361,220263,1,0,0:0:0:0:
25,320,220379,2,0,P|66:334|140:338,1,100,8|0,1:2|0:0,0:0:0:0:
146,332,220725,1,2,0:0:0:0:
170,325,220840,1,8,0:1:0:0:
392,321,221071,1,0,0:1:0:0:
368,312,221186,1,0,0:0:0:0:
308,257,221302,2,0,P|300:229|307:186,1,50,10|0,1:2|0:0,0:0:0:0:
310,128,221532,2,0,P|322:95|344:69,1,50,2|0,0:0|0:0,0:0:0:0:
235,163,221763,6,0,P|158:167|95:150,1,100,2|0,3:2|0:0,0:0:0:0:
111,156,222109,1,0,0:0:0:0:
29,105,222225,2,0,L|40:221,1,100,8|0,1:2|0:0,0:0:0:0:
41,229,222571,1,0,0:0:0:0:
30,311,222686,1,8,0:1:0:0:
53,303,222801,2,0,P|109:289|187:300,1,100,2|0,0:0|0:1,0:0:0:0:
175,296,223148,1,10,1:2:0:0:
397,369,223378,1,2,0:0:0:0:
305,216,223609,6,0,P|297:165|315:90,1,100,6|0,3:2|0:0,0:0:0:0:
312,93,223955,1,0,0:0:0:0:
377,39,224071,2,0,P|413:41|459:29,1,50,8|0,1:2|0:0,0:0:0:0:
436,140,224302,2,0,P|469:120|488:99,1,50,0|0,0:0|0:0,0:0:0:0:
511,205,224532,5,8,0:1:0:0:
479,288,224648,2,0,P|445:307|390:321,1,50,2|0,0:0|0:0,0:0:0:0:
361,192,224878,1,8,0:1:0:0:
351,323,224994,2,0,P|313:312|264:283,1,50,10|0,1:2|0:0,0:0:0:0:
233,261,225225,2,0,P|214:227|200:172,1,50,2|0,3:2|0:0,0:0:0:0:
140,102,225456,6,0,P|204:127|271:117,1,100,2|0,3:2|0:0,0:0:0:0:
259,122,225802,1,2,3:2:0:0:
373,99,225917,2,0,P|432:104|478:129,1,100,10|2,1:2|3:2,0:0:0:0:
486,138,226263,1,0,0:0:0:0:
450,275,226378,6,0,P|427:280|364:281,1,50,6|8,3:2|0:0,0:0:0:0:
305,327,226609,2,0,P|289:310|256:255,1,50,2|0,3:2|0:0,0:0:0:0:
183,233,226840,2,0,P|189:211|220:155,1,50,14|0,3:2|0:0,0:0:0:0:
140,99,227071,2,0,P|162:93|225:93,1,50,2|0,3:2|0:0,0:0:0:0:
308,137,227301,6,0,P|400:151|460:145,1,150,4|0,3:2|0:0,0:0:0:0:
480,140,227763,1,8,1:2:0:0:
368,33,227994,1,0,0:0:0:0:
260,244,228225,1,8,0:1:0:0:
282,255,228340,2,0,L|380:238,1,100,2|0,0:0|0:0,0:0:0:0:
461,136,228686,2,0,P|406:116|346:134,1,100,10|2,1:2|0:0,0:0:0:0:
344,135,229032,1,0,0:0:0:0:
203,282,229148,6,0,P|213:198|203:142,1,100,2|0,3:2|0:0,0:0:0:0:
209,158,229494,1,0,0:0:0:0:
83,90,229609,2,0,P|142:95|209:66,1,100,8|0,1:2|0:0,0:0:0:0:
385,82,230071,1,8,0:1:0:0:
369,62,230186,2,0,P|320:44|260:42,1,100,2|0,0:0|0:0,0:0:0:0:
248,46,230532,1,10,1:2:0:0:
69,205,230763,1,2,0:0:0:0:
291,219,230994,6,0,P|297:160|324:99,1,100,6|0,3:2|0:0,0:0:0:0:
323,100,231340,1,0,0:0:0:0:
479,166,231455,2,0,P|427:168|367:156,1,100,8|0,1:2|0:0,0:0:0:0:
148,104,231917,1,0,3:2:0:0:
161,82,232032,2,0,P|214:59|288:59,1,100,2|0,0:0|0:0,0:0:0:0:
419,119,232379,2,0,P|426:176|419:225,1,100,10|0,1:2|0:0,0:0:0:0:
413,241,232725,1,0,0:0:0:0:
180,212,232840,6,0,L|362:186,1,150,2|0,3:2|0:0,0:0:0:0:
353,187,233301,1,8,1:2:0:0:
259,34,233532,1,0,0:0:0:0:
152,101,233763,1,8,1:2:0:0:
127,106,233879,1,8,0:0:0:0:
61,142,233994,1,0,3:2:0:0:
36,147,234110,1,0,0:0:0:0:
124,184,234225,2,0,P|131:220|129:253,1,50,10|0,1:2|3:2,0:0:0:0:
129,307,234455,2,0,P|120:342|104:371,1,50,2|0,3:2|3:2,0:0:0:0:
200,267,234686,6,0,L|364:249,1,150,4|0,3:3|0:0,0:0:0:0:
374,247,235148,1,8,1:2:0:0:
479,353,235378,1,0,0:0:0:0:
431,190,235609,2,0,L|468:89,1,100,2|0,3:2|0:0,0:0:0:0:
381,37,235956,2,0,L|482:18,1,100,2|0,0:0|0:0,0:0:0:0:
367,143,236302,2,0,L|332:90,1,50,2|0,0:0|0:0,0:0:0:0:
228,48,236532,6,0,P|162:30|69:32,1,150,4|0,3:2|0:0,0:0:0:0:
56,35,236994,1,8,1:2:0:0:
169,177,237225,1,0,0:0:0:0:
187,153,237340,1,0,0:0:0:0:
206,130,237456,2,0,L|274:113,1,50,2|0,3:2|0:0,0:0:0:0:
381,92,237686,2,0,L|420:150,1,50,2|0,0:0|0:0,0:0:0:0:
288,227,237917,2,0,L|356:210,1,50,10|0,1:2|0:0,0:0:0:0:
463,189,238148,2,0,L|502:247,1,50,2|0,0:0|0:0,0:0:0:0:
371,332,238379,6,0,P|321:339|253:332,1,100,4|0,3:2|0:0,0:0:0:0:
242,329,238725,1,0,0:0:0:0:
103,310,238840,2,0,L|35:300,1,50,8|0,1:2|0:0,0:0:0:0:
276,219,239071,2,0,P|274:185|262:163,1,50
129,230,239301,5,8,0:1:0:0:
71,176,239417,2,0,L|-6:166,1,50,2|0,0:0|0:0,0:0:0:0:
129,230,239648,1,8,0:1:0:0:
71,176,239764,2,0,P|66:150|80:107,1,50,10|0,1:2|0:0,0:0:0:0:
87,56,239994,2,0,P|101:34|142:13,1,50,2|0,0:0|0:0,0:0:0:0:
317,30,240225,6,0,L|218:47,1,100,2|0,3:2|0:0,0:0:0:0:
189,54,240571,1,0,0:0:0:0:
106,135,240686,2,0,L|95:205,1,50,8|0,1:2|0:0,0:0:0:0:
203,254,240917,2,0,L|214:184,1,50
13,279,241148,6,0,L|111:296,1,100,2|2,3:2|3:2,0:0:0:0:
141,303,241494,1,0,0:0:0:0:
283,236,241609,5,10,1:2:0:0:
287,205,241725,1,0,3:2:0:0:
164,107,241840,1,2,3:2:0:0:
156,156,241956,1,0,3:2:0:0:
206,253,242071,5,4,0:2:0:0:
311,208,254994,5,0,3:0:0:0:
311,208,255340,1,0,3:0:0:0:
311,208,255686,1,0,3:0:0:0:
328,223,255917,5,0,3:0:0:0:
404,232,256148,1,0,3:0:0:0:
461,151,256378,1,0,3:0:0:0:
398,47,256609,1,0,3:0:0:0:
264,99,256840,5,2,3:2:0:0:
259,116,257301,1,0,3:0:0:0:
127,141,257763,5,0,3:0:0:0:
132,158,258225,1,0,3:0:0:0:
351,151,258686,5,2,3:2:0:0:
346,168,259148,1,0,3:0:0:0:
214,193,259609,5,2,3:2:0:0:
219,210,260071,1,0,3:0:0:0:
348,361,260532,5,2,3:2:0:0:
343,344,260993,1,0,3:0:0:0:
211,319,261455,5,0,3:0:0:0:
216,302,261916,1,0,3:0:0:0:
435,309,262378,5,2,3:2:0:0:
430,292,262839,1,0,3:0:0:0:
298,267,263301,5,2,3:2:0:0:
303,250,263763,1,0,3:0:0:0:
395,97,264225,5,2,3:2:0:0:
406,184,264686,1,0,3:0:0:0:
229,124,265148,5,0,3:0:0:0:
218,211,265609,1,0,3:0:0:0:
302,381,266071,5,2,3:2:0:0:
291,294,266532,1,0,3:0:0:0:
114,354,266994,5,2,3:2:0:0:
125,267,267455,1,0,3:0:0:0:
298,173,267917,5,2,3:2:0:0:
256,192,268032,12,0,269648,0:0:0:0:
305,180,269763,5,0,3:0:0:0:
305,180,270109,1,0,3:0:0:0:
305,180,270455,1,0,3:0:0:0:
351,256,270686,2,0,L|411:247,1,55.0000016784668,0|0,3:0|3:0,0:0:0:0:
429,116,270917,2,0,L|374:124,1,55,0|0,3:0|3:0,0:0:0:0:
305,180,271148,5,0,0:1:0:0:
286,191,271263,1,0,0:0:0:0:
204,181,271378,5,0,0:0:0:0:
122,166,271494,1,0,0:0:0:0:
41,150,271609,5,8,2:1:0:0:
44,166,271955,1,8,2:1:0:0:
47,182,272301,1,8,2:1:0:0:
97,254,272532,1,8,2:1:0:0:
206,248,272763,1,8,2:1:0:0:
251,124,272994,1,8,2:1:0:0:
235,118,273109,1,8,2:1:0:0:
235,102,273225,1,8,2:1:0:0:
251,97,273340,1,8,2:1:0:0:
260,110,273455,5,2,0:0:0:0:
456,243,273801,1,0,0:0:0:0:
450,221,273917,1,0,0:0:0:0:
343,242,274148,1,0,0:0:0:0:
365,247,274264,1,0,0:0:0:0:
399,146,274494,1,0,0:0:0:0:
383,162,274610,1,0,0:0:0:0:
256,192,274840,5,2,0:0:0:0:
256,192,275071,1,0,0:0:0:0:
120,61,275301,5,2,0:0:0:0:
56,243,275648,1,0,0:0:0:0:
62,221,275764,1,0,0:0:0:0:
229,97,275995,1,0,0:0:0:0:
161,247,276225,1,2,0:0:0:0:
155,225,276341,1,0,0:0:0:0:
256,192,276571,1,2,0:0:0:0:
256,192,276686,5,0,0:0:0:0:
256,192,276917,1,2,0:0:0:0:
392,61,277148,5,2,0:0:0:0:
474,272,277494,1,0,0:0:0:0:
479,250,277610,1,0,0:0:0:0:
389,303,277840,1,0,0:0:0:0:
388,280,277956,1,0,0:0:0:0:
312,345,278186,1,0,0:0:0:0:
305,323,278302,1,0,0:0:0:0:
256,192,278532,5,0,0:0:0:0:
256,192,278763,1,0,0:0:0:0:
120,61,278994,5,2,0:0:0:0:
104,264,279340,1,0,0:0:0:0:
99,242,279456,1,0,0:0:0:0:
36,110,279686,1,0,0:0:0:0:
196,287,279917,1,2,0:0:0:0:
196,264,280033,1,0,0:0:0:0:
256,192,280263,1,0,0:0:0:0:
256,192,280378,5,0,0:0:0:0:
256,192,280609,1,0,0:0:0:0:
392,61,280840,5,2,0:0:0:0:
506,212,281186,1,0,0:0:0:0:
486,201,281301,1,0,0:0:0:0:
423,262,281532,1,0,0:0:0:0:
403,251,281647,1,0,0:0:0:0:
346,314,281878,1,0,0:0:0:0:
326,303,281993,1,0,0:0:0:0:
256,192,282225,5,2,0:0:0:0:
256,192,282456,1,0,0:0:0:0:
120,61,282686,5,2,0:0:0:0:
6,212,283032,1,0,0:0:0:0:
26,201,283147,1,0,0:0:0:0:
83,285,283378,1,0,0:0:0:0:
175,258,283609,1,2,0:0:0:0:
195,269,283724,1,0,0:0:0:0:
256,192,283955,1,2,0:0:0:0:
256,192,284071,5,0,0:0:0:0:
256,192,284302,1,2,0:0:0:0:
256,32,284532,5,2,0:0:0:0:
349,174,284878,1,0,0:0:0:0:
347,196,284994,1,0,0:0:0:0:
415,264,285225,1,0,0:0:0:0:
510,244,285455,1,0,0:0:0:0:
508,222,285571,1,0,0:0:0:0:
444,148,285801,1,0,0:0:0:0:
442,126,285917,1,0,0:0:0:0:
349,174,286148,1,0,0:0:0:0:
256,32,286378,5,2,3:2:0:0:
256,32,286725,1,8,0:1:0:0:
256,32,287071,1,8,0:1:0:0:
256,128,287301,2,0,L|207:128,1,41.6666666666667,8|0,0:1|0:1,0:0:0:0:
247,309,287532,2,0,L|299:310,1,41.6666666666667,8|0,0:1|0:1,0:0:0:0:
509,206,287763,5,8,0:1:0:0:
453,149,287878,1,8,0:1:0:0:
375,155,287994,1,8,0:1:0:0:
325,215,288109,1,8,0:1:0:0:
369,305,288225,6,0,P|367:226|357:112,1,165,4|0,3:3|0:0,0:0:0:0:
345,123,288687,1,8,1:2:0:0:
200,230,288918,1,0,0:0:0:0:
104,134,289149,1,8,0:1:0:0:
119,148,289263,2,0,P|172:149|237:137,1,110,2|0,0:0|0:0,0:0:0:0:
243,123,289610,1,10,1:2:0:0:
122,277,289841,1,2,0:0:0:0:
133,295,289956,1,0,0:0:0:0:
206,350,290071,6,0,P|112:317|31:325,1,165,2|0,3:2|0:0,0:0:0:0:
35,338,290532,2,0,P|17:281|16:216,1,110,8|0,1:2|0:0,0:0:0:0:
138,57,290995,1,8,0:1:0:0:
149,75,291109,2,0,P|149:128|136:209,1,110,2|0,0:0|0:0,0:0:0:0:
128,202,291455,1,10,1:2:0:0:
37,62,291687,1,2,0:0:0:0:
229,143,291917,6,0,P|289:139|346:131,1,110,6|0,3:2|0:0,0:0:0:0:
449,49,292264,1,0,0:0:0:0:
496,156,292379,2,0,P|506:127|517:86,1,55,8|0,1:2|0:0,0:0:0:0:
346,150,292609,2,0,P|353:176|362:202,1,55,0|0,0:0|0:0,0:0:0:0:
453,297,292841,1,0,3:1:0:0:
435,309,292955,2,0,P|375:287|318:284,1,110,2|0,0:0|3:0,0:0:0:0:
313,298,293302,1,10,1:2:0:0:
152,229,293533,1,0,0:0:0:0:
173,225,293649,1,0,0:0:0:0:
230,155,293763,6,0,P|214:219|197:333,1,165.000005035401,2|0,3:2|0:0,0:0:0:0:
208,336,294225,1,8,1:2:0:0:
313,197,294456,1,0,0:0:0:0:
113,309,294687,2,0,L|44:299,1,55,8|8,3:2|0:0,0:0:0:0:
0,165,294918,2,0,L|69:155,1,55,0|0,3:0|0:0,0:0:0:0:
163,59,295149,1,10,1:2:0:0:
161,80,295264,1,0,3:0:0:0:
229,152,295378,1,2,3:2:0:0:
231,173,295494,1,0,3:2:0:0:
306,237,295609,6,0,P|230:220|131:205,1,165,4|0,3:3|0:0,0:0:0:0:
133,225,296072,1,8,1:2:0:0:
322,128,296302,1,0,0:0:0:0:
393,329,296532,1,2,3:2:0:0:
412,319,296648,2,0,P|410:266|396:187,1,110,0|2,0:0|3:2,0:0:0:0:
386,192,296995,1,8,1:2:0:0:
299,333,297225,1,2,3:2:0:0:
493,359,297455,6,0,P|506:287|512:176,1,165,4|0,3:2|0:0,0:0:0:0:
499,177,297918,1,8,1:2:0:0:
379,60,298149,1,0,0:0:0:0:
383,81,298264,1,0,0:0:0:0:
387,102,298378,2,0,L|456:85,1,55,2|0,3:2|0:0,0:0:0:0:
421,245,298609,2,0,L|367:258,1,55,2|0,0:0|0:0,0:0:0:0:
499,167,298840,2,0,L|516:236,1,55,10|0,1:2|0:0,0:0:0:0:
307,179,299071,2,0,L|293:125,1,55,2|0,0:0|0:0,0:0:0:0:
199,29,299301,6,0,P|134:29|90:68,1,110,4|0,3:2|0:0,0:0:0:0:
122,211,299648,1,0,0:0:0:0:
186,152,299763,2,0,P|159:137|119:126,1,55,8|0,1:2|0:0,0:0:0:0:
133,294,299994,2,0,P|158:284|182:271,1,55
48,158,300224,1,8,0:1:0:0:
33,174,300340,2,0,L|41:245,1,55,2|0,0:0|0:0,0:0:0:0:
7,364,300571,1,0,3:1:0:0:
26,373,300686,2,0,L|90:369,1,55,10|0,1:2|0:0,0:0:0:0:
180,384,300917,2,0,L|244:380,1,55,2|0,3:2|0:0,0:0:0:0:
376,278,301148,6,0,P|328:240|263:250,1,110,2|0,3:2|0:0,0:0:0:0:
376,366,301494,1,0,0:0:0:0:
454,322,301609,2,0,P|463:296|466:268,1,55,8|0,1:2|0:0,0:0:0:0:
404,187,301840,2,0,P|398:159|387:134,1,55,0|0,0:0|0:0,0:0:0:0:
260,129,302070,5,2,3:2:0:0:
240,139,302186,1,0,0:2:0:0:
151,101,302301,5,2,3:2:0:0:
131,111,302417,1,0,0:2:0:0:
220,149,302532,5,10,3:2:0:0:
200,159,302648,1,0,3:2:0:0:
111,121,302763,5,2,3:2:0:0:
91,131,302879,1,0,3:2:0:0:
69,221,302994,6,0,P|69:127|82:41,1,179.999994506836,4|0,3:3|0:0,0:0:0:0:
205,33,303456,2,0,L|323:58,1,119.999996337891,8|0,1:2|0:0,0:0:0:0:
452,87,303802,1,2,0:0:0:0:
431,109,303917,2,0,L|389:159,1,59.9999981689454,8|0,0:1|0:0,0:0:0:0:
286,252,304148,1,0,0:1:0:0:
286,252,304378,2,0,L|209:245,1,59.9999981689454,10|0,1:2|0:0,0:0:0:0:
150,237,304609,2,0,P|119:222|93:192,1,59.9999981689454,2|0,0:0|0:0,0:0:0:0:
206,24,304840,6,0,P|210:116|202:169,1,119.999996337891,2|0,3:2|0:0,0:0:0:0:
201,179,305186,1,0,0:0:0:0:
30,314,305301,2,0,L|148:295,1,119.999996337891,8|0,1:2|0:0,0:0:0:0:
178,290,305648,1,0,0:0:0:0:
304,346,305763,1,8,0:1:0:0:
314,317,305879,2,0,L|347:197,1,119.999996337891,2|0,0:0|0:0,0:0:0:0:
380,69,306225,1,10,1:2:0:0:
120,147,306456,1,0,0:0:0:0:
259,35,306686,6,0,P|275:131|269:207,1,119.999996337891,6|0,3:2|0:0,0:0:0:0:
273,183,307032,1,0,0:0:0:0:
255,327,307148,2,0,P|220:337|166:329,1,59.9999981689454,8|0,1:2|0:0,0:0:0:0:
166,334,307378,1,0,0:0:0:0:
312,259,307494,2,0,L|459:251,1,119.999996337891,2|0,0:0|0:0,0:0:0:0:
467,179,307840,1,2,0:0:0:0:
478,151,307955,1,0,0:0:0:0:
462,72,308071,2,0,P|454:43|439:17,1,59.9999981689454,10|0,1:2|0:0,0:0:0:0:
367,37,308301,2,0,L|295:18,1,59.9999981689454,2|0,0:0|0:0,0:0:0:0:
137,98,308532,6,0,B|170:146|211:152|211:152|241:131|256:72,1,179.999994506836,2|0,3:2|0:0,0:0:0:0:
191,43,308994,1,8,1:2:0:0:
20,70,309225,1,0,0:0:0:0:
178,157,309456,1,8,3:2:0:0:
189,190,309571,1,8,0:2:0:0:
193,226,309686,1,0,3:0:0:0:
188,262,309802,1,0,0:2:0:0:
240,282,309917,5,8,1:2:0:0:
248,228,310033,1,0,3:2:0:0:
243,175,310148,1,0,3:2:0:0:
225,124,310263,1,0,3:2:0:0:
67,50,310378,6,0,P|130:60|191:55,1,119.999996337891,4|0,3:3|0:0,0:0:0:0:
214,47,310725,1,0,0:0:0:0:
356,14,310840,2,0,L|333:145,1,119.999996337891,8|0,1:2|0:0,0:0:0:0:
246,272,311186,2,0,L|420:243,1,119.999996337891,2|0,0:0|0:0,0:0:0:0:
454,153,311532,2,0,P|433:171|376:171,1,59.9999981689454,0|0,0:1|0:0,0:0:0:0:
254,116,311763,2,0,P|246:87|253:45,1,59.9999981689454,10|0,1:2|0:0,0:0:0:0:
364,252,311994,2,0,P|379:277|383:319,1,59.9999981689454,2|0,0:0|0:0,0:0:0:0:
138,209,312225,6,0,P|196:198|256:196,1,119.999996337891,2|0,3:2|0:0,0:0:0:0:
286,199,312571,1,0,0:0:0:0:
384,306,312686,2,0,P|324:304|265:293,1,119.999996337891,8|0,1:2|0:0,0:0:0:0:
238,283,313032,1,0,0:0:0:0:
355,140,313148,1,8,0:1:0:0:
361,110,313263,1,2,0:0:0:0:
421,191,313494,5,0,0:1:0:0:
442,85,313610,1,10,1:2:0:0:
273,111,313840,1,2,0:0:0:0:
332,301,314071,6,0,L|345:164,1,119.999996337891,6|0,3:2|0:0,0:0:0:0:
347,151,314417,1,0,0:0:0:0:
291,30,314532,2,0,P|266:32|228:48,1,59.9999981689454,8|0,1:2|0:0,0:0:0:0:
162,97,314763,2,0,P|145:116|130:154,1,59.9999981689454
103,234,314994,5,8,0:1:0:0:
186,274,315109,2,0,L|243:254,1,59.9999981689454,2|0,0:0|0:0,0:0:0:0:
129,341,315340,1,0,3:3:0:0:
275,341,315455,2,0,L|380:296,1,59.9999981689454,10|0,1:2|0:0,0:0:0:0:
418,279,315686,2,0,L|523:234,1,59.9999981689454,2|0,3:2|0:0,0:0:0:0:
332,167,315917,6,0,L|157:132,1,119.999996337891,2|0,3:2|0:0,0:0:0:0:
24,253,316263,2,0,L|198:218,1,119.999996337891,2|0,3:2|0:0,0:0:0:0:
330,294,316609,1,2,3:2:0:0:
282,232,316725,1,0,0:0:0:0:
292,153,316840,6,0,L|350:164,1,59.9999981689454,6|0,0:2|0:0,0:0:0:0:
486,125,317071,2,0,L|427:136,1,59.9999981689454,2|0,3:2|0:0,0:0:0:0:
268,62,317301,2,0,L|326:73,1,59.9999981689454,14|0,3:2|0:0,0:0:0:0:
462,34,317532,2,0,L|403:45,1,59.9999981689454,2|0,3:2|0:0,0:0:0:0:
292,153,317763,6,0,B|225:169|225:169|115:150,1,179.999994506836,4|0,3:2|0:0,0:0:0:0:
85,145,318225,1,8,1:2:0:0:
228,30,318456,1,0,0:0:0:0:
282,234,318687,1,8,0:1:0:0:
311,237,318802,2,0,L|437:202,1,119.999996337891,2|0,0:0|0:0,0:0:0:0:
491,94,319148,1,10,1:2:0:0:
378,65,319378,6,0,L|304:84,1,59.9999981689454,2|0,3:2|0:0,0:0:0:0:
97,128,319610,2,0,L|248:154,1,119.999996337891,2|0,3:2|0:0,0:0:0:0:
244,153,319956,1,0,0:0:0:0:
400,191,320071,2,0,P|414:248|401:307,1,119.999996337891,8|0,1:2|0:0,0:0:0:0:
331,130,320533,1,8,0:1:0:0:
353,110,320648,2,0,B|484:89,1,119.999996337891,2|0,0:0|0:0,0:0:0:0:
501,86,320994,1,10,1:2:0:0:
263,36,321225,1,2,0:0:0:0:
185,192,321455,6,0,L|28:219,1,119.999996337891,6|0,3:2|0:0,0:0:0:0:
37,219,321802,1,0,0:0:0:0:
269,361,321917,2,0,L|251:243,1,119.999996337891,8|0,1:2|0:0,0:0:0:0:
169,77,322379,1,8,0:1:0:0:
199,82,322494,2,0,P|269:75|325:40,1,119.999996337891,2|0,0:0|0:0,0:0:0:0:
336,34,322840,1,10,1:2:0:0:
457,163,323071,1,0,0:0:0:0:
408,234,323187,1,0,0:0:0:0:
328,190,323301,6,0,L|157:216,1,119.999996337891,2|0,3:2|0:0,0:0:0:0:
180,214,323648,1,0,0:0:0:0:
150,219,323763,1,8,1:2:0:0:
31,61,323994,1,0,0:0:0:0:
245,55,324225,1,8,3:2:0:0:
281,18,324341,1,8,0:0:0:0:
301,111,324456,1,0,3:0:0:0:
344,82,324572,1,0,0:0:0:0:
340,182,324687,6,0,P|347:218|344:259,1,59.9999981689454,10|0,1:2|0:0,0:0:0:0:
334,314,324917,2,0,P|325:349|304:381,1,59.9999981689454,2|0,3:2|0:0,0:0:0:0:
79,260,325148,6,0,B|106:237|106:237|259:256,1,179.999994506836,4|0,3:3|0:0,0:0:0:0:
278,260,325610,1,8,1:2:0:0:
468,234,325840,1,0,0:0:0:0:
333,137,326071,6,0,P|282:108|259:37,1,119.999996337891,2|0,3:2|0:0,0:0:0:0:
381,37,326418,2,0,L|506:13,1,119.999996337891,2|0,0:0|0:0,0:0:0:0:
439,176,326764,2,0,L|418:106,1,59.9999981689454,2|0,0:0|0:0,0:0:0:0:
258,53,326994,6,0,P|193:65|78:35,1,179.999994506836,4|0,3:2|0:0,0:0:0:0:
55,27,327456,1,8,1:2:0:0:
74,226,327687,1,0,0:0:0:0:
92,202,327802,1,0,0:0:0:0:
111,179,327917,2,0,L|206:155,1,59.9999981689454,2|0,3:2|0:0,0:0:0:0:
315,124,328148,2,0,L|347:34,1,59.9999981689454,2|0,0:0|0:0,0:0:0:0:
248,206,328378,2,0,L|331:224,1,59.9999981689454,10|0,1:2|0:0,0:0:0:0:
463,189,328610,2,0,L|478:264,1,59.9999981689454,2|0,0:0|0:0,0:0:0:0:
379,153,328840,6,0,L|409:28,1,119.999996337891,4|0,0:2|0:0,0:0:0:0:
415,7,329187,1,0,0:0:0:0:
304,33,329302,2,0,L|228:22,1,59.9999981689454,8|0,1:2|0:0,0:0:0:0:
205,157,329533,2,0,P|203:123|188:88,1,59.9999981689454
92,182,329763,5,8,0:1:0:0:
12,300,329879,2,0,P|38:314|81:315,1,59.9999981689454,2|0,0:0|0:0,0:0:0:0:
92,182,330110,1,8,0:1:0:0:
178,257,330226,2,0,L|261:243,1,59.9999981689454,10|0,1:2|0:0,0:0:0:0:
311,159,330456,2,0,P|343:145|375:113,1,59.9999981689454,2|0,3:2|0:0,0:0:0:0:
189,54,330686,6,0,L|183:200,1,119.999996337891,6|0,3:2|0:0,0:0:0:0:
183,204,331032,1,0,0:0:0:0:
122,284,331148,2,0,P|90:294|37:289,1,59.9999981689454,8|0,1:2|0:0,0:0:0:0:
184,356,331379,2,0,L|258:337,1,59.9999981689454
348,305,331610,6,0,L|373:195,1,89.9999972534181,2|0,3:2|0:0,0:0:0:0:
424,156,331840,2,0,L|459:269,1,97.4999955368044,2|0,3:2|0:0,0:0:0:0:
333,311,332071,6,0,L|360:186,1,104.999996795654,10|0,1:2|0:0,0:0:0:0:
436,142,332301,2,0,L|471:261,1,112.500004291535,2|0,3:2|0:0,0:0:0:0:
250,257,332532,6,0,P|247:186|336:145,1,165.000005035401,4|0,3:3|0:0,0:0:0:0:
348,145,332994,1,8,0:0:0:0:
423,329,333224,1,0,0:0:0:0:
241,341,333455,1,0,3:0:0:0:
215,331,333570,1,0,0:0:0:0:
74,268,333801,1,0,0:0:0:0:
100,261,333917,2,0,L|255:221,1,110.000003356934,10|0,0:0|0:0,0:0:0:0:
444,229,334378,6,0,P|455:148|379:119,1,165.000005035401,2|0,3:2|0:0,0:0:0:0:
362,123,334840,1,8,0:0:0:0:
290,295,335071,1,0,0:0:0:0:
235,87,335301,1,2,3:2:0:0:
257,71,335416,1,0,0:0:0:0:
121,178,335648,1,2,0:0:0:0:
147,173,335763,2,0,L|213:161,1,55.0000016784668,8|0,0:0|0:0,0:0:0:0:
200,292,335994,2,0,L|155:243,1,55.0000016784668,2|0,0:0|0:0,0:0:0:0:
249,228,336224,6,0,L|429:193,1,165.000005035401,6|0,3:2|0:0,0:0:0:0:
479,230,336686,2,0,B|500:267|500:267|495:356,1,110.000003356934,8|0,0:0|0:0,0:0:0:0:
299,295,337148,1,2,3:2:0:0:
314,272,337263,2,0,L|422:291,1,110.000003356934,0|0,0:0|0:0,0:0:0:0:
239,336,337609,2,0,L|121:314,1,110.000003356934,8|0,0:0|0:0,0:0:0:0:
62,145,338071,6,0,P|37:199|74:271,1,110.000003356934,2|0,3:2|0:0,0:0:0:0:
125,104,338417,2,0,P|90:55|9:51,1,110.000003356934,2|0,0:0|0:0,0:0:0:0:
131,176,338763,1,2,0:0:0:0:
324,157,338994,6,0,B|384:161|384:161|447:129,1,110.000003356934,2|0,3:2|0:0,0:0:0:0:
240,85,339340,2,0,L|255:207,1,110.000003356934,2|0,3:2|0:0,0:0:0:0:
316,234,339686,1,2,3:2:0:0:
460,322,339917,6,0,L|283:349,1,165.000005035401,4|0,3:3|0:0,0:0:0:0:
269,351,340378,1,8,0:0:0:0:
93,323,340609,2,0,P|56:278|78:209,1,110.000003356934,0|0,0:0|3:0,0:0:0:0:
130,259,340955,2,0,L|247:251,1,110.000003356934,0|0,0:0|0:0,0:0:0:0:
408,231,341301,1,10,0:0:0:0:
428,196,341417,1,0,0:0:0:0:
410,101,341532,1,2,0:0:0:0:
380,77,341648,1,0,0:0:0:0:
195,141,341763,6,0,L|374:161,1,165.000005035401,2|0,3:2|0:0,0:0:0:0:
428,196,342224,2,0,P|461:260|444:316,1,110.000003356934,8|0,0:0|0:0,0:0:0:0:
233,292,342686,1,2,3:2:0:0:
284,284,342801,1,0,0:0:0:0:
136,226,343032,1,2,0:0:0:0:
284,284,343148,2,0,L|375:267,1,55.0000016784668,10|0,0:0|0:0,0:0:0:0:
416,249,343378,2,0,P|423:225|426:181,1,55.0000016784668,0|0,0:0|0:0,0:0:0:0:
350,27,343609,6,0,P|314:102|321:154,1,110.000003356934,6|0,3:2|0:0,0:0:0:0:
322,153,343955,1,0,0:0:0:0:
183,96,344071,2,0,P|217:171|261:199,1,110.000003356934,10|0,0:0|0:0,0:0:0:0:
261,198,344417,1,0,0:0:0:0:
304,364,344532,6,0,P|339:288|333:237,1,110.000003356934,2|0,3:2|0:0,0:0:0:0:
332,238,344878,1,0,0:0:0:0:
471,295,344994,2,0,P|436:219|392:191,1,110.000003356934,10|0,0:0|0:0,0:0:0:0:
393,193,345340,1,0,0:0:0:0:
322,142,345455,5,2,3:2:0:0:
260,92,345571,1,0,0:0:0:0:
251,47,345686,1,0,0:0:0:0:
259,19,345801,1,0,3:0:0:0:
117,24,345917,5,10,0:0:0:0:
179,74,346032,1,0,0:0:0:0:
188,119,346148,1,0,3:0:0:0:
180,147,346263,1,0,0:0:0:0:
134,209,346378,5,2,3:2:0:0:
117,212,346494,1,0,3:0:0:0:
101,216,346609,1,0,3:0:0:0:
84,220,346725,1,0,3:0:0:0:
68,224,346840,6,0,B|97:274|97:274|93:309|93:309|108:336|108:336|102:385,1,165.000005035401,10|0,3:2|0:0,0:0:0:0:
171,294,347301,6,0,L|339:304,1,150,4|2,0:3|0:0,0:0:0:0:
335,299,347763,1,2,0:0:0:0:
456,242,347993,1,2,0:0:0:0:
412,131,348224,1,2,0:0:0:0:
405,117,348340,1,0,0:0:0:0:
308,154,348571,1,2,0:0:0:0:
293,149,348687,1,0,0:0:0:0:
253,293,348917,1,2,0:0:0:0:
224,218,349032,1,2,0:0:0:0:
176,280,349147,6,0,P|250:266|338:250,1,150,2|2,0:0|0:0,0:0:0:0:
338,249,349609,1,2,0:0:0:0:
477,222,349840,1,2,0:0:0:0:
403,76,350070,1,2,0:0:0:0:
390,67,350186,2,0,P|334:44|273:48,1,100,0|0,0:0|0:0,0:0:0:0:
211,96,350532,1,2,0:0:0:0:
196,100,350648,1,0,0:0:0:0:
182,105,350763,1,0,0:0:0:0:
168,110,350878,1,0,0:0:0:0:
70,92,350994,5,2,0:0:0:0:
169,194,351225,2,0,L|216:192,2,25,0|0|0,0:0|0:0|0:0,0:0:0:0:
31,189,351455,1,2,0:0:0:0:
168,110,351686,1,2,0:0:0:0:
94,253,351917,2,0,L|76:294,2,25,2|0|0,0:0|0:0|0:0,0:0:0:0:
75,104,352148,1,0,0:0:0:0:
163,29,352378,1,2,0:0:0:0:
252,40,352609,1,2,0:0:0:0:
341,56,352840,5,2,0:0:0:0:
409,139,353071,1,0,0:0:0:0:
372,264,353301,1,2,0:0:0:0:
197,304,353532,1,0,0:0:0:0:
99,172,353763,2,0,B|18:79|82:-25|85:25|73:62|7:102|35:75,1,200,2|0,0:0|0:0,0:0:0:0:
32,242,354455,1,0,0:0:0:0:
185,210,354686,6,0,L|293:192,1,100,2|0,0:0|0:0,0:0:0:0:
298,191,355032,1,0,0:0:0:0:
312,188,355147,2,0,L|362:80,1,100,2|0,0:0|0:0,0:0:0:0:
458,188,355609,1,2,0:0:0:0:
450,175,355724,1,0,0:0:0:0:
356,293,355955,1,0,0:0:0:0:
364,280,356070,2,0,L|393:221,1,50,2|0,0:0|0:0,0:0:0:0:
452,274,356301,2,0,L|429:318,1,50,2|0,0:0|0:0,0:0:0:0:
304,353,356532,6,0,L|168:329,1,100,2|0,0:0|0:0,0:0:0:0:
190,332,356878,1,0,0:0:0:0:
175,328,356994,2,0,L|129:217,1,100,2|0,0:0|0:0,0:0:0:0:
82,123,357455,1,2,0:0:0:0:
76,109,357570,1,0,0:0:0:0:
209,165,357801,1,0,0:0:0:0:
203,179,357917,1,2,0:0:0:0:
174,52,358147,1,2,0:0:0:0:
276,100,358378,6,0,L|390:85,1,100,2|0,0:0|0:0,0:0:0:0:
390,86,358724,1,0,0:0:0:0:
405,86,358840,2,0,L|513:100,1,100,2|0,0:0|0:0,0:0:0:0:
449,200,359301,1,2,0:0:0:0:
462,206,359417,1,2,0:0:0:0:
447,298,359648,1,0,0:0:0:0:
451,311,359764,1,2,0:0:0:0:
362,355,359994,1,0,0:0:0:0:
356,368,360110,1,2,0:0:0:0:
268,315,360224,6,0,L|134:294,1,100,2|0,0:0|0:0,0:0:0:0:
154,296,360570,1,0,0:0:0:0:
139,293,360686,2,0,L|68:295,1,50,2|0,0:0|0:0,0:0:0:0:
51,223,360917,2,0,L|100:221,1,50,2|0,0:0|0:0,0:0:0:0:
220,180,361148,5,2,0:0:0:0:
237,183,361264,1,0,0:0:0:0:
319,183,361378,1,0,0:0:0:0:
316,200,361494,1,0,0:0:0:0:
399,189,361609,5,2,0:0:0:0:
416,186,361725,1,0,0:0:0:0:
491,172,361840,1,2,0:0:0:0:
