osu file format v14

[General]
AudioFilename: future gazer.mp3
AudioLeadIn: 2000
PreviewTime: 120000
Countdown: 0
SampleSet: Soft
StackLeniency: 0.7
Mode: 0
LetterboxInBreaks: 0
WidescreenStoryboard: 1

[Editor]
Bookmarks: 512,14425,31816,45729,61381,75294,90946,104859,120511,134425,150077,163990,179642,193555,207468,221381,237033,240511
DistanceSpacing: 1.3
BeatDivisor: 4
GridSize: 4
TimelineZoom: 1

[Metadata]
Title:future gazer
TitleUnicode:future gazer
Artist:fripSide
ArtistUnicode:fripSide
Creator:Project Railgun
Version:railgun style
Source:Toaru Kagaku no Railgun
Tags:alarido toybot yaymii project_railgun
BeatmapID:293770
BeatmapSetID:106931

[Difficulty]
HPDrainRate:6.5
CircleSize:4
OverallDifficulty:6.6
ApproachRate:9.2
SliderMultiplier:2
SliderTickRate:1

[Events]
//Background and Video events
0,0,"BG-future-gazer.jpg",0,0
//Break Periods
//Storyboard Layer 0 (Background)
//Storyboard Layer 1 (Fail)
//Storyboard Layer 2 (Pass)
//Storyboard Layer 3 (Foreground)
//Storyboard Sound Samples

[TimingPoints]
512,434.782608695652,4,2,0,50,1,0
14425,-80,4,2,0,80,0,1
14533,-80,4,2,0,80,0,0
31816,-100,4,2,0,60,0,0
45729,-100,4,2,0,70,0,0
61381,-74.0740740740741,4,2,0,80,0,1
74425,-74.0740740740741,4,2,0,80,0,0
75294,-80,4,2,0,80,0,1
90946,-100,4,2,0,80,0,0
120511,-100,4,2,0,80,0,1
133555,-100,4,2,0,80,0,0
134425,-100,4,2,0,80,0,1
150077,-100,4,2,0,80,0,0
163990,-100,4,2,0,80,0,1
164098,-100,4,2,0,80,0,0
193555,-100,4,2,0,80,0,1
206598,-100,4,2,0,80,0,0
207468,-100,4,2,0,80,0,1
220511,-100,4,2,0,80,0,0
221381,-100,4,2,0,80,0,1
235240,-100,4,2,0,80,0,0
235294,-100,4,2,0,80,0,1
237033,-100,4,2,0,80,0,0

[Colours]
Combo1 : 0,217,217
Combo2 : 230,19,72
Combo3 : 156,213,38
Combo4 : 216,92,56
Combo5 : 183,78,218
Combo6 : 20,116,211
Combo7 : 232,193,40
Combo8 : 185,51,121

[HitObjects]
256,40,512,5,4,0:0:0:0:
151,255,946,2,0,P|143:181|185:121,1,150,2|0,0:0|0:0,0:0:0:0:
360,158,1381,2,0,P|368:232|326:292,1,150,2|0,0:0|0:0,0:0:0:0:
256,352,1816,1,2,0:0:0:0:
151,255,2033,1,0,0:0:0:0:
52,356,2251,1,2,0:0:0:0:
40,324,2685,6,0,L|25:174,1,150,2|0,0:0|0:0,0:0:0:0:
160,56,3120,2,0,L|174:205,1,150,2|0,0:0|0:0,0:0:0:0:
256,352,3555,1,2,0:0:0:0:
338,205,3772,1,0,0:0:0:0:
174,205,3990,1,2,0:0:0:0:
323,287,4425,6,0,P|393:270|418:202,1,150,2|0,0:0|0:0,0:0:0:0:
188,287,4859,2,0,P|118:270|93:202,1,150,2|0,0:0|0:0,0:0:0:0:
256,56,5294,2,0,L|256:206,1,150,2|0,0:0|0:0,0:0:0:0:
256,340,5729,5,2,0:0:0:0:
128,232,5946,1,0,0:0:0:0:
256,340,6164,1,2,0:0:0:0:
384,232,6381,1,0,0:0:0:0:
320,128,6598,2,0,P|252:99|186:129,1,150,2|0,0:0|0:0,0:0:0:0:
128,232,7033,1,2,0:0:0:0:
256,340,7251,1,0,0:0:0:0:
384,232,7468,1,2,0:0:0:0:
185,129,7903,6,0,P|117:156|81:220,1,150,2|0,0:0|0:0,0:0:0:0:
326,129,8338,2,0,P|394:156|430:220,1,150,2|0,0:0|0:0,0:0:0:0:
256,360,8772,1,2,0:0:0:0:
81,220,8990,1,0,0:0:0:0:
256,68,9207,1,2,0:0:0:0:
288,100,9642,6,0,P|360:108|436:82,1,150,2|0,0:0|0:0,0:0:0:0:
312,236,10077,2,0,P|240:228|164:254,1,150,2|0,0:0|0:0,0:0:0:0:
112,172,10511,1,2,0:0:0:0:
256,40,10729,1,0,0:0:0:0:
400,172,10946,1,2,0:0:0:0:
240,28,11598,5,0,0:0:0:0:
416,192,11816,1,2,0:0:0:0:
224,16,12468,5,0,0:0:0:0:
460,232,12685,2,0,L|439:135,1,100,2|0,0:0|0:0,0:0:0:0:
252,308,13011,2,0,L|264:356,1,50,0|2,0:0|0:0,0:0:0:0:
52,208,13338,1,0,0:0:0:0:
164,52,13555,6,0,P|196:48|228:28,1,50,2|0,0:0|0:0,0:0:0:0:
240,168,13772,2,0,L|276:128,1,50,2|0,0:0|0:0,0:0:0:0:
356,272,13990,2,0,L|340:224,1,50,2|0,0:0|0:0,0:0:0:0:
51,207,14207,1,2,0:0:0:0:
51,207,14425,6,0,L|76:48,1,125,4|0,0:0|0:0,0:0:0:0:
128,28,14751,1,0,0:0:0:0:
196,68,14859,2,0,P|255:84|315:68,1,125,2|0,0:0|0:0,0:0:0:0:
256,220,15294,1,8,0:0:0:0:
396,304,15511,2,0,L|414:363,1,62.5
456,224,15729,1,2,0:0:0:0:
376,84,15946,1,0,0:0:0:0:
224,140,16164,6,0,P|165:159|104:150,1,125,4|0,0:0|0:0,0:0:0:0:
48,92,16490,1,0,0:0:0:0:
4,160,16598,2,0,L|15:284,1,125,2|0,0:0|0:0,0:0:0:0:
148,290,17033,2,0,L|160:352,1,62.5,2|0,0:0|0:0,0:0:0:0:
256,224,17251,2,0,L|244:162,1,62.5
403,335,17468,1,8,0:0:0:0:
440,360,17685,1,0,0:0:0:0:
160,352,17903,6,0,L|36:332,1,125,4|0,0:0|0:0,0:0:0:0:
256,224,18338,1,2,0:0:0:0:
403,335,18555,1,0,0:0:0:0:
480,180,18772,2,0,L|488:112,1,62.5,8|0,0:0|0:0,0:0:0:0:
360,200,19098,2,0,P|298:197|244:227,1,125,2|0,0:0|0:0,0:0:0:0:
188,312,19425,1,2,0:0:0:0:
60,140,19642,6,0,P|151:128|216:72,1,125,4|0,0:0|0:0,0:0:0:0:
244,60,19968,2,0,L|368:62,1,125,2|0,0:0|0:0,0:0:0:0:
428,120,20294,1,2,0:0:0:0:
356,264,20511,2,0,P|356:295|346:324,1,62.5,2|0,0:0|0:0,0:0:0:0:
157,264,20729,2,0,P|147:235|148:204,1,62.5,2|0,0:0|0:0,0:0:0:0:
364,176,20946,1,8,0:0:0:0:
172,340,21164,1,2,0:0:0:0:
68,120,21381,6,0,P|129:112|178:75,1,125,4|0,0:0|0:0,0:0:0:0:
256,28,21707,1,0,0:0:0:0:
333,74,21816,2,0,P|382:111|444:120,1,125,2|0,0:0|0:0,0:0:0:0:
256,356,22251,1,8,0:0:0:0:
68,179,22468,2,0,P|64:148|52:120,1,62.5
8,272,22685,1,2,0:0:0:0:
256,28,22903,1,0,0:0:0:0:
279,247,23120,6,0,P|324:289|384:279,1,125,4|0,0:0|0:0,0:0:0:0:
444,224,23446,1,0,0:0:0:0:
480,152,23555,2,0,L|456:16,1,125,2|0,0:0|0:0,0:0:0:0:
256,28,23990,2,0,L|272:100,1,62.5,2|0,0:0|0:0,0:0:0:0:
148,156,24207,2,0,L|130:96,1,62.5
40,32,24425,1,8,0:0:0:0:
72,240,24642,1,2,0:0:0:0:
292,212,24859,6,0,L|414:186,1,125,4|0,0:0|0:0,0:0:0:0:
488,236,25185,1,0,0:0:0:0:
448,316,25294,2,0,L|326:343,1,125,2|0,0:0|0:0,0:0:0:0:
72,240,25729,6,0,P|38:187|25:127,1,125,4|0,0:0|0:0,0:0:0:0:
68,52,26055,1,0,0:0:0:0:
152,76,26164,2,0,P|186:127|197:188,1,125,2|0,0:0|0:0,0:0:0:0:
200,352,26598,6,0,L|340:344,1,125,4|0,0:0|0:0,0:0:0:0:
396,296,26925,1,0,0:0:0:0:
460,236,27033,2,0,P|439:177|446:116,1,125,2|0,0:0|0:0,0:0:0:0:
156,280,27468,6,0,L|32:292,1,125,4|0,0:0|0:0,0:0:0:0:
256,48,27903,2,0,L|380:36,1,125,4|0,0:0|0:0,0:0:0:0:
445,116,28229,1,0,0:0:0:0:
500,196,28338,6,0,P|481:254|437:298,1,125,4|0,0:0|0:0,0:0:0:0:
311,99,28772,2,0,P|313:68|323:38,1,62.5,2|0,0:0|0:0,0:0:0:0:
196,80,28990,2,0,P|181:52|175:21,1,62.5
64,104,29207,2,0,P|84:136|112:156,1,62.5,2|0,0:0|0:0,0:0:0:0:
108,260,29425,2,0,P|68:272|32:260,1,62.5
200,368,29642,2,0,L|228:284,1,62.5,2|0,0:0|0:0,0:0:0:0:
352,364,29859,2,0,L|339:302,1,62.5
352,212,30077,6,0,P|412:199|461:161,1,125,4|0,0:0|0:0,0:0:0:0:
476,52,30403,1,0,0:0:0:0:
360,12,30511,2,2,L|236:30,1,125,2|0,0:0|0:0,0:0:0:0:
104,208,30946,2,0,L|95:269,1,62.5,4|0,0:0|0:0,0:0:0:0:
256,360,31164,2,0,L|244:298,1,62.5,2|0,0:0|0:0,0:0:0:0:
360,196,31381,2,0,L|381:254,1,62.5,4|0,0:0|0:0,0:0:0:0:
204,160,31598,2,0,L|222:100,1,62.5,2|0,0:0|0:0,0:0:0:0:
432,16,31816,5,4,0:0:0:0:
404,168,33338,5,0,0:0:0:0:
456,352,33555,1,2,0:0:0:0:
308,144,35294,5,2,0:0:0:0:
288,72,36816,5,0,0:0:0:0:
163,271,37033,1,2,0:0:0:0:
163,271,37903,6,0,P|127:207|124:132,1,150,4|0,0:0|0:0,0:0:0:0:
387,132,38338,2,0,P|384:207|348:271,1,150,6|0,0:0|0:0,0:0:0:0:
112,292,38772,6,0,L|13:277,1,100,4|0,0:0|0:0,0:0:0:0:
176,76,39207,2,0,L|275:91,1,100,2|0,0:0|0:0,0:0:0:0:
456,224,39642,2,0,P|442:296|387:344,1,150,2|0,0:0|0:0,0:0:0:0:
256,328,40077,1,2,0:0:0:0:
256,148,40294,1,0,0:0:0:0:
104,204,40511,5,4,0:0:0:0:
256,48,40729,1,2,0:0:0:0:
408,204,40946,1,0,0:0:0:0:
256,48,41164,1,2,0:0:0:0:
132,284,41381,2,0,P|185:334|258:345,1,150,4|0,0:0|0:0,0:0:0:0:
352,312,41816,1,2,0:0:0:0:
440,100,42033,1,0,0:0:0:0:
256,48,42251,6,0,P|160:76|96:48,1,150,4|0,0:0|0:0,0:0:0:0:
56,24,42685,2,0,L|84:176,1,150,2|0,0:0|0:0,0:0:0:0:
28,276,43120,1,2,0:0:0:0:
168,348,43338,1,0,0:0:0:0:
272,188,43555,1,2,0:0:0:0:
420,264,43772,1,0,0:0:0:0:
265,325,43990,6,0,L|167:348,1,100,4|0,0:0|0:0,0:0:0:0:
88,316,44316,1,0,0:0:0:0:
32,244,44425,2,0,P|27:194|43:147,1,100,2|0,0:0|0:0,0:0:0:0:
260,92,44859,2,0,L|263:42,1,50,2|0,0:0|0:0,0:0:0:0:
428,200,45077,2,0,L|424:249,1,50
152,336,45294,2,0,P|175:342|200:343,1,50,2|0,0:0|0:0,0:0:0:0:
312,207,45511,2,0,P|288:200|264:200,1,50,2|0,0:0|0:0,0:0:0:0:
88,232,45729,6,0,P|79:157|100:86,1,150,4|0,0:0|0:0,0:0:0:0:
184,24,46164,1,2,0:0:0:0:
368,116,46381,1,0,0:0:0:0:
256,284,46598,2,0,P|327:303|397:280,2,150,2|2|2,0:0|0:0|0:0,0:0:0:0:
88,160,47468,6,0,L|93:60,1,100,4|0,0:0|0:0,0:0:0:0:
371,66,47794,2,0,L|367:115,1,50,0|2,0:0|0:0,0:0:0:0:
256,284,48120,1,0,0:0:0:0:
40,240,48338,2,0,P|12:200|3:151,1,100,2|0,0:0|0:0,0:0:0:0:
120,32,48772,2,0,L|169:27,1,50,2|0,0:0|0:0,0:0:0:0:
284,120,48990,2,0,L|235:125,1,50,2|0,0:0|0:0,0:0:0:0:
128,200,49207,6,0,P|124:274|145:346,1,150,4|0,0:0|0:0,0:0:0:0:
366,346,49642,2,0,P|387:274|384:200,1,150,2|0,0:0|0:0,0:0:0:0:
156,80,50077,1,2,0:0:0:0:
128,200,50294,1,2,0:0:0:0:
100,320,50511,1,0,0:0:0:0:
256,188,50729,1,2,0:0:0:0:
365,345,50946,6,0,P|440:340|504:299,1,150,4|0,0:0|0:0,0:0:0:0:
511,203,51381,1,2,0:0:0:0:
356,60,51598,1,0,0:0:0:0:
180,176,51816,2,0,L|184:260,1,50,2|0,0:0|0:0,0:0:0:0:
340,304,52033,2,0,L|352:244,1,50
424,360,52251,1,8,0:0:0:0:
296,168,52468,1,0,0:0:0:0:
192,336,52685,6,0,P|119:349|48:316,1,150,4|0,0:0|0:0,0:0:0:0:
24,256,53120,2,0,L|15:156,1,100,2|0,0:0|0:0,0:0:0:0:
128,28,53555,1,2,0:0:0:0:
256,116,53772,1,0,0:0:0:0:
168,244,53990,1,8,0:0:0:0:
324,324,54207,2,0,L|388:328,1,50
480,340,54425,6,0,P|488:290|485:241,1,100,4|0,0:0|0:0,0:0:0:0:
460,180,54751,1,0,0:0:0:0:
404,144,54859,2,0,L|304:147,1,100,2|0,0:0|0:0,0:0:0:0:
140,256,55294,2,0,L|153:304,1,50,2|0,0:0|0:0,0:0:0:0:
80,192,55511,1,0,0:0:0:0:
256,64,55729,1,8,0:0:0:0:
432,192,55946,1,0,0:0:0:0:
400,240,56164,6,0,B|312:204|312:300|210:263,1,200,4|2,0:0|0:0,0:0:0:0:
40,168,56816,2,0,P|49:145|55:121,1,50
112,48,57033,2,0,P|159:35|207:47,1,100,2|0,0:0|0:0,0:0:0:0:
276,80,57359,1,0,0:0:0:0:
340,124,57468,2,0,P|388:135|435:122,1,100,2|0,0:0|0:0,0:0:0:0:
256,352,57903,5,4,0:0:0:0:
96,192,58229,1,2,0:0:0:0:
256,32,58555,1,2,0:0:0:0:
416,192,58772,1,2,0:0:0:0:
132,248,59642,6,0,L|120:200,1,50,4|0,0:0|0:0,0:0:0:0:
296,88,59968,2,0,L|312:148,1,50,0|2,0:0|0:0,0:0:0:0:
68,324,60294,2,0,L|48:268,1,50,2|0,0:0|0:0,0:0:0:0:
104,56,60511,6,0,L|168:44,1,50,4|0,0:0|0:0,0:0:0:0:
240,152,60729,2,0,L|190:161,1,50,2|0,0:0|0:0,0:0:0:0:
344,312,60946,2,0,L|294:302,1,50,6|0,0:0|0:0,0:0:0:0:
381,197,61164,2,0,L|430:206,1,50,2|0,0:0|0:0,0:0:0:0:
304,32,61381,6,0,P|239:15|180:43,1,135.000000514984,4|0,0:0|0:0,0:0:0:0:
112,116,61707,1,0,0:0:0:0:
56,200,61816,2,0,L|68:360,1,135.000000514984,2|0,0:0|0:0,0:0:0:0:
256,200,62251,1,8,0:0:0:0:
396,360,62468,2,0,L|492:336,1,67.5000002574921
296,336,62685,1,2,0:0:0:0:
404,96,62903,1,0,0:0:0:0:
280,44,63120,6,0,L|136:40,1,135.000000514984,4|0,0:0|0:0,0:0:0:0:
68,104,63446,1,0,0:0:0:0:
16,188,63555,2,0,P|8:254|35:315,1,135.000000514984,2|0,0:0|0:0,0:0:0:0:
336,276,63990,2,0,P|348:244|353:211,1,67.5000002574921,2|0,0:0|0:0,0:0:0:0:
158,211,64207,2,0,P|163:244|176:276,1,67.5000002574921,2|0,0:0|0:0,0:0:0:0:
400,144,64425,1,8,0:0:0:0:
112,144,64642,1,0,0:0:0:0:
280,360,64859,6,0,L|416:344,1,135.000000514984,4|0,0:0|0:0,0:0:0:0:
140,336,65294,1,2,0:0:0:0:
78,173,65511,1,0,0:0:0:0:
256,76,65729,2,0,L|256:4,1,67.5000002574921,8|0,0:0|0:0,0:0:0:0:
206,193,66054,2,0,P|139:197|77:172,1,135.000000514984,2|0,0:0|0:0,0:0:0:0:
24,68,66381,1,2,0:0:0:0:
306,193,66598,6,0,P|372:197|434:172,1,135.000000514984,4|0,0:0|0:0,0:0:0:0:
488,68,66924,2,0,P|437:24|372:10,1,135.000000514984,2|0,0:0|0:0,0:0:0:0:
256,40,67250,1,2,0:0:0:0:
120,192,67468,2,0,L|112:264,1,67.5000002574921,2|0,0:0|0:0,0:0:0:0:
399,259,67685,2,0,L|392:192,1,67.5000002574921,2|0,0:0|0:0,0:0:0:0:
256,40,67902,1,8,0:0:0:0:
100,288,68120,1,0,0:0:0:0:
440,352,68337,6,0,P|486:303|498:238,1,135.000000514984,4|0,0:0|0:0,0:0:0:0:
464,156,68663,1,0,0:0:0:0:
388,108,68772,2,0,L|253:97,1,135.000000514984,2|0,0:0|0:0,0:0:0:0:
100,288,69207,1,8,0:0:0:0:
320,192,69424,2,0,L|388:200,1,67.5000002574921
256,272,69641,1,2,0:0:0:0:
256,20,69859,1,0,0:0:0:0:
120,191,70076,6,0,P|119:259|141:322,1,135.000000514984,4|0,0:0|0:0,0:0:0:0:
256,360,70403,1,0,0:0:0:0:
370,322,70511,2,0,P|392:259|391:191,1,135.000000514984,2|0,0:0|0:0,0:0:0:0:
144,32,70946,2,0,P|170:52|187:81,1,67.5000002574921,2|0,0:0|0:0,0:0:0:0:
324,81,71164,2,0,P|341:52|368:32,1,67.5000002574921,2|0,0:0|0:0,0:0:0:0:
134,330,71381,1,8,0:0:0:0:
391,191,71598,1,2,0:0:0:0:
187,81,71816,6,4,L|31:105,1,135.000000514984,4|0,0:0|0:0,0:0:0:0:
12,180,72142,1,0,0:0:0:0:
17,271,72251,2,0,P|68:313|133:329,1,135.000000514984,2|0,0:0|0:0,0:0:0:0:
416,232,72685,6,0,L|439:98,1,135.000000514984,4|0,0:0|0:0,0:0:0:0:
388,28,73011,1,0,0:0:0:0:
316,80,73120,2,0,P|251:96|188:75,1,135.000000514984,2|0,0:0|0:0,0:0:0:0:
60,327,73555,6,0,P|126:323|185:353,1,135.000000514984,4|0,0:0|0:0,0:0:0:0:
256,300,73881,1,0,0:0:0:0:
326,353,73990,2,0,P|385:323|451:327,1,135.000000514984,2|0,0:0|0:0,0:0:0:0:
256,32,74425,5,6,0:0:0:0:
60,192,74642,1,0,0:0:0:0:
256,356,74859,1,6,0:0:0:0:
452,191,75077,2,0,L|482:131,1,67.5000002574921
167,103,75294,6,0,P|189:161|182:223,1,125,4|0,0:0|0:0,0:0:0:0:
256,296,75620,1,0,0:0:0:0:
329,223,75729,2,0,P|322:161|344:103,1,125,2|0,0:0|0:0,0:0:0:0:
256,328,76164,1,8,0:0:0:0:
52,112,76381,2,0,L|28:36,1,62.5
0,188,76598,1,2,0:0:0:0:
256,360,76816,1,0,0:0:0:0:
451,183,77033,6,0,P|421:129|368:98,1,125,4|0,0:0|0:0,0:0:0:0:
256,160,77359,1,0,0:0:0:0:
143,98,77468,2,0,P|90:129|60:183,1,125,2|0,0:0|0:0,0:0:0:0:
407,352,77903,2,0,P|421:324|425:293,1,62.5,2|0,0:0|0:0,0:0:0:0:
249,97,78120,2,0,L|255:159,1,62.5,2|0,0:0|0:0,0:0:0:0:
92,328,78338,1,8,0:0:0:0:
56,364,78555,1,0,0:0:0:0:
332,104,78772,6,0,P|387:74|449:66,1,125,4|0,0:0|0:0,0:0:0:0:
92,328,79207,1,2,0:0:0:0:
255,159,79425,1,0,0:0:0:0:
420,328,79642,2,0,P|450:325|478:311,1,62.5,2|0,0:0|0:0,0:0:0:0:
316,176,79968,2,0,P|256:159|197:177,1,125,2|0,0:0|0:0,0:0:0:0:
92,328,80294,1,2,0:0:0:0:
416,224,80511,6,0,L|407:99,1,125,4|0,0:0|0:0,0:0:0:0:
336,36,80838,2,0,P|279:61|217:59,1,125,2|0,0:0|0:0,0:0:0:0:
136,24,81164,1,2,0:0:0:0:
40,140,81381,2,0,L|48:204,1,62.5,2|0,0:0|0:0,0:0:0:0:
256,248,81598,2,0,L|263:185,1,62.5,2|0,0:0|0:0,0:0:0:0:
168,344,81816,1,8,0:0:0:0:
472,148,82033,1,0,0:0:0:0:
472,148,82251,6,0,P|415:122|383:70,1,125,4|0,0:0|0:0,0:0:0:0:
304,20,82577,1,0,0:0:0:0:
236,80,82685,2,0,L|111:91,1,125,2|0,0:0|0:0,0:0:0:0:
