osu file format v14

[General]
AudioFilename: audio.mp3
AudioLeadIn: 0
PreviewTime: 64425
Countdown: 0
SampleSet: Soft
StackLeniency: 0.7
Mode: 3
LetterboxInBreaks: 0
SpecialStyle: 0
WidescreenStoryboard: 1

[Editor]
DistanceSpacing: 0.85
BeatDivisor: 4
GridSize: 32
TimelineZoom: 2

[Metadata]
Title:fortissimo -from insanity affection-
TitleUnicode:fortissimo -from insanity affection-
Artist:fripSide
ArtistUnicode:fripSide
Creator:Noch Einen
Version:Easy
Source:fortissimo EXS//Akkord:nächsten Phase
Tags:lacryma decade Bsusvier eroge japanese pop video game jpop アコルトネクステンファーゼ j-pop
BeatmapID:3915311
BeatmapSetID:1899485

[Difficulty]
HPDrainRate:7
CircleSize:7
OverallDifficulty:7
ApproachRate:5
SliderMultiplier:1.4
SliderTickRate:1

[Events]
//Background and Video events
0,0,"flat is justice.jpg",0,0
//Break Periods
//Storyboard Layer 0 (Background)
//Storyboard Layer 1 (Fail)
//Storyboard Layer 2 (Pass)
//Storyboard Layer 3 (Foreground)
//Storyboard Layer 4 (Overlay)
//Storyboard Sound Samples

[TimingPoints]
2325,400,4,2,1,50,1,0
64725,-100,4,2,1,50,0,1
93525,-100,4,2,1,50,0,0

[HitObjects]
36,192,2325,5,2,0:0:0:0:
182,192,2325,1,4,0:0:0:0:
256,192,2525,1,0,0:0:0:0:
329,192,2725,1,8,0:0:0:0:
402,192,3125,1,2,0:0:0:0:
182,192,3325,1,0,0:0:0:0:
475,192,3525,1,8,0:0:0:0:
109,192,3925,1,2,0:0:0:0:
256,192,4125,1,0,0:0:0:0:
402,192,4325,1,8,0:0:0:0:
256,192,4725,1,2,0:0:0:0:
475,192,4925,1,0,0:0:0:0:
109,192,5125,1,8,0:0:0:0:
329,192,5525,1,2,0:0:0:0:
475,192,5525,1,4,0:0:0:0:
256,192,5725,1,0,0:0:0:0:
182,192,5925,1,8,0:0:0:0:
109,192,6325,1,2,0:0:0:0:
329,192,6525,1,0,0:0:0:0:
36,192,6725,1,8,0:0:0:0:
329,192,7125,1,2,0:0:0:0:
182,192,7325,1,0,0:0:0:0:
36,192,7525,1,8,0:0:0:0:
402,192,7725,1,0,0:0:0:0:
256,192,7925,128,2,8725:0:0:0:0:
36,192,8725,1,2,0:0:0:0:
475,192,8725,128,4,9125:0:0:0:0:
182,192,9125,1,8,0:0:0:0:
329,192,9525,1,2,0:0:0:0:
109,192,9725,1,0,0:0:0:0:
256,192,9925,1,8,0:0:0:0:
402,192,10125,1,0,0:0:0:0:
182,192,10325,128,2,10725:0:0:0:0:
329,192,10725,1,8,0:0:0:0:
256,192,11125,1,2,0:0:0:0:
109,192,11525,1,8,0:0:0:0:
402,192,11925,128,2,12325:0:0:0:0:
182,192,12325,1,8,0:0:0:0:
329,192,12725,1,2,0:0:0:0:
36,192,12925,1,0,0:0:0:0:
182,192,13125,1,8,0:0:0:0:
402,192,13325,1,0,0:0:0:0:
256,192,13525,128,2,13925:0:0:0:0:
109,192,13925,1,8,0:0:0:0:
329,192,14325,1,2,0:0:0:0:
182,192,14525,1,0,0:0:0:0:
402,192,14725,1,8,0:0:0:0:
329,192,14925,1,2,0:0:0:0:
109,192,15125,1,2,0:0:0:0:
256,192,15125,128,4,15525:0:0:0:0:
36,192,15525,128,8,15925:0:0:0:0:
182,192,15925,1,2,0:0:0:0:
402,192,16125,1,0,0:0:0:0:
109,192,16325,1,8,0:0:0:0:
329,192,16525,1,0,0:0:0:0:
475,192,16725,128,2,17125:0:0:0:0:
256,192,17125,128,8,17525:0:0:0:0:
329,192,17525,1,2,0:0:0:0:
109,192,17725,1,0,0:0:0:0:
256,192,17925,1,8,0:0:0:0:
402,192,18125,1,0,0:0:0:0:
182,192,18325,1,2,0:0:0:0:
475,192,18325,128,4,18725:0:0:0:0:
109,192,18725,1,8,0:0:0:0:
256,192,19125,128,2,19525:0:0:0:0:
402,192,19525,1,8,0:0:0:0:
36,192,19925,128,2,20325:0:0:0:0:
182,192,19925,1,4,0:0:0:0:
402,192,20325,1,8,0:0:0:0:
329,192,20725,1,2,0:0:0:0:
36,192,20925,1,0,0:0:0:0:
182,192,21125,1,8,0:0:0:0:
329,192,21325,1,2,0:0:0:0:
256,192,21525,128,2,22725:0:0:0:0:
475,192,21925,1,8,0:0:0:0:
36,192,22325,1,2,0:0:0:0:
402,192,22725,1,8,0:0:0:0:
182,192,23125,128,2,24325:0:0:0:0:
329,192,23525,1,8,0:0:0:0:
402,192,23925,1,2,0:0:0:0:
475,192,24325,1,8,0:0:0:0:
329,192,24725,1,2,0:0:0:0:
475,192,24725,128,4,25525:0:0:0:0:
182,192,25525,1,0,0:0:0:0:
329,192,25725,1,0,0:0:0:0:
256,192,25925,1,0,0:0:0:0:
182,192,26125,1,0,0:0:0:0:
109,192,26325,128,0,27125:0:0:0:0:
402,192,26325,1,0,0:0:0:0:
329,192,27125,1,0,0:0:0:0:
256,192,27525,1,0,0:0:0:0:
36,192,27925,128,0,28725:0:0:0:0:
182,192,27925,1,0,0:0:0:0:
109,192,28725,1,0,0:0:0:0:
182,192,28925,1,0,0:0:0:0:
256,192,29125,1,0,0:0:0:0:
329,192,29325,1,0,0:0:0:0:
36,192,29525,1,0,0:0:0:0:
402,192,29525,128,0,30325:0:0:0:0:
182,192,30325,1,0,0:0:0:0:
109,192,30725,1,0,0:0:0:0:
329,192,31125,128,4,32125:0:0:0:0:
475,192,31125,128,0,32125:0:0:0:0:
182,192,32125,1,0,0:0:0:0:
256,192,32325,1,0,0:0:0:0:
329,192,32525,1,0,0:0:0:0:
109,192,32725,128,0,33525:0:0:0:0:
402,192,32725,1,0,0:0:0:0:
329,192,33525,1,0,0:0:0:0:
256,192,33925,1,0,0:0:0:0:
109,192,34325,1,0,0:0:0:0:
182,192,34325,128,0,35125:0:0:0:0:
36,192,35125,1,0,0:0:0:0:
329,192,35325,1,0,0:0:0:0:
182,192,35525,1,0,0:0:0:0:
109,192,35925,1,0,0:0:0:0:
329,192,35925,128,0,36725:0:0:0:0:
182,192,36725,1,2,0:0:0:0:
475,192,36725,1,0,0:0:0:0:
256,192,37025,1,2,0:0:0:0:
329,192,37325,1,2,0:0:0:0:
109,192,37525,1,2,0:0:0:0:
182,192,37525,1,4,0:0:0:0:
182,192,37925,1,2,0:0:0:0:
182,192,38325,1,2,0:0:0:0:
402,192,38525,1,0,0:0:0:0:
182,192,38725,1,2,0:0:0:0:
329,192,38925,1,0,0:0:0:0:
36,192,39125,1,2,0:0:0:0:
475,192,39125,1,0,0:0:0:0:
475,192,39525,1,2,0:0:0:0:
475,192,39925,1,2,0:0:0:0:
182,192,40125,1,0,0:0:0:0:
475,192,40325,1,2,0:0:0:0:
256,192,40525,1,0,0:0:0:0:
109,192,40725,1,2,0:0:0:0:
402,192,40725,1,0,0:0:0:0:
109,192,41125,1,2,0:0:0:0:
109,192,41525,1,2,0:0:0:0:
475,192,41725,1,0,0:0:0:0:
109,192,41925,1,2,0:0:0:0:
329,192,42125,1,0,0:0:0:0:
36,192,42325,1,2,0:0:0:0:
402,192,42325,1,0,0:0:0:0:
402,192,42725,1,2,0:0:0:0:
402,192,43125,1,2,0:0:0:0:
109,192,43325,1,0,0:0:0:0:
182,192,43525,1,2,0:0:0:0:
256,192,43725,1,2,0:0:0:0:
329,192,43925,1,2,0:0:0:0:
402,192,43925,1,4,0:0:0:0:
329,192,44325,1,2,0:0:0:0:
329,192,44725,1,2,0:0:0:0:
329,192,45125,1,2,0:0:0:0:
182,192,45525,1,2,0:0:0:0:
475,192,45525,1,0,0:0:0:0:
182,192,45925,1,2,0:0:0:0:
182,192,46325,1,2,0:0:0:0:
182,192,46725,1,2,0:0:0:0:
109,192,47125,1,2,0:0:0:0:
329,192,47125,1,0,0:0:0:0:
329,192,47525,1,2,0:0:0:0:
329,192,47925,1,2,0:0:0:0:
256,192,48125,1,0,0:0:0:0:
182,192,48325,1,0,0:0:0:0:
329,192,48525,1,2,0:0:0:0:
109,192,48725,1,2,0:0:0:0:
256,192,48725,1,0,0:0:0:0:
256,192,49125,1,2,0:0:0:0:
36,192,49525,1,2,0:0:0:0:
256,192,49525,1,0,0:0:0:0:
402,192,49725,1,2,0:0:0:0:
109,192,49925,128,2,50325:0:0:0:0:
329,192,50325,128,2,50725:0:0:0:0:
475,192,50325,1,4,0:0:0:0:
182,192,50725,128,8,51125:0:0:0:0:
36,192,51125,1,2,0:0:0:0:
475,192,51325,1,0,0:0:0:0:
329,192,51525,1,8,0:0:0:0:
182,192,51725,1,0,0:0:0:0:
402,192,51925,128,2,52225:0:0:0:0:
109,192,52225,128,0,52525:0:0:0:0:
256,192,52525,1,0,0:0:0:0:
402,192,52725,128,2,53125:0:0:0:0:
182,192,53125,1,8,0:0:0:0:
256,192,53325,1,0,0:0:0:0:
329,192,53525,128,2,53925:0:0:0:0:
182,192,53925,128,8,54325:0:0:0:0:
475,192,54325,1,2,0:0:0:0:
329,192,54525,1,0,0:0:0:0:
109,192,54725,1,8,0:0:0:0:
402,192,54925,1,0,0:0:0:0:
182,192,55125,128,2,55425:0:0:0:0:
256,192,55425,128,0,55725:0:0:0:0:
402,192,55725,1,0,0:0:0:0:
475,192,55925,128,2,56325:0:0:0:0:
329,192,56325,1,8,0:0:0:0:
182,192,56525,1,2,0:0:0:0:
36,192,56725,128,2,57025:0:0:0:0:
329,192,57025,128,0,57325:0:0:0:0:
109,192,57325,1,0,0:0:0:0:
475,192,57525,1,2,0:0:0:0:
329,192,57925,1,8,0:0:0:0:
182,192,58125,1,0,0:0:0:0:
402,192,58325,128,2,58625:0:0:0:0:
109,192,58625,128,0,58925:0:0:0:0:
329,192,58925,1,0,0:0:0:0:
182,192,59125,128,2,59425:0:0:0:0:
256,192,59425,128,0,59725:0:0:0:0:
329,192,59725,1,0,0:0:0:0:
36,192,59925,128,2,60325:0:0:0:0:
402,192,60325,1,8,0:0:0:0:
109,192,60725,1,2,0:0:0:0:
329,192,60925,1,0,0:0:0:0:
182,192,61125,1,8,0:0:0:0:
402,192,61325,1,0,0:0:0:0:
256,192,61525,128,2,61925:0:0:0:0:
475,192,61925,1,8,0:0:0:0:
402,192,62125,1,0,0:0:0:0:
329,192,62325,128,2,63525:0:0:0:0:
182,192,62725,1,8,0:0:0:0:
36,192,62925,1,2,0:0:0:0:
109,192,63325,1,2,0:0:0:0:
256,192,63525,1,2,0:0:0:0:
402,192,63725,1,2,0:0:0:0:
182,192,63925,1,2,0:0:0:0:
256,192,64125,1,2,0:0:0:0:
329,192,64325,128,2,64725:0:0:0:0:
36,192,64725,1,2,0:0:0:0:
109,192,64725,128,4,65125:0:0:0:0:
329,192,65125,1,8,0:0:0:0:
109,192,65525,1,2,0:0:0:0:
329,192,65725,1,0,0:0:0:0:
182,192,65925,1,8,0:0:0:0:
475,192,66125,1,0,0:0:0:0:
329,192,66325,128,2,66725:0:0:0:0:
36,192,66725,1,8,0:0:0:0:
182,192,67125,1,2,0:0:0:0:
109,192,67525,1,8,0:0:0:0:
256,192,67925,128,2,68325:0:0:0:0:
475,192,68325,1,8,0:0:0:0:
329,192,68725,1,2,0:0:0:0:
109,192,68925,1,0,0:0:0:0:
402,192,69125,1,8,0:0:0:0:
182,192,69325,1,0,0:0:0:0:
475,192,69525,128,2,69925:0:0:0:0:
256,192,69925,1,8,0:0:0:0:
109,192,70325,1,2,0:0:0:0:
329,192,70725,1,8,0:0:0:0:
256,192,70925,1,2,0:0:0:0:
36,192,71125,1,2,0:0:0:0:
182,192,71125,128,4,71525:0:0:0:0:
329,192,71525,128,8,71925:0:0:0:0:
109,192,71925,1,2,0:0:0:0:
256,192,72125,1,0,0:0:0:0:
402,192,72325,1,8,0:0:0:0:
182,192,72525,1,0,0:0:0:0:
329,192,72725,128,2,73125:0:0:0:0:
475,192,73125,128,8,73525:0:0:0:0:
182,192,73525,1,2,0:0:0:0:
329,192,73725,1,0,0:0:0:0:
109,192,73925,1,8,0:0:0:0:
256,192,74125,1,0,0:0:0:0:
402,192,74325,1,2,0:0:0:0:
475,192,74325,128,4,74725:0:0:0:0:
182,192,74725,1,8,0:0:0:0:
329,192,75125,1,2,0:0:0:0:
256,192,75325,1,0,0:0:0:0:
182,192,75525,1,8,0:0:0:0:
402,192,75725,1,0,0:0:0:0:
36,192,75925,1,2,0:0:0:0:
109,192,75925,128,4,76325:0:0:0:0:
329,192,76325,1,8,0:0:0:0:
256,192,76725,128,2,77125:0:0:0:0:
182,192,77125,1,8,0:0:0:0:
329,192,77325,1,2,0:0:0:0:
36,192,77525,128,2,77925:0:0:0:0:
475,192,77525,1,4,0:0:0:0:
329,192,77925,1,8,0:0:0:0:
182,192,78325,1,2,0:0:0:0:
402,192,78525,1,0,0:0:0:0:
256,192,78725,1,8,0:0:0:0:
475,192,78925,1,0,0:0:0:0:
182,192,79125,128,2,79525:0:0:0:0:
36,192,79525,1,8,0:0:0:0:
329,192,79925,1,2,0:0:0:0:
109,192,80325,1,8,0:0:0:0:
256,192,80725,128,2,81125:0:0:0:0:
402,192,81125,1,8,0:0:0:0:
182,192,81525,1,2,0:0:0:0:
329,192,81725,1,0,0:0:0:0:
402,192,81925,1,8,0:0:0:0:
182,192,82125,1,0,0:0:0:0:
329,192,82325,128,2,82725:0:0:0:0:
109,192,82725,1,8,0:0:0:0:
182,192,83125,1,2,0:0:0:0:
402,192,83525,1,8,0:0:0:0:
256,192,83725,1,2,0:0:0:0:
36,192,83925,1,2,0:0:0:0:
109,192,83925,1,4,0:0:0:0:
329,192,84325,128,8,84725:0:0:0:0:
36,192,84725,1,2,0:0:0:0:
182,192,84925,1,0,0:0:0:0:
475,192,85125,1,8,0:0:0:0:
109,192,85325,1,0,0:0:0:0:
329,192,85525,1,2,0:0:0:0:
256,192,85925,128,8,86325:0:0:0:0:
402,192,86325,1,2,0:0:0:0:
329,192,86525,1,0,0:0:0:0:
256,192,86725,1,8,0:0:0:0:
475,192,86925,1,0,0:0:0:0:
36,192,87125,1,2,0:0:0:0:
182,192,87125,128,4,87525:0:0:0:0:
329,192,87525,1,8,0:0:0:0:
36,192,87925,128,2,88325:0:0:0:0:
256,192,88325,1,8,0:0:0:0:
182,192,88725,1,2,0:0:0:0:
475,192,88725,128,4,89125:0:0:0:0:
109,192,89125,1,8,0:0:0:0:
329,192,89525,1,2,0:0:0:0:
109,192,89725,1,0,0:0:0:0:
256,192,89925,1,8,0:0:0:0:
402,192,90125,1,2,0:0:0:0:
182,192,90325,128,2,91125:0:0:0:0:
475,192,90725,1,8,0:0:0:0:
256,192,91125,1,2,0:0:0:0:
109,192,91525,1,8,0:0:0:0:
36,192,91925,128,2,92725:0:0:0:0:
475,192,92325,1,8,0:0:0:0:
256,192,92725,1,2,0:0:0:0:
182,192,93125,1,8,0:0:0:0:
475,192,93325,1,0,0:0:0:0:
36,192,93525,1,2,0:0:0:0:
329,192,93525,128,4,95125:0:0:0:0:
