osu file format v14

[General]
AudioFilename: audio.mp3
AudioLeadIn: 1500
PreviewTime: 68343
Countdown: 0
SampleSet: Soft
StackLeniency: 0.7
Mode: 0
LetterboxInBreaks: 0
WidescreenStoryboard: 0

[Editor]
Bookmarks: 8446,15021,28172,41323,54473,61049,82418,98857,105432
DistanceSpacing: 1.5
BeatDivisor: 4
GridSize: 4
TimelineZoom: 1.9

[Metadata]
Title:floral summer
TitleUnicode:floral summer
Artist:fripSide
ArtistUnicode:fripSide
Creator:-Maruk-
Version:Insane
Source:フローラル・フローラブ
Tags:floral flow love saga planets eroge opening
BeatmapID:1040749
BeatmapSetID:488118

[Difficulty]
HPDrainRate:7
CircleSize:4
OverallDifficulty:7.5
ApproachRate:8.5
SliderMultiplier:1.8
SliderTickRate:1

[Events]
//Background and Video events
Video,0,"floral.avi"
0,0,"BG.jpg",0,0
//Break Periods
//Storyboard Layer 0 (Background)
//Storyboard Layer 1 (Fail)
//Storyboard Layer 2 (Pass)
//Storyboard Layer 3 (Foreground)
//Storyboard Sound Samples

[TimingPoints]
1270,410.958904109589,4,2,1,60,1,0
1886,410.958904109589,4,2,1,60,1,0
1886,-125,4,2,1,60,0,0
8461,-100,4,2,1,70,0,0
15036,-125,4,2,1,60,0,0
28187,-100,4,2,1,60,0,0
34557,-100,4,2,1,50,0,0
34762,-100,4,2,1,60,0,0
40721,-100,4,2,1,50,0,0
41338,-100,4,2,1,60,0,0
69283,-83.3333333333333,4,2,1,70,0,1
98872,-100,4,2,1,60,0,0
105447,-125,4,2,1,50,0,0

[Colours]
Combo1 : 128,255,255
Combo2 : 255,128,128
Combo3 : 255,255,128
Combo4 : 128,255,128

[HitObjects]
256,112,1270,5,2,0:0:0:0:
328,216,1475,1,2,0:0:0:0:
376,60,1680,1,2,0:0:0:0:
224,128,1886,6,0,P|159:119|72:104,1,144,4|0,0:0|0:0,0:0:0:0:
288,256,2707,2,0,P|353:247|440:232,1,144,2|0,0:0|0:0,0:0:0:0:
192,176,3324,2,0,P|164:244|180:320,2,144,2|2|2,0:0|0:0|0:0,0:0:0:0:
192,176,4557,1,2,0:0:0:0:
288,256,4762,1,2,0:0:0:0:
308,132,4968,1,2,0:0:0:0:
180,288,5173,6,0,L|184:324,2,36,0|0|2,0:0|0:0|0:0,0:0:0:0:
100,188,5584,2,0,L|108:144,2,36,0|0|2,0:0|0:0|0:0,0:0:0:0:
228,208,5995,1,0,0:0:0:0:
228,208,6098,1,0,0:0:0:0:
228,208,6201,1,2,0:0:0:0:
72,296,6406,1,0,0:0:0:0:
72,296,6509,1,0,0:0:0:0:
72,296,6612,1,2,0:0:0:0:
212,332,6817,5,0,0:0:0:0:
229,328,6920,1,0,0:0:0:0:
246,328,7022,1,0,0:0:0:0:
263,333,7125,1,0,0:0:0:0:
278,342,7228,5,0,0:0:0:0:
320,356,7331,1,0,0:0:0:0:
364,352,7433,1,0,0:0:0:0:
400,332,7536,1,0,0:0:0:0:
424,296,7639,1,0,0:0:0:0:
428,252,7742,1,0,0:0:0:0:
420,208,7844,6,0,L|471:215,1,36,2|0,0:0|0:0,0:0:0:0:
356,120,8050,2,0,L|308:128,1,36,2|0,0:0|0:0,0:0:0:0:
220,184,8255,2,0,L|167:175,1,36,2|0,0:0|0:0,0:0:0:0:
80,120,8461,6,0,P|68:84|76:16,1,90,4|0,0:0|0:0,0:0:0:0:
184,177,8872,1,8,0:0:0:0:
80,244,9077,1,0,0:0:0:0:
216,156,9283,2,0,P|257:161|312:176,1,90,8|0,0:0|0:0,0:0:0:0:
416,248,9694,1,8,0:0:0:0:
404,140,9899,1,0,0:0:0:0:
300,252,10105,5,8,0:0:0:0:
392,376,10310,1,0,0:0:0:0:
432,228,10516,1,8,0:0:0:0:
268,304,10721,2,0,P|225:300|172:284,1,90,0|8,0:0|0:0,0:0:0:0:
56,232,11132,1,0,0:0:0:0:
84,336,11338,1,8,0:0:0:0:
148,200,11543,1,8,0:0:0:0:
148,200,11646,1,8,0:0:0:0:
148,200,11749,6,0,P|144:158|136:104,1,90,8|0,0:0|0:0,0:0:0:0:
24,252,12159,1,8,0:0:0:0:
148,200,12365,1,0,0:0:0:0:
24,148,12570,1,8,0:0:0:0:
140,288,12776,2,0,P|190:277|232:268,1,90,0|8,0:0|0:0,0:0:0:0:
324,148,13187,1,2,0:0:0:0:
324,148,13598,5,2,0:0:0:0:
248,236,13803,1,10,0:0:0:0:
324,328,14009,2,0,P|369:326|417:298,1,90,2|8,0:0|0:0,0:0:0:0:
472,168,14420,6,0,L|499:175,1,22.5,2|2,0:0|0:0,0:0:0:0:
460,136,14522,6,0,L|486:126,1,22.5,2|2,0:0|0:0,0:0:0:0:
436,104,14625,6,0,L|451:81,1,22.5,2|2,0:0|0:0,0:0:0:0:
400,84,14728,6,0,L|399:56,1,22.5,2|2,0:0|0:0,0:0:0:0:
352,80,14831,6,0,L|335:57,1,22.5,2|2,0:0|0:0,0:0:0:0:
300,92,14933,6,0,L|273:82,1,22.5,2|2,0:0|0:0,0:0:0:0:
264,120,15036,5,4,0:0:0:0:
264,120,15447,2,0,L|190:139,1,72
84,216,15858,2,0,P|156:232|223:252,1,144
336,304,16475,1,0,0:0:0:0:
308,208,16680,6,0,P|302:176|304:132,1,72,2|0,0:0|0:0,0:0:0:0:
420,247,17091,1,0,0:0:0:0:
336,304,17296,2,0,P|288:324|188:324,1,144
112,272,17913,2,0,P|101:316|98:342,1,72
204,224,18324,6,0,P|191:153|167:85,1,144,2|0,0:0|0:0,0:0:0:0:
72,176,18940,2,0,P|36:165|0:144,1,72,0|2,0:0|0:0,0:0:0:0:
108,280,19351,2,0,P|142:270|173:252,1,72
167,85,19762,1,0,0:0:0:0:
264,160,19968,6,0,P|324:172|372:96,1,144,2|0,0:0|0:0,0:0:0:0:
167,85,20584,2,0,P|154:123|150:160,1,72
196,292,20995,1,0,0:0:0:0:
240,200,21201,1,0,0:0:0:0:
120,226,21406,1,0,0:0:0:0:
224,316,21612,6,0,P|260:316|296:308,1,72,4|0,0:0|0:0,0:0:0:0:
376,248,22022,1,0,0:0:0:0:
376,248,22228,2,0,P|450:246|510:298,1,144
401,377,22844,1,0,0:0:0:0:
292,280,23050,1,0,0:0:0:0:
292,280,23255,6,0,P|291:239|300:200,1,72,2|0,0:0|0:0,0:0:0:0:
424,116,23666,1,0,0:0:0:0:
424,116,23872,2,0,P|430:151|429:187,1,72
297,208,24283,1,0,0:0:0:0:
320,104,24488,1,0,0:0:0:0:
376,256,24694,1,0,0:0:0:0:
252,196,24899,6,0,P|196:204|164:248,1,108,2|0,0:0|0:0,0:0:0:0:
152,276,25310,2,0,L|80:256,1,72
52,108,25721,1,2,0:0:0:0:
52,108,25927,2,0,L|126:128,1,72
252,108,26338,6,0,P|246:71|240:32,1,72,0|2,0:0|0:0,0:0:0:0:
186,170,26749,1,0,0:0:0:0:
288,92,26954,1,0,0:0:0:0:
312,212,27159,2,0,P|348:208|384:184,1,72
444,80,27570,1,0,0:0:0:0:
508,200,27776,1,8,0:0:0:0:
436,316,27981,1,8,0:0:0:0:
440,336,28084,1,8,0:0:0:0:
444,352,28187,5,4,0:0:0:0:
444,352,28598,2,0,P|396:348|352:328,1,90
276,260,29009,2,0,P|200:244|108:300,1,180
40,372,29625,1,0,0:0:0:0:
12,240,29831,6,0,P|3:192|0:140,1,90,2|0,0:0|0:0,0:0:0:0:
88,48,30242,1,0,0:0:0:0:
164,124,30447,2,0,P|204:148|256:144,1,90
352,64,30858,1,0,0:0:0:0:
225,15,31064,1,0,0:0:0:0:
246,147,31269,1,0,0:0:0:0:
384,60,31475,6,0,P|422:63|476:72,1,90,2|0,0:0|0:0,0:0:0:0:
356,168,31885,1,0,0:0:0:0:
376,276,32091,2,0,P|385:321|396:364,1,90,0|2,0:0|0:0,0:0:0:0:
488,260,32502,1,0,0:0:0:0:
424,176,32707,1,0,0:0:0:0:
348,308,32913,1,0,0:0:0:0:
196,336,33118,6,0,P|148:324|112:300,1,90,2|0,0:0|0:0,0:0:0:0:
72,172,33529,1,0,0:0:0:0:
36,300,33735,1,0,0:0:0:0:
164,216,33940,1,0,0:0:0:0:
72,84,34146,1,0,0:0:0:0:
4,232,34351,1,2,0:0:0:0:
160,120,34557,1,8,0:0:0:0:
160,120,34659,1,8,0:0:0:0:
160,120,34762,6,0,P|202:124|256:136,1,90,2|0,0:0|0:0,0:0:0:0:
344,188,35173,1,0,0:0:0:0:
444,144,35379,2,0,P|464:88|464:52,1,90
312,56,35790,1,0,0:0:0:0:
344,188,35995,1,0,0:0:0:0:
212,152,36201,1,0,0:0:0:0:
240,304,36406,6,0,P|284:328|344:336,1,90,2|0,0:0|0:0,0:0:0:0:
428,312,36817,1,0,0:0:0:0:
384,184,37022,2,0,P|393:141|416:92,1,90
484,224,37433,1,0,0:0:0:0:
348,176,37639,1,0,0:0:0:0:
376,316,37844,1,0,0:0:0:0:
376,316,37947,1,0,0:0:0:0:
376,316,38050,6,0,L|284:304,1,90,2|0,0:0|0:0,0:0:0:0:
188,344,38461,1,0,0:0:0:0:
100,232,38666,1,0,0:0:0:0:
100,232,38769,1,0,0:0:0:0:
100,232,38872,2,0,P|104:192|120:140,1,90,2|0,0:0|0:0,0:0:0:0:
184,60,39283,1,0,0:0:0:0:
244,192,39488,1,0,0:0:0:0:
244,192,39591,1,0,0:0:0:0:
244,192,39694,6,0,P|286:205|331:210,1,90,2|0,0:0|0:0,0:0:0:0:
428,164,40105,1,0,0:0:0:0:
480,296,40310,2,0,P|448:328|392:348,1,90
268,284,40721,5,8,0:0:0:0:
240,268,40824,1,8,0:0:0:0:
208,264,40927,1,8,0:0:0:0:
176,264,41029,1,8,0:0:0:0:
144,272,41132,1,8,0:0:0:0:
116,284,41235,1,8,0:0:0:0:
88,300,41338,5,4,0:0:0:0:
36,176,41543,1,0,0:0:0:0:
172,192,41749,1,8,0:0:0:0:
8,264,41954,1,2,0:0:0:0:
60,92,42159,5,0,0:0:0:0:
224,164,42365,1,0,0:0:0:0:
136,8,42570,1,8,0:0:0:0:
116,188,42776,1,0,0:0:0:0:
232,52,42981,5,2,0:0:0:0:
188,256,43187,1,0,0:0:0:0:
124,60,43392,1,8,0:0:0:0:
296,176,43598,1,2,0:0:0:0:
88,176,43803,5,0,0:0:0:0:
252,52,44009,1,0,0:0:0:0:
272,256,44214,1,8,0:0:0:0:
144,300,44420,1,0,0:0:0:0:
168,168,44625,5,2,0:0:0:0:
228,336,44831,1,0,0:0:0:0:
312,176,45036,1,8,0:0:0:0:
157,269,45242,1,2,0:0:0:0:
360,304,45447,5,0,0:0:0:0:
204,168,45653,1,0,0:0:0:0:
124,360,45858,1,8,0:0:0:0:
288,232,46064,1,0,0:0:0:0:
84,188,46269,5,2,0:0:0:0:
232,332,46475,1,0,0:0:0:0:
332,152,46680,1,8,0:0:0:0:
156,260,46886,1,2,0:0:0:0:
360,288,47091,5,2,0:0:0:0:
382,291,47194,1,2,0:0:0:0:
404,289,47296,1,2,0:0:0:0:
425,281,47399,1,2,0:0:0:0:
440,265,47502,1,6,0:0:0:0:
447,243,47605,1,2,0:0:0:0:
445,220,47707,1,2,0:0:0:0:
439,198,47810,1,2,0:0:0:0:
433,176,47913,6,0,P|439:133|453:72,1,90,4|0,0:0|0:0,0:0:0:0:
297,221,48324,2,0,P|303:178|317:117,1,90,8|0,0:0|0:0,0:0:0:0:
157,268,48735,2,0,P|119:262|75:230,1,90
100,100,49146,1,8,0:0:0:0:
4,152,49351,1,0,0:0:0:0:
156,180,49557,6,0,L|256:160,1,90,2|0,0:0|0:0,0:0:0:0:
376,84,49968,1,8,0:0:0:0:
280,32,50173,1,0,0:0:0:0:
332,204,50379,1,0,0:0:0:0:
428,256,50584,1,0,0:0:0:0:
244,162,50790,2,0,L|136:184,1,90,8|0,0:0|0:0,0:0:0:0:
52,304,51201,6,0,P|98:330|180:304,1,135,2|0,0:0|0:0,0:0:0:0:
248,284,51612,2,0,P|296:294|336:312,1,90,8|0,0:0|0:0,0:0:0:0:
464,172,52022,2,0,P|422:189|378:198,1,90
280,104,52433,1,8,0:0:0:0:
148,124,52639,6,0,P|151:75|168:24,1,90,0|2,0:0|0:0,0:0:0:0:
256,188,53050,1,0,0:0:0:0:
132,236,53255,2,0,P|92:236|40:212,1,90,8|0,0:0|0:0,0:0:0:0:
120,104,53666,1,0,0:0:0:0:
248,152,53872,1,0,0:0:0:0:
220,284,54077,1,8,0:0:0:0:
174,156,54283,1,0,0:0:0:0:
284,232,54488,5,4,0:0:0:0:
148,232,54694,1,0,0:0:0:0:
220,344,54899,1,8,0:0:0:0:
268,180,55105,1,2,0:0:0:0:
104,136,55310,5,0,0:0:0:0:
228,252,55516,1,0,0:0:0:0:
204,84,55721,1,8,0:0:0:0:
128,236,55927,1,0,0:0:0:0:
316,152,56132,5,2,0:0:0:0:
124,72,56338,1,0,0:0:0:0:
228,252,56543,1,8,0:0:0:0:
244,44,56749,1,2,0:0:0:0:
108,200,56954,5,0,0:0:0:0:
296,112,57159,1,0,0:0:0:0:
272,320,57365,1,8,0:0:0:0:
220,196,57570,1,0,0:0:0:0:
136,304,57776,5,2,0:0:0:0:
308,356,57981,1,0,0:0:0:0:
292,176,58187,1,8,0:0:0:0:
216,340,58392,1,2,0:0:0:0:
376,260,58598,5,0,0:0:0:0:
200,228,58803,1,0,0:0:0:0:
360,144,59009,1,8,0:0:0:0:
276,304,59214,1,0,0:0:0:0:
240,100,59420,5,2,0:0:0:0:
376,260,59625,1,0,0:0:0:0:
404,56,59831,1,8,0:0:0:0:
272,212,60036,1,2,0:0:0:0:
476,168,60242,5,2,0:0:0:0:
485,148,60344,1,2,0:0:0:0:
486,125,60447,1,2,0:0:0:0:
480,103,60550,1,2,0:0:0:0:
468,83,60653,1,6,0:0:0:0:
448,72,60755,1,2,0:0:0:0:
425,68,60858,1,2,0:0:0:0:
402,70,60961,1,2,0:0:0:0:
382,80,61064,6,0,P|344:88|252:36,1,135,4|0,0:0|0:0,0:0:0:0:
208,104,61475,2,0,P|211:154|216:204,1,90,8|0,0:0|0:0,0:0:0:0:
196,328,61885,1,0,0:0:0:0:
300,304,62091,2,0,P|342:313|396:328,1,90,0|8,0:0|0:0,0:0:0:0:
320,168,62502,1,0,0:0:0:0:
214,193,62707,6,0,P|170:204|126:214,1,90,2|0,0:0|0:0,0:0:0:0:
68,336,63118,1,8,0:0:0:0:
12,212,63324,1,0,0:0:0:0:
160,244,63529,1,0,0:0:0:0:
12,285,63735,1,0,0:0:0:0:
100,160,63940,2,0,P|112:116|112:64,1,90,8|0,0:0|0:0,0:0:0:0:
28,240,64351,6,0,P|88:264|192:216,1,180,2|8,0:0|0:0,0:0:0:0:
244,96,64968,1,0,0:0:0:0:
280,224,65173,1,0,0:0:0:0:
156,132,65379,1,0,0:0:0:0:
296,72,65584,1,8,0:0:0:0:
240,236,65790,6,0,P|225:280|212:328,1,90,0|2,0:0|0:0,0:0:0:0:
348,296,66201,1,0,0:0:0:0:
360,160,66406,1,8,0:0:0:0:
232,208,66612,1,0,0:0:0:0:
376,284,66817,2,0,P|400:284|468:252,1,90
360,160,67228,1,8,0:0:0:0:
268,312,67433,1,8,0:0:0:0:
268,312,67536,1,8,0:0:0:0:
220,184,67742,5,8,0:0:0:0:
220,184,67844,2,0,L|204:140,1,45,0|8,0:0|0:0,0:0:0:0:
136,264,68050,2,0,L|120:307,1,45
44,192,68255,1,8,0:0:0:0:
144,100,68461,5,8,0:0:0:0:
172,76,68564,1,8,0:0:0:0:
208,68,68666,1,8,0:0:0:0:
244,76,68769,1,8,0:0:0:0:
272,96,68872,1,8,0:0:0:0:
304,108,68975,1,8,0:0:0:0:
340,108,69077,1,8,0:0:0:0:
372,92,69180,1,8,0:0:0:0:
404,68,69283,6,0,P|452:52|428:160,1,215.999993408203,4|8,0:0|0:0,0:0:0:0:
332,224,69899,1,0,0:0:0:0:
444,292,70105,1,8,0:0:0:0:
376,156,70310,1,0,0:0:0:0:
284,292,70516,1,8,0:0:0:0:
456,200,70721,1,0,0:0:0:0:
336,348,70927,6,0,P|248:364|216:256,1,215.999993408203,8|8,0:0|0:0,0:0:0:0:
292,160,71543,1,0,0:0:0:0:
176,100,71749,1,8,0:0:0:0:
292,244,71954,1,0,0:0:0:0:
268,64,72159,1,8,0:0:0:0:
116,168,72365,1,8,0:0:0:0:
116,168,72468,1,8,0:0:0:0:
116,168,72570,6,0,P|64:164|8:136,1,107.999996704102,4|0,0:0|0:0,0:0:0:0:
136,32,72981,1,8,0:0:0:0:
244,152,73187,2,0,P|240:208|212:260,1,107.999996704102,0|8,0:0|0:0,0:0:0:0:
104,316,73598,1,0,0:0:0:0:
136,192,73803,1,8,0:0:0:0:
216,356,74009,6,0,P|264:356|316:324,1,107.999996704102,0|8,0:0|0:0,0:0:0:0:
396,228,74420,1,0,0:0:0:0:
316,128,74625,2,0,P|320:76|344:20,1,107.999996704102,8|0,0:0|0:0,0:0:0:0:
472,120,75036,1,4,0:0:0:0:
396,228,75242,2,0,P|344:252|292:252,1,107.999996704102,0|8,0:0|0:0,0:0:0:0:
204,116,75653,1,8,0:0:0:0:
204,116,75755,1,8,0:0:0:0:
204,116,75858,6,0,P|128:68|84:164,1,215.999993408203,4|8,0:0|0:0,0:0:0:0:
152,268,76475,1,0,0:0:0:0:
24,276,76680,1,8,0:0:0:0:
168,348,76886,1,0,0:0:0:0:
84,212,77091,1,8,0:0:0:0:
228,284,77296,1,2,0:0:0:0:
260,296,77399,1,2,0:0:0:0:
292,300,77502,5,10,0:0:0:0:
324,296,77605,1,2,0:0:0:0:
352,284,77707,1,2,0:0:0:0:
376,264,77810,1,2,0:0:0:0:
392,236,77913,2,0,P|442:239|504:248,1,107.999996704102,10|0,0:0|0:0,0:0:0:0:
424,104,78324,1,8,0:0:0:0:
304,148,78529,1,0,0:0:0:0:
388,8,78735,1,8,0:0:0:0:
380,200,78940,1,8,0:0:0:0:
380,200,79043,1,8,0:0:0:0:
380,200,79146,6,0,P|304:244|232:208,1,161.999995056153,8|0,0:0|0:0,0:0:0:0:
184,160,79557,2,0,P|138:168|64:192,1,107.999996704102,8|0,0:0|0:0,0:0:0:0:
144,336,79968,1,8,0:0:0:0:
56,200,80173,1,0,0:0:0:0:
196,256,80379,2,0,P|247:271|300:281,1,107.999996704102,8|0,0:0|0:0,0:0:0:0:
416,220,80790,5,8,0:0:0:0:
384,344,80995,1,0,0:0:0:0:
304,204,81201,2,0,P|308:152|324:88,1,107.999996704102,8|0,0:0|0:0,0:0:0:0:
472,160,81612,1,8,0:0:0:0:
412,44,81817,1,0,0:0:0:0:
304,204,82022,1,2,0:0:0:0:
264,228,82125,1,2,0:0:0:0:
216,236,82228,1,2,0:0:0:0:
168,224,82331,1,2,0:0:0:0:
124,200,82433,6,0,P|56:192|12:316,1,215.999993408203,4|8,0:0|0:0,0:0:0:0:
140,324,83050,1,0,0:0:0:0:
124,200,83255,1,8,0:0:0:0:
64,364,83461,1,0,0:0:0:0:
200,256,83666,1,8,0:0:0:0:
60,156,83872,1,0,0:0:0:0:
140,324,84077,6,0,P|232:344|290:248,1,215.999993408203,8|8,0:0|0:0,0:0:0:0:
268,124,84694,1,0,0:0:0:0:
172,208,84899,1,8,0:0:0:0:
332,180,85105,1,0,0:0:0:0:
212,72,85310,1,8,0:0:0:0:
260,232,85516,1,8,0:0:0:0:
260,232,85618,1,8,0:0:0:0:
260,232,85721,6,0,P|320:268|412:216,1,161.999995056153,8|0,0:0|0:0,0:0:0:0:
436,164,86132,2,0,P|441:110|452:40,1,107.999996704102,8|0,0:0|0:0,0:0:0:0:
246,124,86543,2,0,P|253:177|259:231,1,107.999996704102,8|0,0:0|0:0,0:0:0:0:
220,356,86954,1,8,0:0:0:0:
112,284,87159,6,0,P|56:292|-4:312,1,107.999996704102,0|8,0:0|0:0,0:0:0:0:
96,156,87570,1,0,0:0:0:0:
212,216,87776,2,0,P|263:231|316:239,1,107.999996704102,8|0,0:0|0:0,0:0:0:0:
444,204,88187,1,8,0:0:0:0:
328,144,88392,1,0,0:0:0:0:
396,292,88598,1,8,0:0:0:0:
408,100,88803,1,8,0:0:0:0:
408,100,88906,1,8,0:0:0:0:
408,100,89009,6,0,P|320:52|240:124,1,215.999993408203,4|8,0:0|0:0,0:0:0:0:
212,244,89625,1,0,0:0:0:0:
336,212,89831,1,8,0:0:0:0:
180,168,90036,1,0,0:0:0:0:
248,316,90242,1,8,0:0:0:0:
272,124,90447,1,2,0:0:0:0:
272,124,90550,1,2,0:0:0:0:
272,124,90653,6,0,P|184:44|104:96,1,215.999993408203,2|8,0:0|0:0,0:0:0:0:
60,268,91269,1,0,0:0:0:0:
32,140,91475,1,8,0:0:0:0:
176,216,91680,1,0,0:0:0:0:
0,216,91886,1,8,0:0:0:0:
144,308,92091,1,8,0:0:0:0:
144,308,92194,1,8,0:0:0:0:
144,308,92296,6,0,P|218:310|272:228,1,161.999995056153,8|0,0:0|0:0,0:0:0:0:
300,172,92707,2,0,P|356:180|412:196,1,107.999996704102,8|0,0:0|0:0,0:0:0:0:
492,292,93118,1,8,0:0:0:0:
364,304,93324,1,0,0:0:0:0:
492,204,93529,1,8,0:0:0:0:
360,108,93735,6,0,P|340:64|320:8,1,107.999996704102,0|8,0:0|0:0,0:0:0:0:
480,80,94146,1,0,0:0:0:0:
388,212,94351,2,0,P|332:212|284:180,1,107.999996704102,8|0,0:0|0:0,0:0:0:0:
212,60,94762,2,0,P|152:44|96:128,1,161.999995056153,8|0,0:0|0:0,0:0:0:0:
96,196,95173,2,0,P|100:256|112:316,1,107.999996704102,8|0,0:0|0:0,0:0:0:0:
256,372,95584,5,4,0:0:0:0:
256,192,95687,12,0,97639,0:0:0:0:
208,152,98255,5,2,0:0:0:0:
332,188,98460,1,2,0:0:0:0:
312,60,98666,1,2,0:0:0:0:
172,160,98872,6,0,P|174:210|180:252,1,90,4|0,0:0|0:0,0:0:0:0:
260,344,99283,1,8,0:0:0:0:
300,224,99488,1,0,0:0:0:0:
176,332,99694,2,0,P|128:328|88:304,1,90,8|0,0:0|0:0,0:0:0:0:
64,156,100105,1,8,0:0:0:0:
156,240,100310,1,0,0:0:0:0:
4,224,100516,5,8,0:0:0:0:
144,160,100721,1,0,0:0:0:0:
16,72,100927,1,8,0:0:0:0:
92,236,101132,2,0,P|140:260|184:268,1,90,0|8,0:0|0:0,0:0:0:0:
320,220,101543,1,0,0:0:0:0:
264,332,101749,1,8,0:0:0:0:
196,224,101954,1,8,0:0:0:0:
196,224,102057,1,8,0:0:0:0:
196,224,102159,6,0,P|204:180|220:128,1,90,8|0,0:0|0:0,0:0:0:0:
332,52,102570,2,0,P|344:95|352:139,1,90,8|0,0:0|0:0,0:0:0:0:
316,268,102981,1,8,0:0:0:0:
420,232,103187,2,0,P|464:240|520:260,1,90,0|8,0:0|0:0,0:0:0:0:
352,139,103598,1,2,0:0:0:0:
352,139,104009,5,2,0:0:0:0:
332,244,104214,1,10,0:0:0:0:
308,348,104420,2,0,P|268:352|208:336,1,90,2|8,0:0|0:0,0:0:0:0:
108,284,104831,6,0,L|76:296,1,22.5,2|2,0:0|0:0,0:0:0:0:
68,256,104933,6,0,L|34:250,1,22.5,2|2,0:0|0:0,0:0:0:0:
48,212,105036,6,0,L|21:190,1,22.5,2|2,0:0|0:0,0:0:0:0:
48,160,105139,6,0,L|36:127,1,22.5,2|2,0:0|0:0,0:0:0:0:
80,124,105242,6,0,L|85:90,1,22.5,2|2,0:0|0:0,0:0:0:0:
124,104,105344,6,0,L|145:77,1,22.5,2|2,0:0|0:0,0:0:0:0:
164,104,105447,5,2,0:0:0:0:
164,104,105858,2,0,L|243:71,1,72,2|0,0:0|0:0,0:0:0:0:
310,227,106475,2,0,L|244:200,1,72,2|0,0:0|0:0,0:0:0:0:
328,104,106886,2,0,L|394:76,1,72,2|0,0:0|0:0,0:0:0:0:
412,200,107296,2,0,P|412:256|344:328,1,144,2|2,0:0|0:0,0:0:0:0:
