osu file format v14

[General]
AudioFilename: audio.mp3
AudioLeadIn: 1500
PreviewTime: 68343
Countdown: 0
SampleSet: Soft
StackLeniency: 0.7
Mode: 0
LetterboxInBreaks: 0
WidescreenStoryboard: 0

[Editor]
Bookmarks: 8446,15021,28172,41323,54473,61049,82418,98857,105432
DistanceSpacing: 1.4
BeatDivisor: 4
GridSize: 4
TimelineZoom: 1.9

[Metadata]
Title:floral summer
TitleUnicode:floral summer
Artist:fripSide
ArtistUnicode:fripSide
Creator:-Maruk-
Version:Hard
Source:フローラル・フローラブ
Tags:floral flow love saga planets eroge opening
BeatmapID:1040748
BeatmapSetID:488118

[Difficulty]
HPDrainRate:6
CircleSize:4
OverallDifficulty:6
ApproachRate:7.5
SliderMultiplier:1.5
SliderTickRate:1

[Events]
//Background and Video events
Video,0,"floral.avi"
0,0,"BG.jpg",0,0
//Break Periods
//Storyboard Layer 0 (Background)
//Storyboard Layer 1 (Fail)
//Storyboard Layer 2 (Pass)
//Storyboard Layer 3 (Foreground)
//Storyboard Sound Samples

[TimingPoints]
1270,410.958904109589,4,2,1,60,1,0
1886,410.958904109589,4,2,1,60,1,0
1886,-125,4,2,1,60,0,0
8461,-100,4,2,1,70,0,0
15036,-125,4,2,1,60,0,0
28187,-100,4,2,1,60,0,0
34557,-100,4,2,1,50,0,0
34762,-100,4,2,1,60,0,0
40721,-100,4,2,1,50,0,0
41338,-100,4,2,1,60,0,0
69283,-100,4,2,1,70,0,1
98872,-100,4,2,1,60,0,0
105447,-125,4,2,1,60,0,0

[Colours]
Combo1 : 128,255,255
Combo2 : 255,128,128
Combo3 : 255,255,128
Combo4 : 128,255,128

[HitObjects]
192,176,1270,5,2,0:0:0:0:
304,156,1475,1,2,0:0:0:0:
264,260,1680,1,2,0:0:0:0:
164,164,1886,6,0,L|176:40,1,120,4|0,0:0|0:0,0:0:0:0:
340,184,2707,2,0,L|351:303,1,120,2|0,0:0|0:0,0:0:0:0:
256,356,3324,2,0,P|200:360|124:320,2,120,2|2|2,0:0|0:0|0:0,0:0:0:0:
340,184,4557,1,2,0:0:0:0:
384,284,4762,1,2,0:0:0:0:
276,276,4968,1,2,0:0:0:0:
248,140,5173,6,0,L|240:92,2,30,2|0|0,0:0|0:0|0:0,0:0:0:0:
144,172,5584,2,0,L|152:124,2,30,2|0|0,0:0|0:0|0:0,0:0:0:0:
84,264,5995,2,0,L|88:293,2,30,2|0|0,0:0|0:0|0:0,0:0:0:0:
184,308,6406,2,0,L|179:337,2,30,2|0|0,0:0|0:0|0:0,0:0:0:0:
264,212,6817,6,0,L|312:216,9,30,2|0|0|0|0|0|0|0|0|0,0:0|0:0|0:0|0:0|0:0|0:0|0:0|0:0|0:0|0:0,0:0:0:0:
344,220,7844,1,2,0:0:0:0:
428,280,8050,1,2,0:0:0:0:
468,188,8255,1,2,0:0:0:0:
428,84,8461,6,0,P|386:88|344:96,1,75,4|0,0:0|0:0,0:0:0:0:
268,152,8872,2,0,P|226:148|184:140,1,75,8|0,0:0|0:0,0:0:0:0:
112,76,9283,1,8,0:0:0:0:
40,152,9488,2,0,P|41:198|48:240,1,75,0|8,0:0|0:0,0:0:0:0:
144,332,9899,6,0,P|156:296|160:259,1,75,2|8,0:0|0:0,0:0:0:0:
264,272,10310,2,0,P|260:234|248:199,1,75,2|8,0:0|0:0,0:0:0:0:
348,168,10721,2,0,P|329:135|302:109,1,75,2|8,0:0|0:0,0:0:0:0:
208,68,11132,1,2,0:0:0:0:
148,156,11338,1,10,0:0:0:0:
160,259,11543,6,0,P|196:263|236:283,1,75,2|8,0:0|0:0,0:0:0:0:
316,340,11954,2,0,P|340:312|348:264,1,75,2|8,0:0|0:0,0:0:0:0:
328,172,12365,1,0,0:0:0:0:
428,200,12570,1,8,0:0:0:0:
408,96,12776,2,0,L|300:76,1,75,0|8,0:0|0:0,0:0:0:0:
200,96,13187,1,2,0:0:0:0:
200,96,13598,5,2,0:0:0:0:
100,60,13803,1,2,0:0:0:0:
112,164,14009,2,0,P|108:204|80:248,1,75,2|0,0:0|0:0,0:0:0:0:
28,320,14420,2,0,P|65:329|104:344,1,75,2|8,0:0|0:0,0:0:0:0:
200,376,14831,1,0,0:0:0:0:
188,264,15036,5,4,0:0:0:0:
188,264,15447,2,0,P|183:233|180:200,1,60
180,120,15858,2,0,P|200:72|280:76,1,120
340,100,16475,1,0,0:0:0:0:
416,140,16680,6,0,P|468:116|472:56,1,120,2|0,0:0|0:0,0:0:0:0:
340,100,17296,2,0,P|332:139|332:167,1,60
376,232,17707,2,0,P|371:297|336:336,1,120
236,296,18324,6,0,P|176:300|120:340,1,120,2|0,0:0|0:0,0:0:0:0:
64,276,18940,2,0,P|56:244|56:196,1,60,0|2,0:0|0:0,0:0:0:0:
76,136,19351,2,0,P|107:140|136:148,1,60
212,184,19762,1,0,0:0:0:0:
288,108,19968,6,0,P|336:96|376:152,1,120,2|0,0:0|0:0,0:0:0:0:
356,228,20584,2,0,P|359:262|368:288,1,60
444,320,20995,2,0,L|502:306,2,60,0|2|0,0:0|0:0|0:0,0:0:0:0:
367,286,21612,6,0,P|316:288|252:312,1,120,4|0,0:0|0:0,0:0:0:0:
184,360,22228,2,0,P|132:356|88:300,1,120
60,228,22844,2,0,P|55:196|60:156,1,60
96,68,23255,6,0,P|128:56|184:120,1,120,2|0,0:0|0:0,0:0:0:0:
168,192,23872,2,0,P|208:192|268:128,1,120
268,56,24488,2,0,P|304:64|332:80,1,60
400,152,24899,6,0,P|436:128|420:44,1,120,2|0,0:0|0:0,0:0:0:0:
324,74,25516,1,0,0:0:0:0:
288,152,25721,1,2,0:0:0:0:
288,152,25927,2,0,P|280:224|312:280,1,120
384,260,26543,5,2,0:0:0:0:
384,260,26749,2,0,P|421:261|456:272,1,60
400,364,27159,2,0,P|348:364|280:332,1,120
236,268,27776,1,8,0:0:0:0:
180,204,27981,1,8,0:0:0:0:
180,204,28084,1,8,0:0:0:0:
180,204,28187,6,0,P|148:208|100:224,1,75,4|0,0:0|0:0,0:0:0:0:
40,104,28598,2,0,P|75:115|112:120,1,75,8|0,0:0|0:0,0:0:0:0:
196,56,29009,2,0,P|240:36|272:124,1,150,0|8,0:0|0:0,0:0:0:0:
236,204,29625,1,0,0:0:0:0:
236,204,29831,6,0,P|228:248|224:288,1,75,2|0,0:0|0:0,0:0:0:0:
132,324,30242,1,8,0:0:0:0:
132,324,30447,2,0,P|124:280|120:240,1,75
112,144,30858,1,0,0:0:0:0:
216,168,31064,2,0,P|248:168|292:144,1,75,8|0,0:0|0:0,0:0:0:0:
388,60,31475,6,0,P|420:68|464:104,1,75,2|0,0:0|0:0,0:0:0:0:
480,192,31885,1,8,0:0:0:0:
480,192,32091,2,0,L|464:272,1,75,0|2,0:0|0:0,0:0:0:0:
400,348,32502,1,0,0:0:0:0:
308,300,32707,2,0,P|264:304|224:324,1,75,8|0,0:0|0:0,0:0:0:0:
108,364,33118,6,0,P|68:332|80:232,1,150,2|8,0:0|0:0,0:0:0:0:
120,144,33735,2,0,P|154:151|196:168,1,75
272,236,34146,2,0,P|306:228|348:212,2,75,0|2|0,0:0|0:0|0:0,0:0:0:0:
191,165,34762,6,0,P|184:136|188:92,1,75,2|0,0:0|0:0,0:0:0:0:
288,40,35173,1,8,0:0:0:0:
288,40,35379,2,0,P|292:77|285:113,1,75
244,196,35790,2,0,P|252:252|272:292,1,75
364,256,36201,1,0,0:0:0:0:
364,256,36406,6,0,P|424:264|440:272,1,75,2|0,0:0|0:0,0:0:0:0:
380,360,36817,1,8,0:0:0:0:
380,360,37022,2,0,P|320:352|304:344,1,75
224,280,37433,2,0,P|183:285|148:296,1,75,0|8,0:0|0:0,0:0:0:0:
52,328,37844,1,0,0:0:0:0:
24,228,38050,6,0,P|16:192|16:148,2,75,2|0|8,0:0|0:0|0:0,0:0:0:0:
52,328,38666,1,0,0:0:0:0:
150,295,38872,2,0,P|158:258|158:221,1,75,2|0,0:0|0:0,0:0:0:0:
132,120,39283,1,8,0:0:0:0:
200,40,39488,1,0,0:0:0:0:
296,88,39694,6,0,P|328:88|376:68,2,75,2|0|0,0:0|0:0|0:0,0:0:0:0:
200,40,40310,2,0,L|204:128,1,75
188,240,40721,2,0,L|228:228,5,37.5,8|8|8|8|8|8,0:0|0:0|0:0|0:0|0:0|0:0,0:0:0:0:
260,220,41338,6,0,P|296:224|344:240,1,75,4|0,0:0|0:0,0:0:0:0:
420,296,41749,1,8,0:0:0:0:
428,192,41954,1,2,0:0:0:0:
333,235,42159,1,0,0:0:0:0:
300,136,42365,2,0,P|292:96|292:56,1,75,0|8,0:0|0:0,0:0:0:0:
392,12,42776,1,0,0:0:0:0:
392,12,42981,6,0,P|399:48|400:86,1,75,2|0,0:0|0:0,0:0:0:0:
388,192,43392,1,8,0:0:0:0:
328,280,43598,2,0,P|328:328|344:364,1,75,2|0,0:0|0:0,0:0:0:0:
432,304,44009,1,0,0:0:0:0:
480,212,44214,2,0,P|480:164|464:128,2,75,8|0|2,0:0|0:0|0:0,0:0:0:0:
432,304,44831,5,0,0:0:0:0:
328,280,45036,1,8,0:0:0:0:
244,344,45242,1,2,0:0:0:0:
188,256,45447,2,0,P|146:267|112:280,1,75
16,312,45858,1,8,0:0:0:0:
28,208,46064,1,0,0:0:0:0:
28,208,46269,6,0,L|36:128,1,75,2|0,0:0|0:0,0:0:0:0:
104,52,46680,1,8,0:0:0:0:
172,132,46886,2,0,P|216:124|248:112,1,75,2|0,0:0|0:0,0:0:0:0:
324,44,47296,1,0,0:0:0:0:
424,72,47502,1,8,0:0:0:0:
464,168,47707,1,0,0:0:0:0:
464,168,47810,1,0,0:0:0:0:
464,168,47913,6,0,P|472:248|460:320,2,150,4|8|0,0:0|0:0|0:0,0:0:0:0:
424,72,48940,1,0,0:0:0:0:
352,152,49146,2,0,P|312:180|276:184,1,75,8|0,0:0|0:0,0:0:0:0:
188,144,49557,6,0,P|182:191|180:232,1,75,2|0,0:0|0:0,0:0:0:0:
156,320,49968,2,0,P|88:320|40:248,2,150,8|0|8,0:0|0:0|0:0,0:0:0:0:
252,280,50995,1,0,0:0:0:0:
340,220,51201,6,0,P|378:226|424:236,1,75,2|0,0:0|0:0,0:0:0:0:
452,332,51612,2,0,P|415:324|378:318,1,75,8|0,0:0|0:0,0:0:0:0:
340,220,52022,2,0,P|336:180|336:136,1,75
424,88,52433,2,0,P|428:128|428:172,1,75,8|0,0:0|0:0,0:0:0:0:
412,272,52844,5,2,0:0:0:0:
412,272,53050,2,0,P|380:292|332:300,1,75,0|8,0:0|0:0,0:0:0:0:
256,244,53461,1,0,0:0:0:0:
164,292,53666,1,0,0:0:0:0:
72,244,53872,1,0,0:0:0:0:
20,152,54077,2,0,P|24:116|36:72,1,75,8|0,0:0|0:0,0:0:0:0:
160,24,54488,6,0,P|169:60|173:97,1,75,4|0,0:0|0:0,0:0:0:0:
140,196,54899,1,8,0:0:0:0:
244,176,55105,1,2,0:0:0:0:
332,236,55310,1,0,0:0:0:0:
332,236,55516,2,0,P|364:236|408:208,1,75,0|8,0:0|0:0,0:0:0:0:
428,116,55927,1,0,0:0:0:0:
428,116,56132,6,0,P|396:116|352:144,1,75,2|0,0:0|0:0,0:0:0:0:
332,236,56543,1,8,0:0:0:0:
304,336,56749,2,0,P|264:336|220:320,1,75,2|0,0:0|0:0,0:0:0:0:
144,268,57159,1,0,0:0:0:0:
56,328,57365,1,8,0:0:0:0:
12,232,57570,1,0,0:0:0:0:
48,132,57776,6,0,P|60:96|60:48,1,75,2|0,0:0|0:0,0:0:0:0:
168,60,58187,1,8,0:0:0:0:
168,60,58392,2,0,P|169:97|181:132,1,75,2|0,0:0|0:0,0:0:0:0:
260,204,58803,2,0,P|296:204|336:192,1,75,0|8,0:0|0:0,0:0:0:0:
380,104,59214,1,0,0:0:0:0:
452,180,59420,6,0,P|451:226|448:256,1,75,2|0,0:0|0:0,0:0:0:0:
376,332,59831,1,8,0:0:0:0:
276,300,60036,2,0,P|236:305|200:320,1,75,2|0,0:0|0:0,0:0:0:0:
104,352,60447,1,0,0:0:0:0:
44,264,60653,1,8,0:0:0:0:
80,164,60858,1,2,0:0:0:0:
80,164,60961,1,2,0:0:0:0:
80,164,61064,6,0,P|116:176|160:176,1,75,4|0,0:0|0:0,0:0:0:0:
244,124,61475,2,0,P|276:132|324:156,1,75,8|0,0:0|0:0,0:0:0:0:
400,208,61885,1,0,0:0:0:0:
408,104,62091,1,0,0:0:0:0:
314,149,62296,2,0,P|312:192|304:232,1,75,8|0,0:0|0:0,0:0:0:0:
224,292,62707,6,0,P|156:300|84:240,2,150,2|8|0,0:0|0:0|0:0,0:0:0:0:
306,223,63735,1,0,0:0:0:0:
360,136,63940,2,0,P|372:100|368:52,1,75,8|0,0:0|0:0,0:0:0:0:
236,80,64351,6,0,P|184:80|116:4,1,150,2|8,0:0|0:0,0:0:0:0:
52,96,64968,2,0,L|36:176,1,75
84,264,65379,1,0,0:0:0:0:
84,264,65584,2,0,L|100:344,1,75,8|0,0:0|0:0,0:0:0:0:
188,280,65995,5,2,0:0:0:0:
284,320,66201,2,0,P|312:320|356:292,1,75,0|8,0:0|0:0,0:0:0:0:
400,204,66612,2,0,P|368:124|292:136,1,150
224,176,67228,1,8,0:0:0:0:
208,72,67433,2,0,P|182:78|164:84,1,37.5,8|8,0:0|0:0,0:0:0:0:
84,144,67742,5,8,0:0:0:0:
84,144,67844,2,0,L|28:128,2,37.5,0|8|0,0:0|0:0|0:0,0:0:0:0:
64,192,68153,2,0,L|27:181,2,37.5,0|8|0,0:0|0:0|0:0,0:0:0:0:
100,232,68461,2,0,P|107:249|120:268,3,37.5,8|8|8|8,0:0|0:0|0:0|0:0,0:0:0:0:
164,288,68872,2,0,P|184:288|220:276,3,37.5,8|8|8|8,0:0|0:0|0:0|0:0,0:0:0:0:
248,264,69283,6,0,P|304:260|384:312,1,150,4|8,0:0|0:0,0:0:0:0:
484,244,69899,1,0,0:0:0:0:
384,208,70105,1,8,0:0:0:0:
460,136,70310,1,0,0:0:0:0:
384,208,70516,2,0,P|356:204|308:168,1,75,8|0,0:0|0:0,0:0:0:0:
268,84,70927,6,0,P|199:62|144:108,1,150,8|8,0:0|0:0,0:0:0:0:
84,196,71543,1,0,0:0:0:0:
76,300,71749,1,8,0:0:0:0:
168,248,71954,2,0,P|184:216|188:168,1,75,0|8,0:0|0:0,0:0:0:0:
252,296,72365,1,8,0:0:0:0:
252,296,72468,1,8,0:0:0:0:
252,296,72570,6,0,P|256:333|272:366,1,75,4|0,0:0|0:0,0:0:0:0:
376,340,72981,1,8,0:0:0:0:
444,260,73187,2,0,P|457:224|464:184,1,75,0|8,0:0|0:0,0:0:0:0:
408,100,73598,2,0,P|368:108|332:124,1,75,0|8,0:0|0:0,0:0:0:0:
240,164,74009,1,0,0:0:0:0:
240,164,74214,6,0,P|232:132|236:84,1,75,8|0,0:0|0:0,0:0:0:0:
336,121,74625,2,0,P|338:158|330:194,1,75,8|0,0:0|0:0,0:0:0:0:
276,284,75036,1,4,0:0:0:0:
172,304,75242,1,0,0:0:0:0:
72,268,75447,1,8,0:0:0:0:
32,172,75653,1,8,0:0:0:0:
32,172,75755,1,8,0:0:0:0:
32,172,75858,6,0,P|40:108|124:96,1,150,4|8,0:0|0:0,0:0:0:0:
204,148,76475,1,0,0:0:0:0:
292,88,76680,2,0,P|312:60|320:20,2,75,8|0|8,0:0|0:0|0:0,0:0:0:0:
204,148,77296,1,0,0:0:0:0:
300,192,77502,6,0,P|384:176|456:168,1,150,8|8,0:0|0:0,0:0:0:0:
484,268,78118,1,0,0:0:0:0:
412,344,78324,1,8,0:0:0:0:
308,344,78529,1,0,0:0:0:0:
244,260,78735,2,0,P|208:264|168:280,1,75,8|0,0:0|0:0,0:0:0:0:
88,344,79146,6,0,P|40:332|28:236,2,150,8|8|8,0:0|0:0|0:0,0:0:0:0:
171,277,80173,1,0,0:0:0:0:
124,184,80379,2,0,P|127:143|140:100,1,75,8|0,0:0|0:0,0:0:0:0:
240,48,80790,6,0,P|249:84|252:121,1,75,8|0,0:0|0:0,0:0:0:0:
248,228,81201,2,0,P|284:224|324:196,1,75,8|0,0:0|0:0,0:0:0:0:
392,128,81612,2,0,P|411:130|432:136,3,37.5,2|2|2|2,0:0|0:0|0:0|0:0,0:0:0:0:
464,148,82022,2,0,P|469:171|472:187,3,37.5,2|2|2|2,0:0|0:0|0:0|0:0,0:0:0:0:
472,224,82433,6,0,P|464:288|396:336,1,150,4|8,0:0|0:0,0:0:0:0:
304,284,83050,1,0,0:0:0:0:
200,268,83255,1,8,0:0:0:0:
236,368,83461,1,0,0:0:0:0:
200,268,83666,2,0,P|160:276|124:292,1,75,8|0,0:0|0:0,0:0:0:0:
28,324,84077,6,0,P|8:264|40:168,1,150,8|8,0:0|0:0,0:0:0:0:
92,96,84694,1,0,0:0:0:0:
128,196,84899,1,8,0:0:0:0:
196,116,85105,1,0,0:0:0:0:
196,116,85310,2,0,P|230:119|280:132,1,75,8|0,0:0|0:0,0:0:0:0:
356,188,85721,6,0,P|412:144|380:64,1,150,4|8,0:0|0:0,0:0:0:0:
269,128,86338,1,0,0:0:0:0:
244,228,86543,2,0,P|234:271|236:306,1,75,8|0,0:0|0:0,0:0:0:0:
320,364,86954,1,8,0:0:0:0:
320,364,87159,2,0,P|352:360|396:340,1,75,0|8,0:0|0:0,0:0:0:0:
444,220,87571,5,0,0:0:0:0:
444,220,87776,2,0,P|412:224|368:244,1,75,8|0,0:0|0:0,0:0:0:0:
296,312,88187,1,8,0:0:0:0:
196,344,88392,2,0,P|156:340|120:320,1,75,0|8,0:0|0:0,0:0:0:0:
52,248,88803,1,8,0:0:0:0:
52,248,88906,1,8,0:0:0:0:
52,248,89009,6,0,P|24:184|40:108,1,150,4|8,0:0|0:0,0:0:0:0:
116,36,89625,1,0,0:0:0:0:
164,128,89831,1,8,0:0:0:0:
256,76,90036,2,0,P|304:68|336:72,2,75,0|8|0,0:0|0:0|0:0,0:0:0:0:
164,128,90653,6,0,P|164:176|256:232,1,150,8|8,0:0|0:0,0:0:0:0:
336,192,91269,1,0,0:0:0:0:
428,144,91475,2,0,P|471:148|512:156,1,75,8|0,0:0|0:0,0:0:0:0:
492,260,91886,1,8,0:0:0:0:
424,340,92091,1,8,0:0:0:0:
424,340,92194,1,8,0:0:0:0:
424,340,92296,6,0,P|360:316|268:328,1,150,4|8,0:0|0:0,0:0:0:0:
184,364,92913,1,0,0:0:0:0:
88,324,93118,2,0,P|76:288|76:248,1,75,8|0,0:0|0:0,0:0:0:0:
96,148,93529,2,0,P|136:152|180:168,1,75,8|0,0:0|0:0,0:0:0:0:
260,220,93940,5,8,0:0:0:0:
304,124,94146,2,0,P|298:83|284:40,1,75,0|8,0:0|0:0,0:0:0:0:
200,104,94557,1,0,0:0:0:0:
100,140,94762,2,0,P|52:112|52:40,2,112.5,8|8|8,0:0|0:0|0:0,0:0:0:0:
200,104,95584,6,0,P|252:92|316:172,1,150,4|8,0:0|0:0,0:0:0:0:
328,260,96201,1,0,0:0:0:0:
328,260,96406,1,8,0:0:0:0:
256,192,96509,12,0,97639,0:0:0:0:
332,200,98255,5,2,0:0:0:0:
432,232,98461,1,2,0:0:0:0:
412,128,98666,1,2,0:0:0:0:
332,200,98872,6,0,P|272:204|180:216,1,150,4|8,0:0|0:0,0:0:0:0:
116,296,99488,1,0,0:0:0:0:
40,224,99694,2,0,P|32:192|32:144,1,75,8|0,0:0|0:0,0:0:0:0:
64,52,100105,1,8,0:0:0:0:
64,52,100310,6,0,P|100:56|140:68,1,75,0|8,0:0|0:0,0:0:0:0:
220,132,100721,2,0,P|264:119|296:97,1,75,0|8,0:0|0:0,0:0:0:0:
372,40,101132,2,0,P|379:85|384:124,1,75,0|8,0:0|0:0,0:0:0:0:
396,220,101543,1,2,0:0:0:0:
476,148,101749,1,10,0:0:0:0:
396,220,101954,1,10,0:0:0:0:
396,220,102057,1,8,0:0:0:0:
396,220,102159,6,0,P|392:260|384:304,1,75,8|0,0:0|0:0,0:0:0:0:
288,336,102570,2,0,P|242:336|200:344,1,75,8|0,0:0|0:0,0:0:0:0:
108,356,102981,1,8,0:0:0:0:
44,272,103187,2,0,P|40:236|40:188,1,75,0|8,0:0|0:0,0:0:0:0:
72,96,103598,1,2,0:0:0:0:
72,96,104009,5,2,0:0:0:0:
152,164,104214,1,10,0:0:0:0:
224,88,104420,2,0,P|257:90|308:104,1,75,2|8,0:0|0:0,0:0:0:0:
392,148,104831,1,0,0:0:0:0:
456,232,105036,2,0,P|452:276|440:316,1,75,2|0,0:0|0:0,0:0:0:0:
348,356,105447,5,2,0:0:0:0:
348,356,105858,2,0,P|341:326|339:296,1,60,2|0,0:0|0:0,0:0:0:0:
368,132,106475,2,0,P|337:140|308:156,1,60,2|0,0:0|0:0,0:0:0:0:
244,204,106886,2,0,P|184:188|164:136,2,120,2|2|2,0:0|0:0|0:0,0:0:0:0:
