osu file format v14

[General]
AudioFilename: audio.mp3
AudioLeadIn: 0
PreviewTime: 67498
Countdown: 0
SampleSet: Soft
StackLeniency: 0.4
Mode: 0
LetterboxInBreaks: 0
WidescreenStoryboard: 1

[Editor]
DistanceSpacing: 0.2
BeatDivisor: 4
GridSize: 16
TimelineZoom: 1

[Metadata]
Title:floral summer
TitleUnicode:floral summer
Artist:fripSide
ArtistUnicode:fripSide
Creator:- Nilou -
Version:Suki desu!
Source:フローラル・フローラブ
Tags:eroge Floral Flowlove saga planets visual novel vn op opening galgame フロフロ japanese jpop j-pop pop Floflo video game leomine leominexd
BeatmapID:4384901
BeatmapSetID:2091912

[Difficulty]
HPDrainRate:5
CircleSize:3.6
OverallDifficulty:8.2
ApproachRate:8.5
SliderMultiplier:1.7
SliderTickRate:1

[Events]
//Background and Video events
Video,100,"Iloveerogesomuch.mp4"
0,0,"TokisakaSwimsuit.jpg",0,0
//Break Periods
//Storyboard Layer 0 (Background)
//Storyboard Layer 1 (Fail)
//Storyboard Layer 2 (Pass)
//Storyboard Layer 3 (Foreground)
//Storyboard Layer 4 (Overlay)
//Storyboard Sound Samples

[TimingPoints]
-618,410.958904109589,4,2,1,50,1,0
409,-138.888888888889,4,2,1,50,0,0
4518,-250,4,2,1,50,0,0
7601,-111.111111111111,4,2,1,80,0,0
14176,-111.111111111111,4,2,1,60,0,0
14998,-133.333333333333,4,2,1,60,0,0
27327,-133.333333333333,4,2,1,65,0,0
40477,-119.047619047619,4,2,1,70,0,0
60203,-111.111111111111,4,2,1,70,0,0
66779,-111.111111111111,4,2,1,75,0,0
68423,-95.2380952380952,4,2,1,85,0,0
94724,-95.2380952380952,4,2,1,80,0,0
98012,-111.111111111111,4,2,1,80,0,0
104587,-166.666666666667,4,2,1,70,0,0

[Colours]
Combo1 : 23,139,255
Combo2 : 147,220,255
Combo3 : 255,128,255
Combo4 : 255,193,255

[HitObjects]
48,76,409,6,0,P|39:37|33:7,2,61.2000014941407,2|2|2,2:2|2:2|2:2,0:0:0:0:
117,134,1025,6,0,P|164:97|223:107,2,122.400002988281,4|2|2,1:2|2:2|2:2,0:0:0:0:
117,134,2258,1,2,2:2:0:0:
282,170,2464,6,0,P|345:155|413:145,2,122.400002988281,2|2|2,2:2|2:2|2:2,0:0:0:0:
282,170,3697,2,0,P|293:218|296:239,1,61.2000014941407,2|2,2:2|2:2,0:0:0:0:
256,302,4108,2,0,P|225:307|196:314,1,61.2000014941407,2|2,2:2|2:2,0:0:0:0:
415,384,4518,6,0,P|396:241|309:364,1,374,2|2,2:2|2:2,0:0:0:0:
374,317,6984,1,2,2:2:0:0:
294,229,7190,1,2,2:2:0:0:
212,345,7395,1,2,2:2:0:0:
161,140,7601,6,0,P|209:149|248:160,1,76.4999976654053,4|0,1:2|0:0,0:0:0:0:
61,179,8012,2,0,P|29:216|0:244,1,76.4999976654053,10|0,2:2|1:1,0:0:0:0:
80,76,8423,2,0,P|63:29|53:-9,1,76.4999976654053,10|0,2:2|1:1,0:0:0:0:
61,179,8834,1,10,2:2:0:0:
171,45,9039,6,0,P|208:38|243:51,1,76.4999976654053,2|8,1:2|2:2,0:0:0:0:
385,205,9450,2,0,P|347:211|312:198,1,76.4999976654053,2|8,1:2|2:2,0:0:0:0:
447,47,9861,2,0,P|433:82|423:119,1,76.4999976654053,2|8,1:2|2:2,0:0:0:0:
469,262,10272,1,2,1:2:0:0:
337,111,10477,1,10,2:2:0:0:
234,246,10683,1,10,2:2:0:0:
234,246,10786,1,8,2:2:0:0:
234,246,10888,6,0,P|186:255|147:266,1,76.4999976654053,0|2,1:1|2:2,0:0:0:0:
385,205,11299,1,10,2:2:0:0:
271,54,11505,2,0,P|250:90|256:134,1,76.4999976654053,2|8,1:2|2:2,0:0:0:0:
462,179,11916,2,0,P|441:142|400:126,1,76.4999976654053,2|8,1:2|2:2,0:0:0:0:
250,276,12327,2,0,P|291:276|326:248,1,76.4999976654053,2|8,1:2|2:2,0:0:0:0:
251,123,12738,5,2,1:2:0:0:
251,123,12943,1,8,2:2:0:0:
165,300,13149,2,0,P|174:337|181:374,1,76.4999976654053,2|8,1:2|2:2,0:0:0:0:
88,249,13560,1,2,1:2:0:0:
251,123,13765,1,10,2:2:0:0:
287,111,13867,1,0,3:3:0:0:
325,119,13970,1,10,2:2:0:0:
355,140,14073,1,8,2:2:0:0:
373,174,14176,6,0,P|392:99|419:11,1,152.999995330811,4|2,1:2|2:2,0:0:0:0:
333,0,14792,1,2,1:2:0:0:
251,123,14998,2,0,P|190:137|139:96,1,127.500004863739,2|0,1:2|0:0,0:0:0:0:
22,100,15614,1,2,2:2:0:0:
138,17,15820,6,0,P|116:75|97:167,1,127.500004863739,2|2,1:2|2:2,0:0:0:0:
0,234,16436,2,0,B|71:217|71:217|90:250|132:255,1,127.500004863739,2|0,1:2|0:0,0:0:0:0:
223,208,17053,2,0,P|198:187|167:185,1,63.7500024318696
112,336,17464,6,0,P|173:354|242:302,1,127.500004863739,2|2,1:2|2:2,0:0:0:0:
299,254,18080,2,0,P|306:287|315:325,1,63.7500024318696,2|0,1:2|1:1,0:0:0:0:
411,372,18491,1,2,2:2:0:0:
411,372,18697,2,0,P|404:339|395:301,1,63.7500024318696,2|2,2:2|2:2,0:0:0:0:
339,180,19108,6,0,P|399:192|446:152,1,127.500004863739,0|0,1:1|0:0,0:0:0:0:
466,12,19724,2,0,P|473:43|479:74,1,63.7500024318696,0|0,1:1|1:1,0:0:0:0:
446,152,20135,1,2,2:2:0:0:
364,68,20340,1,2,2:2:0:0:
364,68,20546,1,2,2:2:0:0:
238,146,20751,6,0,P|251:197|266:276,1,127.500004863739,4|2,1:2|2:2,0:0:0:0:
235,360,21368,2,0,P|190:325|124:341,1,127.500004863739,2|0,1:2|0:0,0:0:0:0:
32,382,21984,2,0,P|38:350|45:319,1,63.7500024318696,0|2,0:0|2:2,0:0:0:0:
0,149,22395,6,0,P|45:184|111:168,1,127.500004863739,2|2,1:2|2:2,0:0:0:0:
125,31,23012,2,0,P|132:62|138:93,1,63.7500024318696,2|0,1:2|1:1,0:0:0:0:
192,155,23423,1,2,2:2:0:0:
47,78,23628,1,2,2:2:0:0:
47,78,23834,1,2,2:2:0:0:
158,236,24039,6,0,P|221:240|269:201,1,127.500004863739,2|2,1:2|2:2,0:0:0:0:
250,93,24655,1,0,1:1:0:0:
350,199,24861,1,2,1:2:0:0:
424,143,25066,2,0,P|437:194|452:273,1,127.500004863739,2|2,2:2|2:2,0:0:0:0:
286,302,25683,6,0,P|273:251|258:172,1,127.500004863739,0|2,1:1|2:2,0:0:0:0:
339,62,26299,1,2,1:2:0:0:
339,62,26505,1,0,1:1:0:0:
339,62,26916,6,0,L|285:52,1,31.8750012159348,8|0,2:2|0:0,0:0:0:0:
237,12,27121,1,8,2:2:0:0:
227,14,27224,1,8,2:2:0:0:
217,16,27327,6,0,P|176:68|201:141,1,127.500004863739,4|2,1:2|1:2,0:0:0:0:
233,189,27943,1,2,2:2:0:0:
339,62,28149,2,0,B|410:45|410:45|429:78|471:83,1,127.500004863739,2|0,1:2|1:1,0:0:0:0:
486,3,28765,1,2,2:2:0:0:
383,135,28971,6,0,P|397:188|411:276,1,127.500004863739,2|2,1:2|1:2,0:0:0:0:
398,367,29587,2,0,P|357:328|277:341,1,127.500004863739,2|0,2:2|0:0,0:0:0:0:
146,384,30203,2,0,P|98:371|76:368,1,63.7500024318696,0|0,1:1|3:3,0:0:0:0:
189,212,30614,6,0,P|218:252|184:335,1,127.500004863739,2|2,1:2|1:2,0:0:0:0:
94,218,31231,2,0,P|107:170|110:148,1,63.7500024318696,2|0,2:2|1:1,0:0:0:0:
17,255,31642,2,0,P|4:303|1:325,1,63.7500024318696,2|2,2:2|1:2,0:0:0:0:
0,177,32053,1,2,2:2:0:0:
125,292,32258,6,0,P|189:274|263:266,1,127.500004863739,0|0,1:1|1:1,0:0:0:0:
281,185,32875,1,0,3:3:0:0:
208,129,33080,2,0,P|195:177|192:199,1,63.7500024318696,0|2,1:1|3:2,0:0:0:0:
253,359,33491,1,2,1:2:0:0:
328,256,33697,1,2,3:2:0:0:
336,251,33799,1,0,3:3:0:0:
344,246,33902,6,0,P|397:213|468:247,1,127.500004863739,2|2,1:2|1:2,0:0:0:0:
488,306,34518,2,0,P|496:242|513:181,1,127.500004863739,2|0,2:2|0:0,0:0:0:0:
401,119,35135,2,0,P|353:132|331:135,1,63.7500024318696,0|2,1:1|2:2,0:0:0:0:
463,0,35546,6,0,P|497:48|470:120,1,127.500004863739,2|2,1:2|1:2,0:0:0:0:
401,119,36162,2,0,P|369:113|339:103,1,63.7500024318696,2|0,2:2|1:1,0:0:0:0:
249,28,36573,1,2,2:2:0:0:
229,156,36779,1,2,1:2:0:0:
229,156,36984,1,2,3:2:0:0:
76,128,37190,6,0,P|105:86|196:99,1,127.500004863739,2|2,1:2|1:2,0:0:0:0:
229,156,37806,1,2,2:2:0:0:
321,74,38012,1,2,1:2:0:0:
330,226,38217,2,0,P|361:231|391:241,1,63.7500024318696,2|0,2:2|1:1,0:0:0:0:
391,241,38628,1,2,2:2:0:0:
364,365,38834,6,0,P|332:359|302:349,2,63.7500024318696,2|2|2,1:2|2:2|1:2,0:0:0:0:
447,376,39450,2,0,P|488:326|465:265,1,127.500004863739,2|8,3:2|2:2,0:0:0:0:
386,150,40066,1,0,1:1:0:0:
387,139,40168,1,0,3:3:0:0:
389,129,40271,1,0,3:3:0:0:
241,274,40477,6,0,P|195:258|167:255,1,71.399997821045,4|2,1:2|2:2,0:0:0:0:
47,179,40888,1,10,2:2:0:0:
47,179,41094,1,2,1:2:0:0:
16,305,41299,1,2,2:2:0:0:
128,184,41505,2,0,P|161:171|196:178,1,71.399997821045,2|8,1:2|2:2,0:0:0:0:
270,352,41916,6,0,P|230:293|268:227,1,142.79999564209,2|2,2:2|2:2,0:0:0:0:
434,356,42532,1,10,2:2:0:0:
463,260,42738,2,0,P|407:275|315:290,1,142.79999564209,0|0,1:1|1:1,0:0:0:0:
257,233,43354,1,10,2:2:0:0:
257,233,43560,1,2,2:2:0:0:
365,140,43765,6,0,P|377:107|370:72,1,71.399997821045,2|2,1:2|2:2,0:0:0:0:
211,156,44176,1,10,2:2:0:0:
211,156,44382,1,2,1:2:0:0:
288,74,44587,1,2,2:2:0:0:
185,1,44792,2,0,P|197:49|202:82,1,71.399997821045,2|8,1:2|2:2,0:0:0:0:
150,232,45203,6,0,P|97:188|31:207,1,142.79999564209,2|2,2:2|2:2,0:0:0:0:
48,379,45820,1,10,2:2:0:0:
0,288,46025,2,0,P|70:299|139:317,1,142.79999564209,0|0,1:1|1:1,0:0:0:0:
304,251,46642,1,14,2:2:0:0:
262,378,46847,1,2,3:2:0:0:
251,381,46950,1,0,3:3:0:0:
240,384,47053,6,0,P|221:354|222:319,1,71.399997821045,4|0,1:2|0:0,0:0:0:0:
351,203,47464,2,0,P|334:234|303:250,1,71.399997821045,10|0,2:2|1:1,0:0:0:0:
140,201,47875,2,0,P|175:199|204:218,1,71.399997821045,2|0,2:2|1:1,0:0:0:0:
222,319,48286,1,10,2:2:0:0:
351,203,48491,6,0,P|335:143|326:43,1,142.79999564209,2|0,2:2|0:0,0:0:0:0:
392,5,49108,1,10,2:2:0:0:
392,5,49313,1,0,1:1:0:0:
326,62,49518,2,0,P|286:72|242:68,1,71.399997821045,2|0,2:2|1:1,0:0:0:0:
371,171,49929,2,0,P|405:161|440:162,1,71.399997821045,10|0,2:2|0:0,0:0:0:0:
261,289,50340,6,0,P|265:223|214:184,1,107.099996731567,2|0,1:2|0:0,0:0:0:0:
215,175,50751,2,0,P|179:181|145:190,1,71.399997821045,10|0,2:2|1:1,0:0:0:0:
13,282,51162,2,0,P|76:307|122:283,1,107.099996731567,2|0,2:2|0:0,0:0:0:0:
135,272,51573,1,10,2:2:0:0:
121,88,51779,6,0,P|59:136|64:198,1,142.79999564209,2|2,2:2|2:2,0:0:0:0:
135,272,52395,1,10,2:2:0:0:
215,175,52601,2,0,B|292:156|292:156|313:192|358:197,1,142.79999564209,0|0,1:1|1:1,0:0:0:0:
428,92,53217,2,0,P|393:91|366:114,1,71.399997821045,8|0,2:2|3:3,0:0:0:0:
402,249,53628,5,4,1:2:0:0:
505,129,53834,1,2,2:2:0:0:
473,310,54039,1,10,2:2:0:0:
473,310,54245,1,2,1:2:0:0:
340,194,54450,1,2,2:2:0:0:
274,326,54655,2,0,P|308:316|343:311,1,71.399997821045,2|8,1:2|2:2,0:0:0:0:
243,248,55066,6,0,P|193:289|200:370,1,142.79999564209,2|2,2:2|2:2,0:0:0:0:
343,311,55683,1,10,2:2:0:0:
216,167,55888,2,0,P|158:179|51:200,1,142.79999564209,0|0,1:1|1:1,0:0:0:0:
8,141,56505,1,10,2:2:0:0:
8,141,56710,1,2,2:2:0:0:
103,29,56916,6,0,P|90:80|83:111,1,71.399997821045,2|2,1:2|2:2,0:0:0:0:
17,296,57327,2,0,P|8:261|0:226,1,71.399997821045,10|2,2:2|1:2,0:0:0:0:
8,141,57738,1,2,2:2:0:0:
98,270,57943,2,0,P|132:275|164:259,1,71.399997821045,2|8,1:2|2:2,0:0:0:0:
237,132,58354,6,0,P|301:107|372:161,1,142.79999564209,2|2,2:2|2:2,0:0:0:0:
440,287,58971,1,10,2:2:0:0:
497,230,59176,2,0,P|433:205|362:259,1,142.79999564209,0|0,1:1|1:1,0:0:0:0:
252,366,59792,1,14,2:2:0:0:
241,363,59895,1,0,1:0:0:0:
230,360,59998,1,0,3:3:0:0:
219,358,60101,1,0,3:3:0:0:
207,355,60203,6,0,P|192:299|187:260,1,76.4999976654053,4|0,1:2|0:0,0:0:0:0:
283,114,60614,2,0,P|298:170|303:209,1,76.4999976654053,10|0,2:2|1:1,0:0:0:0:
189,280,61025,1,2,2:2:0:0:
138,211,61231,2,0,P|176:194|218:201,1,76.4999976654053,2|8,1:2|2:2,0:0:0:0:
96,286,61642,6,0,P|55:245|84:144,1,152.999995330811,2|0,2:2|0:0,0:0:0:0:
211,34,62258,2,0,P|196:90|191:129,1,76.4999976654053,10|0,2:2|1:1,0:0:0:0:
138,211,62669,1,2,2:2:0:0:
138,211,62875,1,0,1:1:0:0:
50,77,63080,2,0,P|83:57|134:68,1,76.4999976654053,10|0,2:2|0:0,0:0:0:0:
249,171,63491,6,0,P|334:184|408:205,1,152.999995330811,2|8,1:2|2:2,0:0:0:0:
473,160,64108,1,2,1:2:0:0:
331,269,64313,1,2,2:2:0:0:
331,269,64518,1,2,1:2:0:0:
362,89,64724,1,10,2:2:0:0:
398,201,64929,6,0,P|413:257|418:296,1,76.4999976654053,2|0,2:2|1:1,0:0:0:0:
453,349,65340,1,2,2:2:0:0:
331,269,65546,1,10,2:2:0:0:
234,372,65751,2,0,P|165:348|165:254,1,152.999995330811,2|0,1:2|1:1,0:0:0:0:
112,120,66368,1,8,2:2:0:0:
231,218,66573,1,8,2:2:0:0:
231,218,66676,1,8,2:2:0:0:
231,218,66779,6,0,L|276:207,3,38.2499988327027,0|8|0|8,1:1|2:2|3:3|2:2,0:0:0:0:
152,276,67190,2,0,P|145:238|134:201,1,76.4999976654053,0|0,1:1|3:3,0:0:0:0:
58,70,67601,1,2,1:2:0:0:
58,70,67703,1,0,3:3:0:0:
58,70,67806,2,0,L|111:82,1,38.2499988327027,10|8,2:2|2:2,0:0:0:0:
194,29,68011,1,8,2:2:0:0:
212,53,68114,1,8,2:2:0:0:
220,83,68217,1,10,2:2:0:0:
215,112,68320,1,8,2:2:0:0:
200,138,68423,6,0,P|194:59|303:37,1,178.499994552612,4|8,1:2|2:2,0:0:0:0:
365,173,69039,1,2,1:2:0:0:
468,29,69245,5,10,2:2:0:0:
289,132,69450,1,2,1:2:0:0:
510,188,69655,5,10,2:2:0:0:
371,68,69861,1,2,1:2:0:0:
305,292,70066,6,0,P|388:303|432:231,1,178.499994552612,10|8,2:2|2:2,0:0:0:0:
365,173,70683,1,2,1:2:0:0:
226,335,70888,5,10,2:2:0:0:
126,156,71094,1,2,1:2:0:0:
86,368,71299,1,10,2:2:0:0:
291,209,71505,1,8,2:2:0:0:
291,209,71608,1,8,2:2:0:0:
291,209,71710,6,0,L|184:192,1,89.2499972763062,4|0,1:2|0:0,0:0:0:0:
0,285,72121,1,10,2:2:0:0:
35,123,72327,2,0,L|49:211,1,89.2499972763062,2|8,1:2|2:2,0:0:0:0:
179,367,72738,2,0,L|193:278,1,89.2499972763062,2|8,1:2|2:2,0:0:0:0:
166,17,73149,6,0,P|129:41|116:82,1,89.2499972763062,2|8,1:2|2:2,0:0:0:0:
207,190,73560,1,2,1:2:0:0:
339,49,73765,2,0,L|251:35,1,89.2499972763062,10|0,2:2|1:1,0:0:0:0:
333,238,74176,1,14,2:2:0:0:
204,105,74382,1,2,1:2:0:0:
107,301,74587,1,12,2:2:0:0:
107,301,74690,1,0,1:0:0:0:
107,301,74792,2,0,L|169:315,1,44.6249986381531,10|8,2:2|2:2,0:0:0:0:
234,330,74998,6,0,P|293:271|393:300,1,178.499994552612,4|8,1:2|2:2,0:0:0:0:
447,355,75614,1,2,1:2:0:0:
369,183,75820,5,10,2:2:0:0:
302,384,76025,1,2,1:2:0:0:
218,138,76231,5,10,2:2:0:0:
365,319,76436,1,2,1:2:0:0:
455,155,76642,6,0,P|396:96|296:125,1,178.499994552612,8|8,2:2|2:2,0:0:0:0:
201,227,77258,1,2,1:2:0:0:
85,66,77464,5,10,2:2:0:0:
31,272,77669,1,2,1:2:0:0:
221,97,77875,2,0,L|309:111,1,89.2499972763062,10|8,2:2|2:2,0:0:0:0:
341,116,78183,1,8,2:2:0:0:
341,116,78286,6,0,P|352:170|317:221,1,89.2499972763062,4|0,1:2|0:0,0:0:0:0:
127,267,78697,2,0,P|168:230|229:235,1,89.2499972763062,10|0,2:2|1:1,0:0:0:0:
390,359,79108,1,10,2:2:0:0:
204,313,79313,1,2,1:2:0:0:
420,242,79518,1,10,2:2:0:0:
289,384,79724,6,0,P|305:279|325:186,1,178.499994552612,2|2,1:2|1:2,0:0:0:0:
491,57,80340,2,0,P|441:83|390:68,1,89.2499972763062,10|0,2:2|1:1,0:0:0:0:
306,0,80751,1,14,2:2:0:0:
306,0,80854,1,0,1:0:0:0:
306,0,80957,2,0,L|293:68,1,44.6249986381531,2|0,1:2|1:1,0:0:0:0:
249,109,81161,1,12,2:2:0:0:
227,128,81265,1,0,1:0:0:0:
199,136,81367,1,10,2:2:0:0:
169,133,81470,1,8,2:2:0:0:
144,118,81573,6,0,P|204:124|200:251,1,178.499994552612,4|8,1:2|2:2,0:0:0:0:
85,323,82190,1,2,1:2:0:0:
29,103,82395,5,10,2:2:0:0:
139,255,82601,1,2,1:2:0:0:
170,41,82806,5,10,2:2:0:0:
64,212,83012,1,2,1:2:0:0:
342,157,83217,6,0,P|287:105|186:158,1,178.499994552612,10|8,2:2|2:2,0:0:0:0:
322,280,83834,1,2,1:2:0:0:
131,346,84039,5,10,2:2:0:0:
262,204,84245,1,2,1:2:0:0:
348,384,84450,2,0,L|259:371,1,89.2499972763062,10|8,2:2|2:2,0:0:0:0:
227,361,84758,1,8,2:2:0:0:
227,361,84861,6,0,P|211:302|230:272,1,89.2499972763062,4|0,1:2|0:0,0:0:0:0:
358,120,85272,2,0,L|345:208,1,89.2499972763062,10|0,2:2|1:1,0:0:0:0:
123,14,85683,2,0,L|135:102,1,89.2499972763062,10|0,2:2|1:1,0:0:0:0:
222,279,86094,1,10,2:2:0:0:
309,211,86299,6,0,B|198:183|198:183|149:224,1,178.499994552612,2|2,1:2|1:2,0:0:0:0:
49,143,86916,2,0,L|61:231,1,89.2499972763062,10|0,2:2|1:1,0:0:0:0:
139,352,87327,1,14,2:2:0:0:
198,183,87532,1,2,1:2:0:0:
313,316,87738,1,12,2:2:0:0:
471,251,87943,1,10,2:2:0:0:
471,251,88046,1,8,2:2:0:0:
471,251,88149,6,0,L|264:214,1,178.499994552612,4|8,1:2|2:2,0:0:0:0:
180,214,88765,1,2,1:2:0:0:
403,131,88971,5,10,2:2:0:0:
267,74,89176,1,2,1:2:0:0:
378,276,89382,1,10,2:2:0:0:
489,118,89587,6,0,P|452:58|330:81,1,178.499994552612,2|0,1:2|1:1,0:0:0:0:
197,199,90203,2,0,L|285:187,1,89.2499972763062,8|2,2:2|1:2,0:0:0:0:
94,6,90614,1,8,2:2:0:0:
267,74,90820,1,2,1:2:0:0:
49,204,91025,2,0,P|30:164|45:123,1,89.2499972763062,10|8,2:2|2:2,0:0:0:0:
66,99,91334,1,8,2:2:0:0:
66,99,91436,6,0,L|154:111,1,89.2499972763062,4|0,1:2|0:0,0:0:0:0:
276,299,91847,2,0,L|188:287,1,89.2499972763062,10|0,2:2|1:1,0:0:0:0:
338,137,92258,1,10,2:2:0:0:
338,137,92361,1,2,0:0:0:0:
338,137,92464,1,2,1:2:0:0:
443,300,92669,1,10,2:2:0:0:
495,213,92875,6,0,L|407:201,1,89.2499972763062,2|8,1:2|2:2,0:0:0:0:
255,128,93286,1,2,1:2:0:0:
305,61,93491,2,0,P|337:99|329:154,1,89.2499972763062,10|0,2:2|1:1,0:0:0:0:
137,344,93902,2,0,P|149:279|185:157,1,178.499994552612,10|12,2:2|2:2,0:0:0:0:
31,31,94518,1,10,2:2:0:0:
31,31,94621,1,8,2:2:0:0:
31,31,94724,6,0,P|74:90|176:76,1,178.499994552612,4|8,1:2|2:2,0:0:0:0:
339,206,95340,1,2,1:2:0:0:
220,6,95546,5,10,2:2:0:0:
171,197,95751,1,0,1:1:0:0:
376,35,95957,5,8,2:2:0:0:
399,264,96162,1,0,1:1:0:0:
170,80,96368,5,8,2:2:0:0:
136,305,96573,1,0,1:1:0:0:
339,206,96779,6,0,P|294:186|232:213,1,89.2499972763062,8|0,2:2|1:1,0:0:0:0:
211,362,97190,1,0,1:1:0:0:
211,362,97292,1,0,1:1:0:0:
211,362,97395,2,0,L|259:352,1,44.6249986381531,2|0,1:2|0:0,0:0:0:0:
208,254,97601,1,10,2:2:0:0:
186,232,97703,1,8,2:2:0:0:
157,219,97806,1,10,2:2:0:0:
126,219,97909,1,8,2:2:0:0:
97,230,98012,6,0,L|81:138,1,76.4999976654053,6|0,1:2|0:0,0:0:0:0:
225,76,98423,2,0,L|153:135,1,76.4999976654053,10|0,2:2|1:1,0:0:0:0:
32,43,98834,2,0,L|119:75,1,76.4999976654053,10|0,2:2|1:1,0:0:0:0:
236,172,99245,1,10,2:2:0:0:
257,10,99450,6,0,P|232:38|224:75,1,76.4999976654053,2|8,1:2|2:2,0:0:0:0:
375,122,99861,2,0,L|299:108,1,76.4999976654053,2|8,1:2|2:2,0:0:0:0:
245,261,100272,2,0,L|320:247,1,76.4999976654053,2|8,1:2|2:2,0:0:0:0:
448,157,100683,1,2,1:2:0:0:
357,324,100888,1,10,2:2:0:0:
512,269,101094,1,10,2:2:0:0:
512,269,101197,1,8,2:2:0:0:
512,269,101299,6,0,P|471:242|437:248,1,76.4999976654053,0|2,1:1|2:2,0:0:0:0:
282,367,101710,1,10,2:2:0:0:
307,172,101916,2,0,L|320:247,1,76.4999976654053,2|8,1:2|2:2,0:0:0:0:
179,113,102327,2,0,L|165:188,1,76.4999976654053,2|8,1:2|2:2,0:0:0:0:
367,108,102738,6,0,L|353:32,1,76.4999976654053,2|8,1:2|2:2,0:0:0:0:
228,0,103149,1,2,1:2:0:0:
307,172,103354,1,8,2:2:0:0:
149,31,103560,2,0,P|115:13|78:19,1,76.4999976654053,2|8,1:2|2:2,0:0:0:0:
0,119,103971,1,2,1:2:0:0:
176,204,104176,1,10,2:2:0:0:
191,182,104278,1,0,1:0:0:0:
198,156,104381,1,10,2:2:0:0:
196,130,104484,1,8,2:2:0:0:
185,106,104586,1,4,1:2:0:0:
