osu file format v14

[General]
AudioFilename: audio.mp3
AudioLeadIn: 0
PreviewTime: 67498
Countdown: 0
SampleSet: Soft
StackLeniency: 0.4
Mode: 0
LetterboxInBreaks: 0
WidescreenStoryboard: 1

[Editor]
DistanceSpacing: 1
BeatDivisor: 4
GridSize: 16
TimelineZoom: 1

[Metadata]
Title:floral summer
TitleUnicode:floral summer
Artist:fripSide
ArtistUnicode:fripSide
Creator:- Nilou -
Version:Hard
Source:フローラル・フローラブ
Tags:eroge Floral Flowlove saga planets visual novel vn op opening galgame フロフロ japanese jpop j-pop pop Floflo video game leomine leominexd
BeatmapID:4390660
BeatmapSetID:2091912

[Difficulty]
HPDrainRate:4
CircleSize:3.4
OverallDifficulty:5.5
ApproachRate:7
SliderMultiplier:1.3
SliderTickRate:1

[Events]
//Background and Video events
Video,100,"Iloveerogesomuch.mp4"
0,0,"AoiSensei.jpg",0,0
//Break Periods
//Storyboard Layer 0 (Background)
//Storyboard Layer 1 (Fail)
//Storyboard Layer 2 (Pass)
//Storyboard Layer 3 (Foreground)
//Storyboard Layer 4 (Overlay)
//Storyboard Sound Samples

[TimingPoints]
-618,410.958904109589,4,2,1,50,1,0
409,-117.647058823529,4,2,1,50,0,0
4518,-117.647058823529,4,2,1,50,0,0
7601,-111.111111111111,4,2,1,80,0,0
14176,-100,4,2,1,60,0,0
14587,-117.647058823529,4,2,1,60,0,0
14998,-117.647058823529,4,2,1,60,0,0
27327,-117.647058823529,4,2,1,65,0,0
40477,-117.647058823529,4,2,1,70,0,0
60203,-111.111111111111,4,2,1,70,0,0
66779,-111.111111111111,4,2,1,75,0,0
68423,-100,4,2,1,85,0,0
94724,-100,4,2,1,80,0,0
98012,-111.111111111111,4,2,1,80,0,0
104587,-111.111111111111,4,2,1,70,0,0

[Colours]
Combo1 : 251,237,181
Combo2 : 255,198,226
Combo3 : 255,113,113

[HitObjects]
80,57,409,6,0,P|59:39|32:34,2,55.2500010538101,2|2|2,2:2|2:2|2:2,0:0:0:0:
26,120,1025,6,0,L|45:245,2,110.50000210762,4|2|2,1:2|2:2|2:2,0:0:0:0:
169,36,2258,1,2,2:2:0:0:
169,36,2464,6,0,L|293:54,2,110.50000210762,2|2|2,2:2|2:2|2:2,0:0:0:0:
124,196,3697,2,0,L|135:264,1,55.2500010538101,2|2,2:2|2:2,0:0:0:0:
173,322,4108,6,0,P|226:328|284:288,1,110.50000210762,2|2,2:2|2:2,0:0:0:0:
256,192,4621,12,2,6573,2:2:0:0:
56,313,6984,6,0,L|45:258,2,55.2500010538101,2|2|2,2:2|2:2|2:2,0:0:0:0:
130,360,7601,6,0,P|190:371|243:338,1,116.999996429443,4|10,1:2|2:2,0:0:0:0:
294,278,8217,1,0,1:1:0:0:
294,278,8423,2,0,L|281:217,1,58.4999982147217,10|0,2:2|1:1,0:0:0:0:
268,133,8834,1,10,2:2:0:0:
268,133,9039,6,0,P|309:93|390:106,2,116.999996429443,2|2|2,1:2|1:2|1:2,0:0:0:0:
114,218,10272,2,0,L|102:149,1,58.4999982147217,2|10,1:2|2:2,0:0:0:0:
42,97,10683,1,10,2:2:0:0:
42,97,10888,6,0,P|87:37|140:50,1,116.999996429443,0|10,1:1|2:2,0:0:0:0:
201,78,11505,2,0,L|263:88,1,58.4999982147217,2|8,1:2|2:2,0:0:0:0:
248,174,11916,2,0,L|190:164,1,58.4999982147217,2|8,1:2|2:2,0:0:0:0:
103,149,12327,1,2,1:2:0:0:
224,275,12738,6,0,L|290:264,1,58.4999982147217,2|8,1:2|2:2,0:0:0:0:
361,301,13149,2,0,P|407:314|470:285,1,116.999996429443,2|2,1:2|1:2,0:0:0:0:
502,205,13765,1,10,2:2:0:0:
502,205,13868,1,0,3:3:0:0:
502,205,13971,1,10,2:2:0:0:
429,139,14176,5,4,1:2:0:0:
306,26,14587,2,0,L|246:36,1,55.2500010538101,2|2,2:2|1:2,0:0:0:0:
170,16,14998,2,0,P|148:67|181:129,1,110.50000210762,2|0,1:2|0:0,0:0:0:0:
244,144,15614,1,2,2:2:0:0:
244,144,15820,6,0,L|223:260,1,110.50000210762,2|2,1:2|2:2,0:0:0:0:
236,334,16436,2,0,P|182:369|83:346,1,165.75000316143,2|0,1:2|0:0,0:0:0:0:
7,162,17464,6,0,P|55:127|124:141,1,110.50000210762,2|2,1:2|2:2,0:0:0:0:
178,166,18080,2,0,L|246:154,1,55.2500010538101,2|0,1:2|1:1,0:0:0:0:
314,167,18491,2,0,P|341:108|331:57,1,110.50000210762,2|2,2:2|2:2,0:0:0:0:
279,1,19108,6,0,L|96:31,1,165.75000316143,0|0,1:1|1:1,0:0:0:0:
54,182,20135,2,0,L|-7:172,2,55.2500010538101,2|2|2,2:2|2:2|2:2,0:0:0:0:
124,138,20751,6,0,P|148:169|136:237,1,110.50000210762,4|2,1:2|2:2,0:0:0:0:
60,269,21368,2,0,L|80:383,1,110.50000210762,2|0,1:2|0:0,0:0:0:0:
229,303,22190,1,2,0:0:0:0:
229,303,22395,6,0,P|290:289|339:317,1,110.50000210762,2|2,1:2|2:2,0:0:0:0:
404,348,23012,2,0,L|429:233,1,110.50000210762,2|2,1:2|2:2,0:0:0:0:
495,192,23628,2,0,L|508:126,1,55.2500010538101,2|2,2:2|2:2,0:0:0:0:
475,60,24039,6,0,P|421:14|375:20,2,110.50000210762,2|2|2,1:2|2:2|1:2,0:0:0:0:
506,137,25066,2,0,L|444:145,1,55.2500010538101,2|0,2:2|0:0,0:0:0:0:
374,111,25477,6,0,P|343:137|346:218,1,110.50000210762,2|2,2:2|2:2,0:0:0:0:
406,259,26094,1,2,2:2:0:0:
406,259,26299,2,0,L|384:371,1,110.50000210762,2|0,1:2|0:0,0:0:0:0:
301,367,26916,1,8,2:2:0:0:
236,310,27121,1,8,2:2:0:0:
236,310,27224,1,8,2:2:0:0:
236,310,27327,6,0,L|109:297,1,110.50000210762,4|2,1:2|1:2,0:0:0:0:
44,282,27943,1,2,2:2:0:0:
44,282,28149,2,0,P|31:210|69:172,1,110.50000210762,2|0,1:2|1:1,0:0:0:0:
107,122,28765,1,2,2:2:0:0:
107,122,28971,6,0,L|238:144,1,110.50000210762,2|2,1:2|1:2,0:0:0:0:
292,173,29587,2,0,P|331:125|324:60,1,110.50000210762,2|0,2:2|0:0,0:0:0:0:
267,26,30203,1,0,1:1:0:0:
137,129,30614,6,0,L|152:256,1,110.50000210762,2|2,1:2|1:2,0:0:0:0:
177,317,31231,2,0,L|241:332,1,55.2500010538101,2|0,2:2|1:1,0:0:0:0:
306,363,31642,2,0,L|419:345,1,110.50000210762,2|2,2:2|2:2,0:0:0:0:
494,319,32258,6,0,P|515:246|489:202,1,110.50000210762,0|0,1:1|1:1,0:0:0:0:
444,156,32875,1,0,3:3:0:0:
444,156,33080,1,0,1:1:0:0:
367,189,33286,2,0,L|309:199,2,55.2500010538101,2|2|2,3:2|1:2|3:2,0:0:0:0:
444,156,33902,6,0,L|461:265,1,110.50000210762,2|2,1:2|1:2,0:0:0:0:
403,324,34518,2,0,P|349:360|297:344,1,110.50000210762,2|0,2:2|0:0,0:0:0:0:
256,285,35135,1,0,1:1:0:0:
137,168,35546,6,0,L|158:47,1,110.50000210762,2|2,1:2|1:2,0:0:0:0:
219,6,36162,2,0,L|281:16,1,55.2500010538101,2|0,2:2|1:1,0:0:0:0:
327,77,36573,2,0,L|398:65,2,55.2500010538101,2|2|2,2:2|1:2|3:2,0:0:0:0:
258,125,37190,5,2,1:2:0:0:
258,125,37395,1,2,2:2:0:0:
198,182,37601,2,0,L|132:170,1,55.2500010538101,2|2,1:2|2:2,0:0:0:0:
76,123,38012,1,2,1:2:0:0:
76,123,38217,2,0,P|38:171|37:235,1,110.50000210762,2|2,2:2|2:2,0:0:0:0:
59,297,38834,6,0,L|-9:314,2,55.2500010538101,2|2|2,1:2|2:2|1:2,0:0:0:0:
134,262,39450,2,0,L|259:284,1,110.50000210762,2|8,3:2|2:2,0:0:0:0:
325,324,40066,1,0,1:1:0:0:
325,324,40169,1,0,3:3:0:0:
325,324,40272,1,0,3:3:0:0:
390,273,40477,6,0,P|418:195|401:160,1,110.50000210762,4|10,1:2|2:2,0:0:0:0:
343,121,41094,1,2,1:2:0:0:
343,121,41299,2,0,L|331:50,1,55.2500010538101,2|2,2:2|1:2,0:0:0:0:
268,15,41710,1,8,2:2:0:0:
268,15,41916,6,0,P|203:0|148:27,1,110.50000210762,2|2,2:2|2:2,0:0:0:0:
112,79,42532,1,10,2:2:0:0:
112,79,42738,2,0,L|124:205,1,110.50000210762,0|0,1:1|1:1,0:0:0:0:
151,266,43354,1,10,2:2:0:0:
151,266,43560,1,2,2:2:0:0:
230,243,43765,6,0,L|241:186,2,55.2500010538101,2|2|10,1:2|2:2|2:2,0:0:0:0:
269,316,44382,1,2,1:2:0:0:
269,316,44587,2,0,P|234:328|207:340,2,55.2500010538101,2|2|8,2:2|1:2|2:2,0:0:0:0:
347,343,45203,6,0,P|393:302|391:241,1,110.50000210762,2|2,2:2|2:2,0:0:0:0:
463,204,45820,1,10,2:2:0:0:
463,204,46025,2,0,L|482:79,1,110.50000210762,0|0,1:1|1:1,0:0:0:0:
425,38,46642,1,14,2:2:0:0:
425,38,46847,1,2,3:2:0:0:
348,69,47053,6,0,P|312:82|248:36,2,110.50000210762,4|10|2,1:2|2:2|2:2,0:0:0:0:
509,28,48286,1,10,2:2:0:0:
509,28,48491,6,0,L|490:141,1,110.50000210762,2|0,2:2|0:0,0:0:0:0:
483,220,49108,2,0,L|413:229,1,55.2500010538101,10|0,2:2|1:1,0:0:0:0:
348,206,49518,2,0,P|301:249|251:243,1,110.50000210762,2|10,2:2|2:2,0:0:0:0:
187,200,50135,1,0,0:0:0:0:
187,200,50340,6,0,L|176:85,1,110.50000210762,2|10,1:2|2:2,0:0:0:0:
129,21,50957,1,0,1:1:0:0:
129,21,51162,2,0,L|67:33,1,55.2500010538101,2|0,2:2|1:1,0:0:0:0:
15,89,51573,1,10,2:2:0:0:
15,89,51779,6,0,L|31:224,1,110.50000210762,2|2,2:2|2:2,0:0:0:0:
43,280,52395,1,10,2:2:0:0:
43,280,52601,2,0,P|121:312|156:296,1,110.50000210762,0|0,1:1|1:1,0:0:0:0:
210,259,53217,1,8,2:2:0:0:
210,259,53320,1,0,0:0:0:0:
210,259,53423,1,0,3:3:0:0:
269,316,53628,6,0,L|330:328,1,55.2500010538101,4|2,1:2|2:2,0:0:0:0:
402,352,54039,1,10,2:2:0:0:
402,352,54245,1,2,1:2:0:0:
470,305,54450,2,0,L|482:248,1,55.2500010538101,2|2,2:2|1:2,0:0:0:0:
459,170,54861,1,8,2:2:0:0:
459,170,55066,6,0,L|441:46,1,110.50000210762,2|2,2:2|2:2,0:0:0:0:
376,9,55683,1,10,2:2:0:0:
376,9,55888,2,0,P|316:-2|269:24,1,110.50000210762,0|0,1:1|1:1,0:0:0:0:
233,92,56505,2,0,L|246:153,1,55.2500010538101,10|2,2:2|2:2,0:0:0:0:
309,198,56916,5,2,1:2:0:0:
309,198,57121,1,2,2:2:0:0:
252,258,57327,2,0,L|191:271,1,55.2500010538101,10|2,2:2|1:2,0:0:0:0:
118,295,57738,1,2,2:2:0:0:
118,295,57943,2,0,L|104:231,1,55.2500010538101,2|8,1:2|2:2,0:0:0:0:
49,180,58354,6,0,P|31:116|65:72,1,110.50000210762,2|2,2:2|2:2,0:0:0:0:
121,35,58971,1,10,2:2:0:0:
121,35,59176,2,0,L|246:51,1,110.50000210762,0|0,1:1|1:1,0:0:0:0:
312,35,59792,1,14,2:2:0:0:
312,35,59895,1,0,1:0:0:0:
312,35,59998,1,0,3:3:0:0:
380,89,60203,6,0,P|392:153|404:222,1,116.999996429443,4|10,1:2|2:2,0:0:0:0:
476,250,60820,1,0,1:1:0:0:
434,326,61025,1,2,2:2:0:0:
434,326,61231,2,0,L|372:313,1,58.4999982147217,2|8,1:2|2:2,0:0:0:0:
320,246,61642,6,0,P|279:250|219:314,1,116.999996429443,2|0,2:2|0:0,0:0:0:0:
174,371,62258,2,0,P|134:343|55:351,1,116.999996429443,10|2,2:2|2:2,0:0:0:0:
4,282,62875,1,0,1:1:0:0:
4,282,63080,2,0,L|17:217,1,58.4999982147217,10|0,2:2|0:0,0:0:0:0:
17,136,63491,6,0,P|88:105|127:121,1,116.999996429443,2|8,1:2|2:2,0:0:0:0:
183,179,64108,1,2,1:2:0:0:
183,179,64313,2,0,L|251:166,1,58.4999982147217,2|2,2:2|1:2,0:0:0:0:
311,116,64724,1,10,2:2:0:0:
311,116,64929,6,0,P|349:78|414:85,1,116.999996429443,2|2,2:2|2:2,0:0:0:0:
487,121,65546,1,10,2:2:0:0:
487,121,65751,2,0,L|461:246,1,116.999996429443,2|0,1:2|1:1,0:0:0:0:
490,319,66368,1,8,2:2:0:0:
417,361,66573,1,8,2:2:0:0:
417,361,66676,1,8,2:2:0:0:
417,361,66779,6,0,L|340:348,1,58.4999982147217,0|0,1:1|3:3,0:0:0:0:
278,331,67190,1,0,1:1:0:0:
278,331,67395,1,0,3:3:0:0:
190,343,67601,2,0,L|141:354,3,29.2499991073609,2|0|10|8,1:2|3:3|2:2|2:2,0:0:0:0:
144,308,68012,1,8,2:2:0:0:
140,291,68114,1,8,2:2:0:0:
137,273,68217,1,10,2:2:0:0:
134,256,68320,1,8,2:2:0:0:
130,236,68423,6,0,P|123:177|174:116,1,130,4|8,1:2|2:2,0:0:0:0:
264,122,69039,1,2,1:2:0:0:
264,122,69245,2,0,L|277:53,1,65,10|2,2:2|1:2,0:0:0:0:
207,5,69655,1,10,2:2:0:0:
207,5,69861,1,2,1:2:0:0:
114,35,70066,6,0,P|79:92|99:166,1,130,10|8,2:2|2:2,0:0:0:0:
187,180,70683,1,2,1:2:0:0:
187,180,70888,2,0,L|173:245,1,65,10|2,2:2|1:2,0:0:0:0:
95,302,71299,1,10,2:2:0:0:
177,373,71505,1,8,2:2:0:0:
177,373,71608,1,8,2:2:0:0:
177,373,71710,6,0,L|266:359,1,65,4|0,1:2|0:0,0:0:0:0:
318,301,72121,1,10,2:2:0:0:
318,301,72327,2,0,L|386:291,1,65,2|8,1:2|2:2,0:0:0:0:
479,302,72738,2,0,L|469:219,1,65,2|8,1:2|2:2,0:0:0:0:
500,146,73149,6,0,P|434:107|382:126,1,130,2|2,1:2|1:2,0:0:0:0:
315,188,73765,2,0,L|246:174,1,65,10|0,2:2|1:1,0:0:0:0:
177,110,74176,1,14,2:2:0:0:
177,110,74382,1,2,1:2:0:0:
84,140,74587,1,12,2:2:0:0:
63,240,74792,1,10,2:2:0:0:
63,240,74895,1,8,2:2:0:0:
63,240,74998,6,0,P|95:292|179:287,1,130,4|8,1:2|2:2,0:0:0:0:
240,244,75614,1,2,1:2:0:0:
301,320,75820,2,0,L|291:384,2,65,10|2|10,2:2|1:2|2:2,0:0:0:0:
394,292,76436,6,0,P|453:229|441:169,1,130,2|0,1:2|1:1,0:0:0:0:
421,96,77053,2,0,L|350:84,1,65,8|2,2:2|1:2,0:0:0:0:
276,29,77464,1,10,2:2:0:0:
276,29,77669,1,2,1:2:0:0:
199,89,77875,2,0,L|209:153,1,65,10|8,2:2|2:2,0:0:0:0:
254,184,78183,1,8,2:2:0:0:
254,184,78286,6,0,L|268:267,1,65,4|0,1:2|0:0,0:0:0:0:
240,345,78697,1,10,2:2:0:0:
240,345,78902,1,0,1:1:0:0:
153,299,79108,2,0,L|142:234,2,65,10|2|10,2:2|1:2|2:2,0:0:0:0:
74,357,79724,6,0,P|10:305|22:246,1,130,2|2,1:2|1:2,0:0:0:0:
60,179,80340,2,0,L|47:112,1,65,10|0,2:2|1:1,0:0:0:0:
86,25,80751,1,14,2:2:0:0:
86,25,80854,1,0,1:0:0:0:
86,25,80957,1,2,1:2:0:0:
152,96,81162,1,12,2:2:0:0:
256,88,81368,1,10,2:2:0:0:
256,88,81471,1,8,2:2:0:0:
256,88,81573,6,0,L|399:69,1,130,4|8,1:2|2:2,0:0:0:0:
479,36,82190,1,2,1:2:0:0:
479,36,82395,2,0,L|491:114,1,65,10|2,2:2|1:2,0:0:0:0:
498,201,82806,1,10,2:2:0:0:
498,201,83012,1,2,1:2:0:0:
406,167,83217,6,0,P|372:206|288:201,1,130,10|8,2:2|2:2,0:0:0:0:
217,160,83834,1,2,1:2:0:0:
217,160,84039,2,0,L|204:87,1,65,10|2,2:2|1:2,0:0:0:0:
164,7,84450,1,10,2:2:0:0:
79,45,84655,1,8,2:2:0:0:
79,45,84758,1,8,2:2:0:0:
79,45,84861,6,0,L|92:139,1,65,4|0,1:2|0:0,0:0:0:0:
45,199,85272,1,10,2:2:0:0:
45,199,85477,1,0,1:1:0:0:
82,289,85683,2,0,L|146:297,1,65,10|0,2:2|1:1,0:0:0:0:
228,242,86094,1,10,2:2:0:0:
228,242,86299,6,0,P|256:297|333:298,1,130,2|2,1:2|1:2,0:0:0:0:
416,293,86916,2,0,L|432:218,1,65,10|0,2:2|1:1,0:0:0:0:
507,169,87327,1,14,2:2:0:0:
507,169,87429,1,0,0:0:0:0:
507,169,87532,1,2,1:2:0:0:
481,74,87738,1,12,2:2:0:0:
406,30,87943,1,10,2:2:0:0:
406,30,88046,1,8,2:2:0:0:
406,30,88149,6,0,P|341:11|280:42,1,130,4|8,1:2|2:2,0:0:0:0:
231,117,88765,1,2,1:2:0:0:
231,117,88971,2,0,L|156:97,2,65,10|2|10,2:2|1:2|2:2,0:0:0:0:
316,168,89587,6,0,P|342:222|312:284,1,130,2|0,1:2|1:1,0:0:0:0:
232,335,90203,1,8,2:2:0:0:
153,276,90409,2,0,L|83:263,1,65,2|8,1:2|2:2,0:0:0:0:
5,212,90820,1,2,1:2:0:0:
5,212,91025,1,10,2:2:0:0:
74,143,91231,1,8,2:2:0:0:
74,143,91334,1,8,2:2:0:0:
74,143,91436,6,0,L|155:133,1,65,4|0,1:2|0:0,0:0:0:0:
219,189,91847,2,0,L|300:179,1,65,10|0,2:2|1:1,0:0:0:0:
367,130,92258,2,0,L|380:52,2,65,10|2|10,2:2|1:2|2:2,0:0:0:0:
421,211,92875,6,0,P|405:258|320:265,1,130,2|2,1:2|1:2,0:0:0:0:
250,219,93491,2,0,L|235:134,1,65,10|0,2:2|1:1,0:0:0:0:
186,72,93902,2,0,P|242:29|290:37,2,97.5,10|2|10,2:2|2:2|2:2,0:0:0:0:
122,146,94724,6,0,L|136:222,1,65,4|0,1:2|0:0,0:0:0:0:
96,300,95135,1,8,2:2:0:0:
96,300,95340,1,2,1:2:0:0:
177,354,95546,1,10,2:2:0:0:
249,289,95751,1,0,1:1:0:0:
327,347,95957,2,0,L|392:331,1,65,8|0,2:2|1:1,0:0:0:0:
489,312,96368,5,8,2:2:0:0:
489,312,96573,1,0,1:1:0:0:
433,231,96779,2,0,L|444:163,1,65,8|0,2:2|1:1,0:0:0:0:
502,89,97190,1,0,1:1:0:0:
429,41,97395,1,2,1:2:0:0:
429,41,97498,1,0,1:0:0:0:
429,41,97601,2,0,L|372:52,3,32.5,10|8|8|8,2:2|2:2|0:0|0:0,0:0:0:0:
355,61,98012,6,0,P|295:50|242:83,1,116.999996429443,6|10,1:2|2:2,0:0:0:0:
192,145,98628,1,0,1:1:0:0:
192,145,98834,2,0,L|205:212,1,58.4999982147217,10|0,2:2|1:1,0:0:0:0:
265,272,99245,1,10,2:2:0:0:
265,272,99450,6,0,P|280:319|235:375,1,116.999996429443,2|2,1:2|1:2,0:0:0:0:
152,365,100066,1,8,2:2:0:0:
152,365,100272,2,0,L|69:343,1,58.4999982147217,2|8,1:2|2:2,0:0:0:0:
39,282,100683,2,0,L|53:225,1,58.4999982147217,2|10,1:2|2:2,0:0:0:0:
98,149,101094,1,10,2:2:0:0:
98,149,101197,1,8,2:2:0:0:
98,149,101299,6,0,L|223:132,1,116.999996429443,0|10,1:1|2:2,0:0:0:0:
282,76,101916,1,2,1:2:0:0:
360,114,102121,1,8,2:2:0:0:
318,191,102327,2,0,L|333:254,1,58.4999982147217,2|8,1:2|2:2,0:0:0:0:
325,335,102738,6,0,L|393:351,1,58.4999982147217,2|8,1:2|2:2,0:0:0:0:
468,364,103149,1,2,1:2:0:0:
468,364,103354,1,8,2:2:0:0:
503,283,103560,2,0,L|489:226,1,58.4999982147217,2|8,1:2|2:2,0:0:0:0:
502,139,103971,1,2,1:2:0:0:
427,93,104176,1,10,2:2:0:0:
427,93,104279,1,0,1:0:0:0:
427,93,104382,2,0,L|372:86,1,29.2499991073609,10|8,2:2|2:2,0:0:0:0:
354,84,104587,5,4,1:2:0:0:
