osu file format v14

[General]
AudioFilename: audio.mp3
AudioLeadIn: 0
PreviewTime: 13942
Countdown: 0
SampleSet: Soft
StackLeniency: 0.7
Mode: 0
LetterboxInBreaks: 0
WidescreenStoryboard: 1

[Editor]
DistanceSpacing: 0.9
BeatDivisor: 4
GridSize: 32
TimelineZoom: 2.499999

[Metadata]
Title:final phase (TV Size)
TitleUnicode:final phase (TV Size)
Artist:fripSide
ArtistUnicode:fripSide
Creator:Toumei Dragon
Version:AF's Light Extra
Source:とある科学の超電磁砲T
Tags:toaru kagaku no railgun t opening yoshino nanjo index koreapenguin Habiholic Kawashiro Affirmation anime japanese
BeatmapID:2320794
BeatmapSetID:1097552

[Difficulty]
HPDrainRate:5.7
CircleSize:3.8
OverallDifficulty:8.7
ApproachRate:9.4
SliderMultiplier:1.9
SliderTickRate:1

[Events]
//Background and Video events
0,0,"misakachan.jpg",0,0
//Break Periods
//Storyboard Layer 0 (Background)
//Storyboard Layer 1 (Fail)
//Storyboard Layer 2 (Pass)
//Storyboard Layer 3 (Foreground)
//Storyboard Layer 4 (Overlay)
//Storyboard Sound Samples

[TimingPoints]
151,402.684563758389,4,2,1,55,1,0
151,-119.047619047619,4,2,1,55,0,0
6593,-104.166666666667,4,2,1,55,0,0
13036,-104.166666666667,4,2,1,25,0,0
13439,-104.166666666667,4,2,1,40,0,0
13842,-104.166666666667,4,2,1,60,0,0
14244,-104.166666666667,4,2,1,70,0,0
14647,-89.2857142857143,4,2,2,70,0,1
14748,-89.2857142857143,4,2,1,70,0,1
14949,-89.2857142857143,4,2,2,70,0,1
15050,-89.2857142857143,4,2,1,70,0,1
15251,-89.2857142857143,4,2,2,70,0,1
15352,-89.2857142857143,4,2,1,70,0,1
16258,-89.2857142857143,4,2,3,70,0,1
16359,-89.2857142857143,4,2,1,70,0,1
17063,-89.2857142857143,4,2,4,70,0,1
17164,-89.2857142857143,4,2,1,70,0,1
17667,-89.2857142857143,4,2,5,70,0,1
17768,-89.2857142857143,4,2,1,70,0,1
17869,-89.2857142857143,4,2,6,70,0,1
18070,-89.2857142857143,4,2,1,70,0,1
18473,-89.2857142857143,4,2,7,70,0,1
18573,-89.2857142857143,4,2,1,70,0,1
18674,-89.2857142857143,4,2,8,70,0,1
18775,-89.2857142857143,4,2,1,70,0,1
19278,-89.2857142857143,4,2,9,70,0,1
19379,-89.2857142857143,4,2,1,70,0,1
19479,-89.2857142857143,4,2,10,70,0,1
19580,-89.2857142857143,4,2,1,70,0,1
20083,-89.2857142857143,4,2,11,70,0,1
20184,-89.2857142857143,4,2,1,70,0,1
20285,-89.2857142857143,4,2,12,70,0,1
20385,-89.2857142857143,4,2,1,70,0,1
20687,-89.2857142857143,4,2,13,70,0,1
20788,-89.2857142857143,4,2,1,70,0,1
21090,-89.2857142857143,4,2,14,70,0,1
21291,-89.2857142857143,4,2,15,70,0,1
21392,-89.2857142857143,4,2,1,70,0,1
21493,-89.2857142857143,4,2,16,70,0,1
21593,-89.2857142857143,4,2,1,70,0,1
21694,-89.2857142857143,4,2,17,70,0,1
21795,-89.2857142857143,4,2,1,70,0,1
21895,-89.2857142857143,4,2,18,70,0,1
22097,-89.2857142857143,4,2,19,70,0,1
22197,-89.2857142857143,4,2,1,70,0,1
22298,-89.2857142857143,4,2,20,70,0,1
22399,-89.2857142857143,4,2,1,70,0,1
22499,-89.2857142857143,4,2,21,70,0,1
22600,-89.2857142857143,4,2,1,70,0,1
22701,-89.2857142857143,4,2,22,70,0,1
22902,-89.2857142857143,4,2,1,70,0,1
23305,-89.2857142857143,4,2,23,70,0,1
23406,-89.2857142857143,4,2,1,70,0,1
23506,-89.2857142857143,4,2,24,70,0,1
23607,-89.2857142857143,4,2,1,70,0,1
24110,-89.2857142857143,4,2,25,70,0,1
24211,-89.2857142857143,4,2,1,70,0,1
24312,-89.2857142857143,4,2,5,70,0,1
24412,-89.2857142857143,4,2,1,70,0,1
24714,-89.2857142857143,4,2,27,70,0,1
24815,-89.2857142857143,4,2,1,70,0,1
25117,-89.2857142857143,4,2,28,70,0,1
25218,-89.2857142857143,4,2,1,70,0,1
25520,-89.2857142857143,4,2,29,70,0,1
25620,-89.2857142857143,4,2,1,70,0,1
25922,-89.2857142857143,4,2,30,70,0,1
26023,-89.2857142857143,4,2,1,70,0,1
26526,-89.2857142857143,4,2,31,70,0,1
26627,-89.2857142857143,4,2,1,70,0,1
26728,-89.2857142857143,4,2,32,70,0,1
26795,-89.2857142857143,4,2,1,70,0,1
29144,-89.2857142857143,4,2,1,25,0,1
29546,-89.2857142857143,4,2,1,40,0,1
29949,-89.2857142857143,4,2,1,60,0,1
30352,-89.2857142857143,4,2,1,70,0,1
30755,-109.89010989011,4,2,66,55,0,0
36392,-109.89010989011,4,2,1,55,0,0
37197,-100,4,2,1,55,0,0
43640,-100,4,2,66,55,0,0
43842,-100,4,2,1,55,0,0
50083,-100,4,2,66,55,0,0
50285,-100,4,2,1,55,0,0
59748,-89.2857142857143,4,2,2,70,0,1
59949,-89.2857142857143,4,2,1,70,0,1
60050,-89.2857142857143,4,2,2,70,0,1
60150,-89.2857142857143,4,2,1,70,0,1
60352,-89.2857142857143,4,2,2,70,0,1
60553,-89.2857142857143,4,2,1,70,0,1
61359,-89.2857142857143,4,2,3,70,0,1
61560,-89.2857142857143,4,2,1,70,0,1
62164,-89.2857142857143,4,2,34,70,0,1
62265,-89.2857142857143,4,2,1,70,0,1
62768,-89.2857142857143,4,2,5,70,0,1
62869,-89.2857142857143,4,2,1,70,0,1
62969,-89.2857142857143,4,2,6,70,0,1
63171,-89.2857142857143,4,2,1,70,0,1
63573,-89.2857142857143,4,2,7,70,0,1
63674,-89.2857142857143,4,2,1,70,0,1
63775,-89.2857142857143,4,2,8,70,0,1
63875,-89.2857142857143,4,2,1,70,0,1
64379,-89.2857142857143,4,2,9,70,0,1
64479,-89.2857142857143,4,2,1,70,0,1
64580,-89.2857142857143,4,2,10,70,0,1
64681,-89.2857142857143,4,2,1,70,0,1
65184,-89.2857142857143,4,2,11,70,0,1
65285,-89.2857142857143,4,2,1,70,0,1
65385,-89.2857142857143,4,2,12,70,0,1
65486,-89.2857142857143,4,2,1,70,0,1
65788,-89.2857142857143,4,2,13,70,0,1
65889,-89.2857142857143,4,2,1,70,0,1
66191,-89.2857142857143,4,2,14,70,0,1
66392,-89.2857142857143,4,2,15,70,0,1
66493,-89.2857142857143,4,2,1,70,0,1
66795,-89.2857142857143,4,2,35,70,0,1
66996,-89.2857142857143,4,2,1,70,0,1
67802,-89.2857142857143,4,2,3,70,0,1
67902,-89.2857142857143,4,2,1,70,0,1
68607,-89.2857142857143,4,2,34,70,0,1
68708,-89.2857142857143,4,2,1,70,0,1
69211,-89.2857142857143,4,2,5,70,0,1
69312,-89.2857142857143,4,2,1,70,0,1
69412,-89.2857142857143,4,2,6,70,0,1
69513,-89.2857142857143,4,2,1,70,0,1
70016,-89.2857142857143,4,2,7,70,0,1
70117,-89.2857142857143,4,2,1,70,0,1
70218,-89.2857142857143,4,2,8,70,0,1
70318,-89.2857142857143,4,2,1,70,0,1
70822,-89.2857142857143,4,2,9,70,0,1
70922,-89.2857142857143,4,2,1,70,0,1
71023,-89.2857142857143,4,2,10,70,0,1
71124,-89.2857142857143,4,2,1,70,0,1
71426,-89.2857142857143,4,2,36,70,0,1
71526,-89.2857142857143,4,2,1,70,0,1
71828,-89.2857142857143,4,2,3,70,0,1
71895,-89.2857142857143,4,2,1,70,0,1
72030,-89.2857142857143,4,2,38,70,0,1
72097,-89.2857142857143,4,2,1,70,0,1
72634,-89.2857142857143,4,2,2,70,0,1
72835,-89.2857142857143,4,2,1,70,0,1
72936,-89.2857142857143,4,2,2,70,0,1
73036,-89.2857142857143,4,2,1,70,0,1
73238,-89.2857142857143,4,2,2,70,0,1
73439,-89.2857142857143,4,2,1,70,0,1
74244,-89.2857142857143,4,2,3,70,0,1
74345,-89.2857142857143,4,2,1,70,0,1
75050,-89.2857142857143,4,2,34,70,0,1
75150,-89.2857142857143,4,2,1,70,0,1
75654,-89.2857142857143,4,2,5,70,0,1
75755,-89.2857142857143,4,2,1,70,0,1
75855,-89.2857142857143,4,2,6,70,0,1
75956,-89.2857142857143,4,2,1,70,0,1
76459,-89.2857142857143,4,2,7,70,0,1
76560,-89.2857142857143,4,2,1,70,0,1
76661,-89.2857142857143,4,2,8,70,0,1
76761,-89.2857142857143,4,2,1,70,0,1
77265,-89.2857142857143,4,2,9,70,0,1
77365,-89.2857142857143,4,2,1,70,0,1
77466,-89.2857142857143,4,2,10,70,0,1
77567,-89.2857142857143,4,2,1,70,0,1
78070,-89.2857142857143,4,2,11,70,0,1
78171,-89.2857142857143,4,2,1,70,0,1
78271,-89.2857142857143,4,2,12,70,0,1
78372,-89.2857142857143,4,2,1,70,0,1
78674,-89.2857142857143,4,2,39,70,0,1
78775,-89.2857142857143,4,2,1,70,0,1
78875,-89.2857142857143,4,2,40,70,0,1
78976,-89.2857142857143,4,2,1,70,0,1
79077,-89.2857142857143,4,2,41,70,0,1
79278,-89.2857142857143,4,2,42,70,0,1
79379,-89.2857142857143,4,2,1,70,0,1
79681,-89.2857142857143,4,2,43,70,0,1
79781,-89.2857142857143,4,2,1,70,0,1
79882,-89.2857142857143,4,2,44,70,0,1
79983,-89.2857142857143,4,2,1,70,0,1
80083,-89.2857142857143,4,2,45,70,0,1
80184,-89.2857142857143,4,2,1,70,0,1
80285,-89.2857142857143,4,2,46,70,0,1
80385,-89.2857142857143,4,2,1,70,0,1
80486,-89.2857142857143,4,2,47,70,0,1
80587,-89.2857142857143,4,2,1,70,0,1
80687,-89.2857142857143,4,2,48,70,0,1
80788,-89.2857142857143,4,2,1,70,0,1
81291,-89.2857142857143,4,2,14,70,0,1
81392,-89.2857142857143,4,2,1,70,0,1
81493,-89.2857142857143,4,2,15,70,0,1
81593,-89.2857142857143,4,2,1,70,0,1
82097,-89.2857142857143,4,2,49,70,0,1
82197,-89.2857142857143,4,2,1,70,0,1
82298,-89.2857142857143,4,2,34,70,0,1
82399,-89.2857142857143,4,2,1,70,0,1
83104,-89.2857142857143,4,2,51,70,0,1
83204,-89.2857142857143,4,2,1,70,0,1
83506,-89.2857142857143,4,2,52,70,0,1
83607,-89.2857142857143,4,2,1,70,0,1
83909,-89.2857142857143,4,2,53,70,0,1
84010,-89.2857142857143,4,2,1,70,0,1
84513,-89.2857142857143,4,2,54,70,0,1
84614,-89.2857142857143,4,2,1,70,0,1
84714,-89.2857142857143,4,2,55,70,0,1
84781,-89.2857142857143,4,2,1,70,0,1
87936,-89.2857142857143,4,2,1,70,0,0
88036,-89.2857142857143,4,2,1,50,0,0
89546,-89.2857142857143,4,2,0,5,0,0

[Colours]
Combo1 : 167,189,217
Combo2 : 115,77,140
Combo3 : 54,53,64
Combo4 : 74,96,140
SliderBorder : 250,255,253
SliderTrackOverride : 0,0,15

[HitObjects]
34,187,151,6,0,B|73:168|73:168|148:176,1,119.699996347046,12|0,0:0|0:0,0:0:0:0:
148,176,755,2,0,L|146:149,2,26.5999991882324,0|0|0,0:0|0:0|0:0,0:0:0:0:
190,268,956,6,0,B|229:249|229:249|304:257,1,119.699996347046,0|0,0:0|0:0,0:0:0:0:
304,257,1560,2,0,L|302:230,2,26.5999991882324,0|0|0,0:0|0:0|0:0,0:0:0:0:
346,349,1761,6,0,B|385:330|385:330|460:338,2,119.699996347046,0|0|0,0:0|0:0|0:0,0:0:0:0:
483,359,2567,5,0,0:0:0:0:
483,359,2969,1,0,0:0:0:0:
485,274,3171,1,8,0:0:0:0:
488,190,3372,6,0,B|448:208|448:208|373:200,1,119.699996347046,12|0,0:0|0:0,0:0:0:0:
374,201,3976,2,0,L|375:227,2,26.5999991882324,0|0|0,0:0|0:0|0:0,0:0:0:0:
332,109,4177,6,0,B|292:127|292:127|217:119,1,119.699996347046,0|0,0:0|0:0,0:0:0:0:
218,120,4781,2,0,L|219:146,2,26.5999991882324,0|0|0,0:0|0:0|0:0,0:0:0:0:
176,28,4982,6,0,B|136:46|136:46|61:38,2,119.699996347046,0|0|0,0:0|0:0|0:0,0:0:0:0:
332,29,5788,6,0,P|334:68|331:108,1,79.7999975646973,8|8,0:0|0:0,0:0:0:0:
136,221,6191,2,0,P|133:181|136:141,1,79.7999975646973,8|0,0:0|0:0,0:0:0:0:
379,199,6593,6,0,P|324:159|258:168,1,136.800003339844,12|0,0:0|0:0,0:0:0:0:
230,191,6996,1,8,0:0:0:0:
416,307,7197,2,0,L|446:305,2,30.4000007421875,0|0|0,0:0|0:0|0:0,0:0:0:0:
343,357,7399,6,0,B|270:363|285:317|213:323,1,136.800003339844,8|0,0:0|0:0,0:0:0:0:
187,348,7802,1,8,0:0:0:0:
58,160,8003,2,0,L|56:129,2,30.4000007421875,0|0|0,0:0|0:0|0:0,0:0:0:0:
3,228,8204,6,0,B|47:210|47:210|135:220,1,136.800003339844,8|0,0:0|0:0,0:0:0:0:
168,237,8607,1,8,0:0:0:0:
330,108,8808,1,0,0:0:0:0:
233,65,9010,6,0,P|228:110|234:155,1,91.2000022265626,8|0,0:0|0:0,0:0:0:0:
325,305,9412,1,8,0:0:0:0:
325,305,9614,1,0,0:0:0:0:
409,175,9815,5,12,0:0:0:0:
168,237,10016,1,8,0:0:0:0:
412,274,10218,1,8,0:0:0:0:
330,108,10419,1,8,0:0:0:0:
240,336,10620,5,8,0:0:0:0:
330,108,10822,1,8,0:0:0:0:
428,362,11022,1,8,0:0:0:0:
234,155,11224,1,8,0:0:0:0:
483,256,11426,5,8,0:0:0:0:
439,244,11526,1,0,0:0:0:0:
394,249,11627,1,8,0:0:0:0:
354,270,11728,1,0,0:0:0:0:
324,304,11828,1,8,0:0:0:0:
295,339,11929,1,0,0:0:0:0:
255,360,12030,1,8,0:0:0:0:
210,365,12131,1,0,0:0:0:0:
166,353,12231,6,0,L|167:307,3,45.6000011132813,8|8|8|8,0:0|0:0|0:0|0:0,0:0:0:0:
93,247,12634,2,0,L|94:201,3,45.6000011132813,8|8|8|8,0:0|0:0|0:0|0:0,0:0:0:0:
166,139,13036,5,0,0:0:0:0:
177,139,13136,1,0,0:0:0:0:
188,139,13237,1,0,0:0:0:0:
200,140,13338,1,0,0:0:0:0:
211,140,13438,1,0,0:0:0:0:
222,140,13539,1,0,0:0:0:0:
234,141,13640,1,0,0:0:0:0:
245,141,13740,1,0,0:0:0:0:
257,142,13842,2,0,L|256:111,2,30.4000007421875,0|0|0,0:0|0:0|0:0,0:0:0:0:
336,198,14043,5,0,0:0:0:0:
381,197,14143,1,0,0:0:0:0:
414,226,14244,1,0,0:0:0:0:
418,271,14345,1,0,0:0:0:0:
391,306,14445,1,0,0:0:0:0:
347,313,14546,1,0,0:0:0:0:
310,289,14647,6,0,B|273:269|273:269|210:279,1,106.400001298828,12|0,0:0|0:0,0:0:0:0:
173,301,14949,1,2,0:0:0:0:
173,301,15050,2,0,L|174:247,1,53.2000006494141,10|0,0:0|0:0,0:0:0:0:
182,146,15251,1,2,0:0:0:0:
69,259,15453,2,0,B|54:209|54:209|73:158,1,106.400001298828,8|0,0:0|0:0,0:0:0:0:
113,83,15755,1,0,0:0:0:0:
113,83,15855,2,0,L|6:79,1,106.400001298828,10|0,0:0|0:0,0:0:0:0:
270,22,16258,5,8,0:0:0:0:
270,22,16359,2,0,P|263:74|269:127,1,106.400001298828,0|0,0:0|0:0,0:0:0:0:
296,160,16661,2,0,L|349:158,1,53.2000006494141,10|0,0:0|0:0,0:0:0:0:
430,233,16862,2,0,L|483:231,1,53.2000006494141,0|0,0:0|0:0,0:0:0:0:
343,276,17063,1,8,0:0:0:0:
427,96,17265,2,0,B|435:124|435:124|431:147,1,53.2000006494141,0|0,0:0|0:0,0:0:0:0:
332,295,17466,2,0,L|225:291,1,106.400001298828,10|2,0:0|0:0,0:0:0:0:
113,126,17869,6,0,B|165:118|165:118|215:135|215:135|268:127,1,159.600001948242,8|0,0:0|0:0,0:0:0:0:
299,98,18271,1,14,0:0:0:0:
190,289,18473,1,2,0:0:0:0:
430,338,18674,2,0,P|435:285|429:232,1,106.400001298828,8|0,0:0|0:0,0:0:0:0:
400,152,18976,1,0,0:0:0:0:
400,152,19077,2,0,L|506:148,1,106.400001298828,14|2,0:0|0:0,0:0:0:0:
257,24,19479,5,12,0:0:0:0:
257,24,19580,2,0,B|274:66|274:66|268:127,1,106.400001298828,0|0,0:0|0:0,0:0:0:0:
249,165,19882,2,0,L|195:163,1,53.2000006494141,10|0,0:0|0:0,0:0:0:0:
70,157,20083,1,2,0:0:0:0:
70,157,20184,1,0,0:0:0:0:
70,157,20285,1,8,0:0:0:0:
249,270,20486,1,0,0:0:0:0:
35,368,20687,2,0,B|22:318|22:318|36:264,1,106.400001298828,14|0,0:0|0:0,0:0:0:0:
332,188,21090,6,0,B|359:242|359:242|348:340,1,159.600001948242,12|0,0:0|0:0,0:0:0:0:
432,378,21493,2,0,B|443:272,1,106.400001298828,10|2,0:0|0:0,0:0:0:0:
249,270,21895,2,0,B|158:271|188:313|99:313,1,159.600001948242,12|0,0:0|0:0,0:0:0:0:
98,313,22298,1,10,0:0:0:0:
271,296,22499,1,2,0:0:0:0:
75,129,22701,6,0,B|114:77|177:93|177:93|174:136,1,159.600001948242,12|0,0:0|0:0,0:0:0:0:
268,65,23104,2,0,B|262:171,1,106.400001298828,10|2,0:0|0:0,0:0:0:0:
443,272,23506,2,0,B|448:165,1,106.400001298828,12|0,0:0|0:0,0:0:0:0:
448,123,23808,1,0,0:0:0:0:
448,123,23909,2,0,B|394:125,1,53.2000006494141,14|0,0:3|0:0,0:0:0:0:
262,171,24110,1,2,0:0:0:0:
443,272,24312,5,12,0:0:0:0:
262,171,24513,1,0,0:0:0:0:
406,43,24714,5,10,0:0:0:0:
349,288,24916,1,0,0:0:0:0:
227,85,25117,5,12,0:0:0:0:
499,195,25318,1,0,0:0:0:0:
206,245,25520,5,10,0:0:0:0:
484,100,25721,1,0,0:0:0:0:
226,32,25922,5,12,0:0:0:0:
226,32,26023,2,0,B|230:57|230:57|226:84,1,53.2000006494141,0|0,0:0|0:0,0:0:0:0:
326,196,26224,1,0,0:0:0:0:
326,196,26325,2,0,B|322:171|322:171|325:143,1,53.2000006494141,10|0,0:0|0:0,0:0:0:0:
406,43,26526,2,0,L|459:44,1,53.2000006494141,2|0,0:0|0:0,0:0:0:0:
427,233,26728,6,0,L|428:268,2,35.4666670996094,8|0|0,0:0|0:0|0:0,0:0:0:0:
324,143,26929,2,0,L|325:108,2,35.4666670996094,0|0|0,0:0|0:0|0:0,0:0:0:0:
242,287,27130,2,0,L|243:322,2,35.4666670996094,10|0|0,0:0|0:0|0:0,0:0:0:0:
103,154,27331,2,0,L|102:119,2,35.4666670996094,0|0|0,0:0|0:0|0:0,0:0:0:0:
27,229,27534,6,0,B|1:192|1:192|7:131,1,106.400001298828,10|0,0:0|0:0,0:0:0:0:
179,53,27835,2,0,B|205:90|205:90|198:150,1,106.400001298828,10|0,0:0|0:0,0:0:0:0:
165,258,28137,2,0,L|113:253,1,53.2000006494141,10|0,0:0|0:0,0:0:0:0:
228,172,28338,6,0,B|278:192|278:192|328:177,1,106.400001298828,14|0,0:0|0:0,0:0:0:0:
474,104,28641,2,0,B|424:84|424:84|373:98,1,106.400001298828,10|0,0:0|0:0,0:0:0:0:
413,236,28942,2,0,L|418:183,1,53.2000006494141,10|0,0:0|0:0,0:0:0:0:
281,65,29144,5,0,0:0:0:0:
247,46,29244,1,0,0:0:0:0:
208,49,29345,1,0,0:0:0:0:
177,73,29446,1,0,0:0:0:0:
166,110,29546,1,0,0:0:0:0:
154,147,29647,1,0,0:0:0:0:
123,171,29748,1,0,0:0:0:0:
84,174,29848,1,0,0:0:0:0:
50,154,29949,6,0,L|51:118,2,35.4666670996094,0|0|0,0:0|0:0|0:0,0:0:0:0:
41,268,30150,2,0,L|94:265,1,53.2000006494141,0|0,0:0|0:0,0:0:0:0:
209,214,30352,1,0,0:0:0:0:
234,244,30452,1,0,0:0:0:0:
243,283,30553,1,0,0:0:0:0:
235,321,30654,1,0,0:0:0:0:
210,352,30755,6,0,B|267:345|267:345|323:361|323:361|379:354,1,172.900005804138,8|8,0:0|0:0,0:0:0:0:
379,353,31359,1,2,0:3:0:0:
334,181,31560,2,0,B|325:225|325:225|332:265,1,86.4500029020692,8|2,0:0|0:3,0:0:0:0:
489,349,31963,2,0,B|498:305|498:305|490:264,1,86.4500029020692,8|2,0:0|0:3,0:0:0:0:
367,98,32365,6,0,P|317:138|253:140,1,129.675004353104,8|0,0:0|0:0,0:0:0:0:
221,152,32768,2,0,L|225:66,1,86.4500029020692,0|2,0:0|0:3,0:0:0:0:
95,230,33171,2,0,B|152:224|152:224|204:251|204:251|261:245,1,172.900005804138,8|8,0:0|0:0,0:0:0:0:
334,181,33775,1,2,0:3:0:0:
373,365,33976,6,0,B|318:333|318:333|209:347,1,172.900005804138,8|8,0:0|0:0,0:0:0:0:
209,347,34580,1,2,0:3:0:0:
363,175,34781,2,0,P|368:217|365:260,1,86.4500029020692,8|2,0:0|0:3,0:0:0:0:
489,369,35184,2,0,P|483:326|486:283,1,86.4500029020692,8|2,0:0|0:3,0:0:0:0:
500,119,35587,6,0,P|463:70|400:68,1,129.675004353104,8|0,0:0|0:0,0:0:0:0:
371,87,35989,2,0,L|285:83,1,86.4500029020692,8|2,0:0|0:3,0:0:0:0:
76,126,36392,1,8,0:0:0:0:
73,82,36492,1,2,0:0:0:0:
202,178,36694,1,0,0:0:0:0:
199,222,36794,1,10,0:0:0:0:
27,310,36996,1,8,0:0:0:0:
27,310,37097,1,0,0:0:0:0:
27,309,37197,6,0,P|91:286|143:330,1,142.5,12|0,0:0|0:0,0:0:0:0:
163,362,37600,2,0,L|257:355,1,95,10|0,0:0|0:0,0:0:0:0:
420,264,38003,2,0,B|372:229|372:229|288:235,1,142.5,12|0,0:0|0:0,0:0:0:0:
256,256,38406,2,0,P|242:210|246:163,1,95,10|0,0:0|0:0,0:0:0:0:
125,45,38808,6,0,P|145:112|139:183,1,142.5,12|0,0:0|0:0,0:0:0:0:
121,216,39211,2,0,L|26:213,1,95,10|0,0:0|0:0,0:0:0:0:
234,71,39614,2,0,B|296:65|296:65|353:94|353:94|415:88,1,190,8|10,0:0|0:0,0:0:0:0:
416,88,40218,1,0,0:0:0:0:
255,162,40419,6,0,B|246:208|246:208|255:255,1,95,12|0,0:0|0:0,0:0:0:0:
338,207,40822,1,10,0:0:0:0:
138,314,41023,1,0,0:0:0:0:
293,359,41224,2,0,L|387:356,1,95,12|0,0:0|0:0,0:0:0:0:
121,216,41627,2,0,L|26:213,1,95,10|0,0:0|0:0,0:0:0:0:
229,76,42030,6,0,B|325:64|311:127|411:112,1,190,12|10,0:0|0:0,0:0:0:0:
255,255,42634,2,0,L|253:207,1,47.5,0|0,0:0|0:0,0:0:0:0:
134,121,42835,1,8,0:0:0:0:
134,121,42936,2,0,P|86:125|39:129,1,95,2|0,0:0|0:0,0:0:0:0:
26,224,43238,2,0,P|73:219|120:215,1,95,10|0,0:0|0:0,0:0:0:0:
377,281,43640,6,0,P|322:239|254:254,1,142.5,12|8,0:0|0:0,0:0:0:0:
218,242,44043,2,0,P|222:289|226:336,1,95,0|8,0:0|0:0,0:0:0:0:
322,155,44446,2,0,P|317:107|313:60,1,95,8|0,0:0|0:0,0:0:0:0:
400,98,44848,1,10,0:0:0:0:
218,242,45050,1,0,0:0:0:0:
442,336,45251,6,0,B|476:300|476:300|458:208,1,142.5,12|0,0:0|0:0,0:0:0:0:
429,183,45654,2,0,L|430:88,1,95,10|0,0:0|0:0,0:0:0:0:
343,253,46057,1,8,0:0:0:0:
343,253,46157,2,0,P|277:275|217:242,1,142.5,0|10,0:0|0:0,0:0:0:0:
285,190,46661,1,0,0:0:0:0:
103,69,46862,6,0,P|112:139|103:210,1,142.5,12|8,0:0|0:0,0:0:0:0:
75,235,47265,2,0,L|27:234,2,47.5,0|0|8,0:0|0:0|0:0,0:0:0:0:
242,83,47667,1,8,0:0:0:0:
242,83,47768,2,0,B|273:79|273:79|301:92|301:92|333:88,1,95,0|0,0:0|0:0,0:0:0:0:
366,71,48070,2,0,P|372:117|366:164,1,95,10|0,0:0|0:0,0:0:0:0:
269,365,48473,6,0,P|259:294|269:224,1,142.5,12|0,0:0|0:0,0:0:0:0:
285,190,48875,2,0,L|189:188,1,95,10|0,0:0|0:0,0:0:0:0:
365,281,49278,1,8,0:0:0:0:
365,281,49379,2,0,L|460:282,1,95,2|0,0:0|0:0,0:0:0:0:
495,268,49681,2,0,P|498:244|496:220,1,47.5,10|0,0:0|0:0,0:0:0:0:
450,119,49882,1,0,0:0:0:0:
285,190,50083,6,0,P|274:260|284:330,1,142.5,12|0,0:0|0:0,0:0:0:0:
300,364,50486,2,0,L|205:363,1,95,10|0,0:0|0:0,0:0:0:0:
57,302,50889,1,8,0:0:0:0:
57,302,50989,2,0,P|102:249|172:246,1,142.5,0|10,0:0|0:0,0:0:0:0:
291,154,51493,2,0,L|243:153,1,47.5,0|0,0:0|0:0,0:0:0:0:
360,230,51694,6,0,B|393:194|393:194|384:100,1,142.5,12|0,0:0|0:0,0:0:0:0:
363,69,52097,2,0,P|408:80|454:68,1,95,10|0,0:0|0:0,0:0:0:0:
291,154,52499,1,8,0:0:0:0:
291,154,52600,2,0,P|222:137|154:155,1,142.5,0|10,0:0|0:0,0:0:0:0:
50,250,53104,1,0,0:0:0:0:
181,341,53305,6,0,P|196:296|189:249,1,95,12|0,0:0|0:0,0:0:0:0:
84,357,53708,1,10,0:0:0:0:
286,293,53909,1,0,0:0:0:0:
63,222,54110,2,0,B|58:175|58:175|74:130|74:130|69:82,1,142.5,8|0,0:0|0:0,0:0:0:0:
52,48,54513,2,0,L|146:50,1,95,10|0,0:0|0:0,0:0:0:0:
329,108,54916,6,0,P|291:165|222:175,1,142.5,12|0,0:0|0:0,0:0:0:0:
189,157,55318,2,0,B|200:203|200:203|189:250,1,95,10|0,0:0|0:0,0:0:0:0:
320,352,55721,2,0,B|309:305|309:305|320:259,1,95,8|0,0:0|0:0,0:0:0:0:
215,362,56124,1,10,0:0:0:0:
404,305,56325,1,0,0:0:0:0:
189,249,56526,6,0,P|118:249|55:281,1,142.5,14|10,0:0|0:0,0:0:0:0:
26,305,56929,2,0,P|23:257|19:210,1,95,0|10,0:0|0:0,0:0:0:0:
108,33,57332,1,14,0:0:0:0:
108,33,57432,2,0,P|110:80|114:127,1,95,0|10,0:0|0:0,0:0:0:0:
133,161,57734,2,0,L|227:150,1,95,0|10,0:0|0:0,0:0:0:0:
436,76,58137,6,0,P|375:39|305:38,2,142.5,14|14|14,0:0|0:0|0:0,0:0:0:0:
404,191,58942,2,0,L|407:238,3,47.5,0|0|0|0,0:0|0:0|0:0|0:0,0:0:0:0:
318,228,59345,2,0,L|321:275,3,47.5,0|0|0|0,0:0|0:0|0:0|0:0,0:0:0:0:
241,171,59748,6,0,P|192:192|141:181,1,106.400001298828,12|0,0:0|0:0,0:0:0:0:
99,182,60050,1,2,0:0:0:0:
99,182,60150,2,0,L|102:128,1,53.2000006494141,10|0,0:0|0:0,0:0:0:0:
184,48,60352,1,2,0:0:0:0:
14,218,60553,2,0,P|22:270|20:323,1,106.400001298828,8|0,0:0|0:0,0:0:0:0:
91,372,60855,1,0,0:0:0:0:
91,372,60956,2,0,L|197:365,1,106.400001298828,10|0,0:0|0:0,0:0:0:0:
402,325,61359,6,0,P|377:254|302:251,1,159.600001948242,8|0,0:0|0:0,0:0:0:0:
218,275,61761,2,0,P|222:221|223:168,1,106.400001298828,10|0,0:0|0:0,0:0:0:0:
376,39,62164,2,0,P|371:92|370:145,1,106.400001298828,8|0,0:0|0:0,0:0:0:0:
372,231,62466,1,0,0:0:0:0:
372,231,62567,2,0,P|423:243|473:228,1,106.400001298828,10|2,0:0|0:0,0:0:0:0:
256,150,62969,6,0,P|179:131|103:153,1,159.600001948242,8|0,0:0|0:0,0:0:0:0:
39,214,63372,2,0,L|42:320,1,106.400001298828,14|2,0:0|0:0,0:0:0:0:
199,243,63775,1,8,0:0:0:0:
17,121,63976,1,0,0:0:0:0:
17,121,64077,1,0,0:0:0:0:
17,121,64177,1,14,0:0:0:0:
175,227,64379,1,2,0:0:0:0:
265,47,64580,5,12,0:0:0:0:
265,47,64681,2,0,B|273:99|273:99|255:148,1,106.400001298828,0|0,0:0|0:0,0:0:0:0:
306,222,64983,2,0,L|412:215,1,106.400001298828,10|2,0:0|0:0,0:0:0:0:
222,370,65385,1,8,0:0:0:0:
222,370,65486,2,0,L|115:363,1,106.400001298828,0|0,0:0|0:0,0:0:0:0:
42,320,65788,2,0,P|40:266|52:215,1,106.400001298828,14|0,0:0|0:0,0:0:0:0:
185,122,66191,6,0,P|186:175|174:226,1,106.400001298828,12|2,0:0|0:0,0:0:0:0:
157,265,66493,1,0,0:0:0:0:
157,265,66593,2,0,L|210:268,1,53.2000006494141,10|0,0:0|0:0,0:0:0:0:
412,215,66795,1,2,0:0:0:0:
332,371,66996,2,0,B|321:319|321:319|335:267,1,106.400001298828,8|0,0:0|0:0,0:0:0:0:
412,215,67298,1,0,0:0:0:0:
412,215,67398,2,0,B|426:163|426:163|415:111,1,106.400001298828,10|0,0:0|0:0,0:0:0:0:
251,32,67802,5,12,0:0:0:0:
251,32,67902,2,0,L|254:138,1,106.400001298828,0|0,0:0|0:0,0:0:0:0:
223,167,68204,2,0,P|196:171|170:167,1,53.2000006494141,10|0,0:0|0:0,0:0:0:0:
78,82,68406,2,0,P|104:77|130:81,1,53.2000006494141,0|0,0:0|0:0,0:0:0:0:
249,249,68607,2,0,P|196:258|144:250,1,106.400001298828,8|0,0:0|0:0,0:0:0:0:
57,218,68909,1,0,0:0:0:0:
57,218,69010,2,0,L|54:324,1,106.400001298828,10|2,0:0|0:0,0:0:0:0:
251,355,69412,5,12,0:0:0:0:
251,355,69513,2,0,L|248:248,1,106.400001298828,0|0,0:0|0:0,0:0:0:0:
258,207,69815,2,0,P|285:204|311:206,1,53.2000006494141,10|0,0:0|0:0,0:0:0:0:
449,297,70016,1,2,0:0:0:0:
449,297,70117,1,0,0:0:0:0:
449,297,70217,2,0,P|396:302|343:298,1,106.400001298828,8|0,0:0|0:0,0:0:0:0:
488,188,70620,1,10,0:0:0:0:
507,378,70821,1,2,0:0:0:0:
345,180,71023,6,0,L|346:126,1,53.2000006494141,8|0,0:0|0:0,0:0:0:0:
248,248,71224,2,0,L|246:301,1,53.2000006494141,0|0,0:0|0:0,0:0:0:0:
155,173,71426,2,0,L|156:119,1,53.2000006494141,14|0,0:0|0:0,0:0:0:0:
58,241,71627,2,0,L|56:294,1,53.2000006494141,0|0,0:0|0:0,0:0:0:0:
24,100,71828,5,8,0:0:0:0:
56,77,71928,1,0,0:0:0:0:
95,72,72029,1,2,0:0:0:0:
131,88,72130,1,0,0:0:0:0:
155,119,72230,1,14,0:0:0:0:
179,150,72332,1,0,0:0:0:0:
215,165,72433,1,0,0:0:0:0:
254,161,72534,1,0,0:0:0:0:
286,138,72634,6,0,P|283:84|282:31,1,106.400001298828,12|0,0:0|0:0,0:0:0:0:
318,9,72936,1,2,0:0:0:0:
318,9,73036,2,0,P|344:9|369:17,1,53.2000006494141,10|0,0:0|0:0,0:0:0:0:
466,88,73238,1,2,0:0:0:0:
407,237,73439,2,0,P|355:249|303:242,1,106.400001298828,8|0,0:0|0:0,0:0:0:0:
218,269,73741,1,0,0:0:0:0:
218,269,73841,2,0,L|214:375,1,106.400001298828,10|0,0:0|0:0,0:0:0:0:
58,241,74244,5,8,0:0:0:0:
58,241,74345,2,0,L|61:134,1,106.400001298828,0|0,0:0|0:0,0:0:0:0:
133,79,74647,2,0,B|153:127|153:127|140:180,1,106.400001298828,10|0,0:0|0:0,0:0:0:0:
303,242,75050,2,0,B|283:194|283:194|295:140,1,106.400001298828,8|0,0:0|0:0,0:0:0:0:
347,69,75352,1,0,0:0:0:0:
347,69,75453,2,0,L|453:72,1,106.400001298828,10|2,0:0|0:0,0:0:0:0:
320,269,75855,6,0,P|244:290|173:258,1,159.600001948242,8|0,0:0|0:0,0:0:0:0:
136,236,76258,2,0,B|148:289|148:289|128:337,1,106.400001298828,14|2,0:0|0:0,0:0:0:0:
38,177,76661,2,0,L|43:70,1,106.400001298828,8|0,0:0|0:0,0:0:0:0:
43,28,76963,1,0,0:0:0:0:
43,28,77063,2,0,L|95:33,1,53.2000006494141,14|0,0:0|0:0,0:0:0:0:
181,142,77265,2,0,L|128:136,1,53.2000006494141,2|0,0:0|0:0,0:0:0:0:
228,48,77466,6,0,B|319:40|285:97|377:86,1,159.600001948242,12|0,0:0|0:0,0:0:0:0:
456,33,77869,2,0,P|467:84|458:136,1,106.400001298828,10|2,0:0|0:0,0:0:0:0:
304,340,78271,1,8,0:0:0:0:
304,340,78371,2,0,P|292:288|301:236,1,106.400001298828,0|0,0:0|0:0,0:0:0:0:
366,172,78674,2,0,L|472:176,1,106.400001298828,14|2,0:0|0:0,0:0:0:0:
276,262,79077,6,0,P|198:263|150:202,1,159.600001948242,12|0,0:0|0:0,0:0:0:0:
232,79,79479,2,0,B|247:131|247:131|237:183,1,106.400001298828,10|2,0:0|0:0,0:0:0:0:
65,349,79882,2,0,L|224:356,1,159.600001948242,12|0,0:0|0:0,0:0:0:0:
327,266,80285,2,0,B|301:270|301:270|275:262,1,53.2000006494141,10|0,0:0|0:0,0:0:0:0:
150,202,80486,1,2,0:0:0:0:
451,363,80687,5,12,0:0:0:0:
451,363,80788,2,0,P|434:312|441:260,1,106.400001298828,0|0,0:0|0:0,0:0:0:0:
496,100,81090,2,0,P|512:150|506:203,1,106.400001298828,10|2,0:0|0:0,0:0:0:0:
278,170,81493,1,12,0:0:0:0:
441,260,81694,1,0,0:0:0:0:
441,260,81795,1,0,0:0:0:0:
441,260,81895,1,14,0:3:0:0:
305,181,82097,1,2,0:0:0:0:
332,384,82298,6,0,P|335:330|344:278,1,106.400001298828,12|0,0:0|0:0,0:0:0:0:
237,369,82701,1,10,0:0:0:0:
452,286,82902,1,0,0:0:0:0:
239,265,83104,2,0,L|132:274,1,106.400001298828,12|0,0:0|0:0,0:0:0:0:
329,191,83506,1,10,0:0:0:0:
237,369,83708,1,0,0:0:0:0:
22,208,83909,5,12,0:0:0:0:
20,156,84009,1,0,0:0:0:0:
54,116,84110,1,0,0:0:0:0:
106,111,84211,1,0,0:0:0:0:
148,141,84311,1,10,0:0:0:0:
189,170,84412,1,0,0:0:0:0:
240,164,84513,1,2,0:0:0:0:
274,125,84614,1,0,0:0:0:0:
273,73,84714,6,0,L|270:37,2,35.4666670996094,8|0|0,0:0|0:0|0:0,0:0:0:0:
381,133,84916,2,0,L|383:97,2,35.4666670996094,0|0|0,0:0|0:0|0:0,0:0:0:0:
191,205,85117,2,0,L|188:169,2,35.4666670996094,10|0|0,0:0|0:0|0:0,0:0:0:0:
399,259,85319,2,0,L|401:223,2,35.4666670996094,0|0|0,0:0|0:0|0:0,0:0:0:0:
276,341,85520,6,0,P|225:353|172:349,1,106.400001298828,14|0,0:0|0:0,0:0:0:0:
49,269,85822,2,0,P|100:256|153:260,1,106.400001298828,10|0,0:0|0:0,0:0:0:0:
242,199,86124,2,0,L|245:145,1,53.2000006494141,10|0,0:0|0:0,0:0:0:0:
170,42,86325,6,0,B|145:88|145:88|157:140,1,106.400001298828,14|0,0:0|0:0,0:0:0:0:
325,231,86627,2,0,B|350:185|350:185|337:132,1,106.400001298828,10|0,0:0|0:0,0:0:0:0:
282,48,86929,2,0,L|335:44,1,53.2000006494141,10|0,0:0|0:0,0:0:0:0:
467,141,87130,6,0,L|502:138,2,35.4666670996094,0|0|0,0:0|0:0|0:0,0:0:0:0:
455,260,87332,2,0,L|490:257,2,35.4666670996094,0|0|0,0:0|0:0|0:0,0:0:0:0:
289,215,87533,2,0,L|254:212,2,35.4666670996094,8|8|8,0:0|0:0|0:0,0:0:0:0:
301,334,87735,2,0,L|266:331,2,35.4666670996094,8|8|8,0:0|0:0|0:0,0:0:0:0:
380,198,87936,5,12,0:0:0:0:
256,192,88036,12,0,89546,0:0:0:0:
