osu file format v14

[General]
AudioFilename: audio.mp3
AudioLeadIn: 0
PreviewTime: 59359
Countdown: 0
SampleSet: Normal
StackLeniency: 0.7
Mode: 1
LetterboxInBreaks: 0
WidescreenStoryboard: 0

[Editor]
Bookmarks: 468,6910,13353,14964,21406,29460,31071,37513,43956,50399,58453,60064,66506,72949,79392,87446,89057,95499,101942,108385,116439,118050,124492,130935,137378,145432,151874,158317,164760,174425,180867,187310,193753,201807,203418,209860,216303,222746,231605,238048
DistanceSpacing: 1.7
BeatDivisor: 4
GridSize: 32
TimelineZoom: 2.599999

[Metadata]
Title:final phase
TitleUnicode:final phase
Artist:fripSide
ArtistUnicode:fripSide
Creator:Roger
Version:final oni
Source:とある科学の超電磁砲T
Tags:taiko opening anime japanese pop to aru toaru kagaku no railgun a certain scientific T 南條愛乃 Nanjou Yoshino 八木沼悟志 Yaginuma Satoshi ][ -GH- ][ full version
BeatmapID:2294129
BeatmapSetID:1097981

[Difficulty]
HPDrainRate:5.5
CircleSize:2
OverallDifficulty:6.5
ApproachRate:0
SliderMultiplier:1.4
SliderTickRate:1

[Events]
//Background and Video events
0,0,"bg.jpg",0,40
//Break Periods
//Storyboard Layer 0 (Background)
//Storyboard Layer 1 (Fail)
//Storyboard Layer 2 (Pass)
//Storyboard Layer 3 (Foreground)
//Storyboard Layer 4 (Overlay)
//Storyboard Sound Samples

[TimingPoints]
468,402.684563758389,4,1,0,65,1,0
6910,-95.2380952380952,4,1,0,75,0,0
10132,-90.9090909090909,4,1,0,75,0,0
13353,-90.9090909090909,4,1,0,65,0,0
14914,-90.9090909090909,4,1,0,75,0,0
14964,402.684563758389,4,1,0,85,1,1
14964,-83.3333333333333,4,1,0,85,0,1
26239,-82.8775070445881,4,1,0,85,0,1
26339,-82.4198466990851,4,1,0,85,0,1
26440,-81.9672131147541,4,1,0,85,0,1
26541,-81.5261699005381,4,1,0,85,0,1
26641,-81.0832725208789,4,1,0,85,0,1
26742,-80.6451612903226,4,1,0,85,0,1
26843,-80.2181934862827,4,1,0,85,0,1
26943,-79.7893560998963,4,1,0,85,0,1
27044,-79.3650793650794,4,1,0,85,0,1
27111,-79.0513833992095,4,1,0,85,0,1
27178,-78.7401574803149,4,1,0,85,0,1
27245,-78.4313725490196,4,1,0,85,0,1
27312,-78.125,4,1,0,85,0,1
27380,-77.8210116731517,4,1,0,85,0,1
27447,-77.5193798449612,4,1,0,85,0,1
27514,-77.2200772200772,4,1,0,85,0,1
27581,-76.9230769230769,4,1,0,85,0,1
27648,-76.6283524904215,4,1,0,85,0,1
27715,-76.3358778625954,4,1,0,85,0,1
27782,-76.0456273764259,4,1,0,85,0,1
27849,-75.7575757575758,4,1,0,85,0,1
29410,-75.7575757575758,4,1,0,75,0,1
29460,-75.7575757575758,4,1,0,65,0,0
29561,-77.2200772200772,4,1,0,65,0,0
29661,-78.7401574803149,4,1,0,65,0,0
29762,-80.3212851405623,4,1,0,65,0,0
29863,-81.9672131147541,4,1,0,65,0,0
29963,-83.6820083682008,4,1,0,65,0,0
30064,-85.4700854700855,4,1,0,65,0,0
30165,-87.3362445414847,4,1,0,65,0,0
30266,-89.2857142857143,4,1,0,65,0,0
30333,-91.324200913242,4,1,0,65,0,0
30400,-93.4579439252336,4,1,0,65,0,0
30467,-95.6937799043062,4,1,0,65,0,0
30568,-98.0392156862745,4,1,0,65,0,0
30668,-100.502512562814,4,1,0,65,0,0
30769,-103.092783505155,4,1,0,65,0,0
30870,-105.820105820106,4,1,0,65,0,0
30970,-108.695652173913,4,1,0,65,0,0
31071,402.684563758389,4,1,0,65,1,0
31071,-111.111111111111,4,1,0,65,0,0
36708,-105.263157894737,4,1,0,75,0,0
37513,-100,4,1,0,75,0,0
56842,-95.2380952380952,4,1,0,75,0,0
58453,-90.9090909090909,4,1,0,70,0,0
59258,-90.9090909090909,4,1,0,65,0,0
60013,-90.9090909090909,4,1,0,75,0,0
60064,402.684563758389,4,1,0,85,1,1
60064,-83.3333333333333,4,1,0,85,0,1
72748,-83.3333333333333,4,1,0,85,0,0
72949,-83.3333333333333,4,1,0,85,0,1
84225,-82.8775070445881,4,1,0,85,0,1
84325,-82.4198466990851,4,1,0,85,0,1
84426,-81.9672131147541,4,1,0,85,0,1
84527,-81.5261699005381,4,1,0,85,0,1
84627,-81.0832725208789,4,1,0,85,0,1
84728,-80.6451612903226,4,1,0,85,0,1
84829,-80.2181934862827,4,1,0,85,0,1
84929,-79.7893560998963,4,1,0,85,0,1
85030,-79.3650793650794,4,1,0,85,0,1
85097,-79.0513833992095,4,1,0,85,0,1
85164,-78.7401574803149,4,1,0,85,0,1
85231,-78.4313725490196,4,1,0,85,0,1
85298,-78.125,4,1,0,85,0,1
85366,-77.8210116731517,4,1,0,85,0,1
85433,-77.5193798449612,4,1,0,85,0,1
85500,-77.2200772200772,4,1,0,85,0,1
85567,-76.9230769230769,4,1,0,85,0,1
85634,-76.6283524904215,4,1,0,85,0,1
85701,-76.3358778625954,4,1,0,85,0,1
85768,-76.0456273764259,4,1,0,85,0,1
85835,-75.7575757575758,4,1,0,85,0,1
87396,-75.7575757575758,4,1,0,75,0,1
87446,-75.7575757575758,4,1,0,65,0,0
87547,-77.2200772200772,4,1,0,65,0,0
87647,-78.7401574803149,4,1,0,65,0,0
87748,-80.3212851405623,4,1,0,65,0,0
87849,-81.9672131147541,4,1,0,65,0,0
87949,-83.6820083682008,4,1,0,65,0,0
88050,-85.4700854700855,4,1,0,65,0,0
88151,-87.3362445414847,4,1,0,65,0,0
88251,-89.2857142857143,4,1,0,65,0,0
88319,-91.324200913242,4,1,0,65,0,0
88386,-93.4579439252336,4,1,0,65,0,0
88453,-95.6937799043062,4,1,0,65,0,0
88553,-98.0392156862745,4,1,0,65,0,0
88654,-100.502512562814,4,1,0,65,0,0
88755,-103.092783505155,4,1,0,65,0,0
88855,-105.820105820106,4,1,0,65,0,0
88956,-108.695652173913,4,1,0,65,0,0
89057,402.684563758389,4,1,0,65,1,0
89057,-111.111111111111,4,1,0,65,0,0
93889,-111.111111111111,4,1,0,5,0,0
95449,-100,4,1,0,65,0,0
95499,-100,4,1,0,75,0,0
114828,-95.2380952380952,4,1,0,75,0,0
116439,-90.9090909090909,4,1,0,70,0,0
117244,-90.9090909090909,4,1,0,65,0,0
117999,-90.9090909090909,4,1,0,75,0,0
118050,402.684563758389,4,1,0,85,1,1
118050,-83.3333333333333,4,1,0,85,0,1
130734,-83.3333333333333,4,1,0,85,0,0
130935,-83.3333333333333,4,1,0,85,0,1
142211,-82.8775070445881,4,1,0,85,0,1
142311,-82.4198466990851,4,1,0,85,0,1
142412,-81.9672131147541,4,1,0,85,0,1
142513,-81.5261699005381,4,1,0,85,0,1
142613,-81.0832725208789,4,1,0,85,0,1
142714,-80.6451612903226,4,1,0,85,0,1
142815,-80.2181934862827,4,1,0,85,0,1
142915,-79.7893560998963,4,1,0,85,0,1
143016,-79.3650793650794,4,1,0,85,0,1
143083,-79.0513833992095,4,1,0,85,0,1
143150,-78.7401574803149,4,1,0,85,0,1
143217,-78.4313725490196,4,1,0,85,0,1
143284,-78.125,4,1,0,85,0,1
143352,-77.8210116731517,4,1,0,85,0,1
143419,-77.5193798449612,4,1,0,85,0,1
143486,-77.2200772200772,4,1,0,85,0,1
143553,-76.9230769230769,4,1,0,85,0,1
143620,-76.6283524904215,4,1,0,85,0,1
143687,-76.3358778625954,4,1,0,85,0,1
143754,-76.0456273764259,4,1,0,85,0,1
143821,-75.7575757575758,4,1,0,85,0,1
145432,402.684563758389,4,1,0,70,1,0
145432,-75.7575757575758,4,1,0,70,0,0
145734,-77.5193798449612,4,1,0,70,0,0
145834,-78.125,4,1,0,70,0,0
146036,-79.3650793650794,4,1,0,70,0,0
146237,-80.6451612903226,4,1,0,70,0,0
146338,-81.3008130081301,4,1,0,70,0,0
146539,-82.6446280991736,4,1,0,70,0,0
146640,-83.3333333333333,4,1,0,70,0,0
146841,-84.7457627118644,4,1,0,70,0,0
147042,-86.2068965517241,4,1,0,70,0,0
147143,-86.9565217391304,4,1,0,70,0,0
147344,-88.4955752212389,4,1,0,70,0,0
147445,-89.2857142857143,4,1,0,70,0,0
147646,-90.9090909090909,4,1,0,70,0,0
147848,-92.5925925925926,4,1,0,70,0,0
148049,-94.3396226415094,4,1,0,70,0,0
148150,-95.2380952380952,4,1,0,70,0,0
148250,-96.1538461538461,4,1,0,70,0,0
148452,-98.0392156862745,4,1,0,70,0,0
148653,-100,4,1,0,70,0,0
155096,-90.9090909090909,4,1,0,75,0,0
158317,-83.3333333333333,4,1,0,80,0,1
172915,-84.7457627118644,4,1,0,75,0,1
173015,-86.2068965517241,4,1,0,75,0,1
173116,-87.719298245614,4,1,0,75,0,1
173217,-89.2857142857143,4,1,0,75,0,1
173317,-90.9090909090909,4,1,0,75,0,1
173418,-92.5925925925926,4,1,0,75,0,1
173519,-94.3396226415094,4,1,0,75,0,1
173619,-96.1538461538461,4,1,0,70,0,1
173720,-98.0392156862745,4,1,0,70,0,1
173821,-100,4,1,0,70,0,1
173921,-102.040816326531,4,1,0,70,0,1
174022,-104.166666666667,4,1,0,70,0,1
174123,-106.382978723404,4,1,0,70,0,1
174223,-108.695652173913,4,1,0,70,0,1
174324,-111.111111111111,4,1,0,70,0,1
174425,402.684563758389,4,1,0,70,1,0
174425,-113.636363636364,4,1,0,70,0,0
174475,-113.636363636364,4,1,0,65,0,0
180867,-101.010101010101,4,1,0,65,0,0
184089,-101.010101010101,4,1,0,75,0,0
185700,-90.9090909090909,4,1,0,80,0,0
187310,-83.3333333333333,4,1,0,85,0,1
198586,-82.8775070445881,4,1,0,85,0,1
198686,-82.4198466990851,4,1,0,85,0,1
198787,-81.9672131147541,4,1,0,85,0,1
198888,-81.5261699005381,4,1,0,85,0,1
198988,-81.0832725208789,4,1,0,85,0,1
199089,-80.6451612903226,4,1,0,85,0,1
199190,-80.2181934862827,4,1,0,85,0,1
199290,-79.7893560998963,4,1,0,85,0,1
199391,-79.3650793650794,4,1,0,85,0,1
199458,-79.0513833992095,4,1,0,85,0,1
199525,-78.7401574803149,4,1,0,85,0,1
199592,-78.4313725490196,4,1,0,85,0,1
199659,-78.125,4,1,0,85,0,1
199727,-77.8210116731517,4,1,0,85,0,1
199794,-77.5193798449612,4,1,0,85,0,1
199861,-77.2200772200772,4,1,0,85,0,1
199928,-76.9230769230769,4,1,0,85,0,1
199995,-76.6283524904215,4,1,0,85,0,1
200062,-76.3358778625954,4,1,0,85,0,1
200129,-76.0456273764259,4,1,0,85,0,1
200196,-75.7575757575758,4,1,0,85,0,1
201757,-75.7575757575758,4,1,0,65,0,1
201807,-75.5287009063444,4,1,0,45,0,0
201908,-75.3012048192771,4,1,0,45,0,0
202008,-75.0750750750751,4,1,0,50,0,0
202109,-74.8502994011976,4,1,0,50,0,0
202210,-74.6268656716418,4,1,0,55,0,0
202310,-74.4047619047619,4,1,0,55,0,0
202411,-74.1839762611276,4,1,0,60,0,0
202512,-73.9644970414201,4,1,0,60,0,0
202612,-73.7463126843658,4,1,0,65,0,0
202680,-73.6019313146777,4,1,0,65,0,0
202747,-73.4575745778026,4,1,0,65,0,0
202814,-73.3137829912023,4,1,0,70,0,0
202914,-73.0994152046784,4,1,0,70,0,0
203015,-72.8862973760933,4,1,0,75,0,0
203116,-72.6744186046512,4,1,0,75,0,0
203216,-72.463768115942,4,1,0,80,0,0
203317,-72.2543352601156,4,1,0,80,0,0
203418,402.684563758389,4,1,0,85,1,1
203418,-71.4285714285714,4,1,0,85,0,1
216102,-71.4285714285714,4,1,0,85,0,0
216303,-71.4285714285714,4,1,0,85,0,1
227579,-71.093416749609,4,1,0,85,0,1
227679,-70.7563857638152,4,1,0,85,0,1
227780,-70.4225352112676,4,1,0,85,0,1
227881,-70.0967334922193,4,1,0,85,0,1
227981,-69.7690643968464,4,1,0,85,0,1
228082,-69.4444444444444,4,1,0,85,0,1
228183,-69.1276095672612,4,1,0,85,0,1
228283,-68.8089176357256,4,1,0,85,0,1
228384,-68.4931506849315,4,1,0,85,0,1
228451,-68.259385665529,4,1,0,85,0,1
228518,-68.0272108843537,4,1,0,85,0,1
228585,-67.7966101694915,4,1,0,85,0,1
228652,-67.5675675675676,4,1,0,85,0,1
228720,-67.3400673400673,4,1,0,85,0,1
228787,-67.1140939597315,4,1,0,85,0,1
228854,-66.8896321070234,4,1,0,85,0,1
228921,-66.6666666666667,4,1,0,85,0,1
228988,-66.4451827242525,4,1,0,85,0,1
229055,-66.2251655629139,4,1,0,85,0,1
229122,-66.006600660066,4,1,0,85,0,1
229189,-65.7894736842105,4,1,0,85,0,1
230800,-65.7894736842105,4,1,0,75,0,1
230867,-66.2251655629139,4,1,0,75,0,1
230934,-66.6666666666667,4,1,0,75,0,1
231001,-67.1140939597315,4,1,0,75,0,1
231069,-67.5675675675676,4,1,0,75,0,1
231136,-68.0272108843537,4,1,0,75,0,1
231203,-68.4931506849315,4,1,0,75,0,1
231270,-68.9655172413793,4,1,0,75,0,1
231337,-69.4444444444444,4,1,0,75,0,1
231404,-69.9300699300699,4,1,0,75,0,1
231471,-70.4225352112676,4,1,0,75,0,1
231538,-70.9219858156028,4,1,0,75,0,1
231605,-20.4081632653061,4,1,0,25,0,0
232411,-20.4081632653061,4,1,0,22,0,0
233216,-20.4081632653061,4,1,0,19,0,0
234022,-20.4081632653061,4,1,0,16,0,0
234827,-20.4081632653061,4,1,0,13,0,0
235632,-20.4081632653061,4,1,0,10,0,0
236438,-20.4081632653061,4,1,0,7,0,0
237243,-20.4081632653061,4,1,0,5,0,0

[HitObjects]
320,352,468,5,12,0:0:0:0:
320,352,770,1,0,0:0:0:0:
320,352,1072,1,0,0:0:0:0:
320,352,1139,1,0,0:0:0:0:
320,352,1206,1,0,0:0:0:0:
320,352,1273,1,8,0:0:0:0:
320,352,1575,1,0,0:0:0:0:
320,352,1877,1,8,0:0:0:0:
320,352,1944,1,0,0:0:0:0:
320,352,2011,1,0,0:0:0:0:
320,352,2078,1,8,0:0:0:0:
320,352,2380,1,0,0:0:0:0:
320,352,2682,1,0,0:0:0:0:
320,352,2884,1,8,0:0:0:0:
320,352,3286,1,0,0:0:0:0:
320,352,3488,1,0,0:0:0:0:
320,352,3689,1,12,0:0:0:0:
320,352,3991,1,0,0:0:0:0:
320,352,4293,1,0,0:0:0:0:
320,352,4360,1,0,0:0:0:0:
320,352,4427,1,0,0:0:0:0:
320,352,4494,1,8,0:0:0:0:
320,352,4796,1,0,0:0:0:0:
320,352,5098,1,8,0:0:0:0:
320,352,5165,1,0,0:0:0:0:
320,352,5233,1,0,0:0:0:0:
320,352,5300,1,8,0:0:0:0:
320,352,5602,1,0,0:0:0:0:
320,352,5904,1,0,0:0:0:0:
320,352,6105,1,8,0:0:0:0:
320,352,6306,1,0,0:0:0:0:
320,352,6407,1,0,0:0:0:0:
320,352,6508,1,8,0:0:0:0:
320,352,6608,1,8,0:0:0:0:
320,352,6709,1,0,0:0:0:0:
320,352,6776,1,0,0:0:0:0:
320,352,6843,1,0,0:0:0:0:
320,352,6910,1,12,0:0:0:0:
320,352,7212,1,8,0:0:0:0:
320,352,7313,1,0,0:0:0:0:
320,352,7514,1,0,0:0:0:0:
320,352,7582,1,0,0:0:0:0:
320,352,7649,1,0,0:0:0:0:
320,352,7716,1,8,0:0:0:0:
320,352,8018,1,8,0:0:0:0:
320,352,8119,1,0,0:0:0:0:
320,352,8320,1,8,0:0:0:0:
320,352,8387,1,0,0:0:0:0:
320,352,8454,1,0,0:0:0:0:
320,352,8521,1,8,0:0:0:0:
320,352,8823,1,8,0:0:0:0:
320,352,8924,1,0,0:0:0:0:
320,352,9125,1,0,0:0:0:0:
320,352,9226,1,0,0:0:0:0:
320,352,9327,1,8,0:0:0:0:
320,352,9427,1,8,0:0:0:0:
320,352,9629,1,8,0:0:0:0:
320,352,9729,1,0,0:0:0:0:
320,352,9931,1,0,0:0:0:0:
320,352,10132,1,12,0:0:0:0:
320,352,10333,1,0,0:0:0:0:
320,352,10434,1,8,0:0:0:0:
320,352,10535,1,0,0:0:0:0:
320,352,10736,1,0,0:0:0:0:
320,352,10803,1,0,0:0:0:0:
320,352,10870,1,0,0:0:0:0:
320,352,10937,1,8,0:0:0:0:
320,352,11038,1,8,0:0:0:0:
320,352,11239,1,8,0:0:0:0:
320,352,11340,1,0,0:0:0:0:
320,352,11541,1,8,0:0:0:0:
320,352,11608,1,0,0:0:0:0:
320,352,11676,1,0,0:0:0:0:
320,352,11743,1,8,0:0:0:0:
320,352,11843,1,0,0:0:0:0:
320,352,11944,1,0,0:0:0:0:
320,352,12045,1,8,0:0:0:0:
320,352,12145,1,0,0:0:0:0:
320,352,12246,1,0,0:0:0:0:
320,352,12347,1,8,0:0:0:0:
320,352,12447,1,0,0:0:0:0:
320,352,12548,1,8,0:0:0:0:
320,352,12615,1,8,0:0:0:0:
320,352,12682,1,8,0:0:0:0:
320,352,12749,1,0,0:0:0:0:
320,352,12850,1,0,0:0:0:0:
320,352,12951,1,8,0:0:0:0:
320,352,13018,1,8,0:0:0:0:
320,352,13085,1,8,0:0:0:0:
320,352,13152,1,0,0:0:0:0:
320,352,13253,1,0,0:0:0:0:
320,352,13353,1,8,0:0:0:0:
320,352,13454,1,0,0:0:0:0:
320,352,13555,1,8,0:0:0:0:
320,352,13655,1,8,0:0:0:0:
320,352,13756,1,0,0:0:0:0:
320,352,13857,1,8,0:0:0:0:
320,352,13957,1,0,0:0:0:0:
320,352,14058,1,0,0:0:0:0:
320,352,14159,1,8,0:0:0:0:
320,352,14226,1,8,0:0:0:0:
320,352,14293,1,8,0:0:0:0:
320,352,14360,1,0,0:0:0:0:
320,352,14461,1,8,0:0:0:0:
320,352,14561,1,0,0:0:0:0:
320,352,14662,1,0,0:0:0:0:
320,352,14763,1,8,0:0:0:0:
320,352,14863,1,8,0:0:0:0:
320,352,14964,1,4,0:0:0:0:
320,352,15266,1,0,0:0:0:0:
320,352,15366,1,8,0:0:0:0:
320,352,15568,1,8,0:0:0:0:
320,352,15668,1,8,0:0:0:0:
320,352,15769,1,0,0:0:0:0:
320,352,15970,1,0,0:0:0:0:
320,352,16071,1,0,0:0:0:0:
320,352,16172,1,8,0:0:0:0:
320,352,16373,1,0,0:0:0:0:
320,352,16574,1,8,0:0:0:0:
320,352,16675,1,0,0:0:0:0:
320,352,16876,1,8,0:0:0:0:
320,352,16977,1,0,0:0:0:0:
320,352,17078,1,0,0:0:0:0:
320,352,17178,1,8,0:0:0:0:
320,352,17380,1,0,0:0:0:0:
320,352,17581,1,8,0:0:0:0:
320,352,17682,1,0,0:0:0:0:
320,352,17782,1,8,0:0:0:0:
320,352,17883,1,8,0:0:0:0:
320,352,17984,1,0,0:0:0:0:
320,352,18084,1,0,0:0:0:0:
320,352,18185,1,8,0:0:0:0:
320,352,18386,1,8,0:0:0:0:
320,352,18487,1,8,0:0:0:0:
320,352,18588,1,0,0:0:0:0:
320,352,18789,1,8,0:0:0:0:
320,352,18990,1,0,0:0:0:0:
320,352,19091,1,8,0:0:0:0:
320,352,19192,1,0,0:0:0:0:
320,352,19292,1,0,0:0:0:0:
320,352,19393,1,8,0:0:0:0:
320,352,19594,1,0,0:0:0:0:
320,352,19796,1,8,0:0:0:0:
320,352,19896,1,8,0:0:0:0:
320,352,20098,1,8,0:0:0:0:
320,352,20198,1,0,0:0:0:0:
320,352,20400,1,0,0:0:0:0:
320,352,20500,1,0,0:0:0:0:
320,352,20601,1,8,0:0:0:0:
320,352,20802,1,8,0:0:0:0:
320,352,20903,1,0,0:0:0:0:
320,352,21004,1,8,0:0:0:0:
320,352,21104,1,8,0:0:0:0:
320,352,21205,1,0,0:0:0:0:
320,352,21406,1,12,0:0:0:0:
320,352,21708,1,0,0:0:0:0:
320,352,21809,1,8,0:0:0:0:
320,352,22010,1,0,0:0:0:0:
320,352,22111,1,0,0:0:0:0:
320,352,22212,1,8,0:0:0:0:
320,352,22413,1,0,0:0:0:0:
320,352,22514,1,0,0:0:0:0:
320,352,22615,1,8,0:0:0:0:
320,352,22715,1,8,0:0:0:0:
320,352,22816,1,0,0:0:0:0:
320,352,23017,1,8,0:0:0:0:
320,352,23118,1,8,0:0:0:0:
320,352,23319,1,8,0:0:0:0:
320,352,23420,1,0,0:0:0:0:
320,352,23621,1,0,0:0:0:0:
320,352,23722,1,0,0:0:0:0:
320,352,23823,1,8,0:0:0:0:
320,352,24024,1,8,0:0:0:0:
320,352,24125,1,0,0:0:0:0:
320,352,24225,1,8,0:0:0:0:
320,352,24427,1,8,0:0:0:0:
320,352,24628,1,0,0:0:0:0:
320,352,24729,1,8,0:0:0:0:
320,352,24829,1,0,0:0:0:0:
320,352,24930,1,0,0:0:0:0:
320,352,25031,1,8,0:0:0:0:
320,352,25232,1,0,0:0:0:0:
320,352,25433,1,8,0:0:0:0:
320,352,25534,1,0,0:0:0:0:
320,352,25635,1,8,0:0:0:0:
320,352,25735,1,8,0:0:0:0:
320,352,25836,1,0,0:0:0:0:
320,352,25937,1,0,0:0:0:0:
320,352,26037,1,8,0:0:0:0:
320,352,26239,1,8,0:0:0:0:
320,352,26339,1,0,0:0:0:0:
320,352,26440,1,8,0:0:0:0:
320,352,26541,1,8,0:0:0:0:
320,352,26641,1,0,0:0:0:0:
320,352,26742,1,8,0:0:0:0:
320,352,26843,1,0,0:0:0:0:
320,352,26943,1,0,0:0:0:0:
320,352,27044,1,8,0:0:0:0:
320,352,27111,1,0,0:0:0:0:
320,352,27178,1,0,0:0:0:0:
320,352,27245,1,8,0:0:0:0:
320,352,27312,1,0,0:0:0:0:
320,352,27380,1,0,0:0:0:0:
320,352,27447,1,8,0:0:0:0:
320,352,27514,1,0,0:0:0:0:
320,352,27581,1,0,0:0:0:0:
320,352,27648,1,8,0:0:0:0:
320,352,27715,1,0,0:0:0:0:
320,352,27782,1,0,0:0:0:0:
320,352,27849,1,8,0:0:0:0:
320,352,27950,1,0,0:0:0:0:
320,352,28051,1,0,0:0:0:0:
320,352,28151,1,8,0:0:0:0:
320,352,28252,1,0,0:0:0:0:
320,352,28353,1,0,0:0:0:0:
320,352,28453,1,8,0:0:0:0:
320,352,28554,1,0,0:0:0:0:
320,352,28655,1,8,0:0:0:0:
320,352,28755,1,0,0:0:0:0:
320,352,28856,1,0,0:0:0:0:
320,352,28957,1,8,0:0:0:0:
320,352,29057,1,0,0:0:0:0:
320,352,29158,1,0,0:0:0:0:
320,352,29259,1,8,0:0:0:0:
320,352,29359,1,8,0:0:0:0:
320,352,29460,1,0,0:0:0:0:
320,352,29561,1,8,0:0:0:0:
320,352,29661,1,0,0:0:0:0:
320,352,29762,1,0,0:0:0:0:
320,352,29863,1,8,0:0:0:0:
320,352,29963,1,0,0:0:0:0:
320,352,30064,1,8,0:0:0:0:
320,352,30165,1,8,0:0:0:0:
320,352,30266,1,0,0:0:0:0:
320,352,30333,1,0,0:0:0:0:
320,352,30400,1,0,0:0:0:0:
320,352,30467,1,8,0:0:0:0:
320,352,30568,1,0,0:0:0:0:
320,352,30668,1,8,0:0:0:0:
320,352,30769,1,0,0:0:0:0:
320,352,30870,1,8,0:0:0:0:
320,352,30970,1,8,0:0:0:0:
320,352,31071,1,4,0:0:0:0:
320,352,31473,1,0,0:0:0:0:
320,352,31675,1,0,0:0:0:0:
320,352,31876,1,8,0:0:0:0:
320,352,32077,1,0,0:0:0:0:
320,352,32279,1,8,0:0:0:0:
320,352,32480,1,8,0:0:0:0:
320,352,32681,1,0,0:0:0:0:
320,352,32983,1,8,0:0:0:0:
320,352,33285,1,8,0:0:0:0:
320,352,33487,1,0,0:0:0:0:
320,352,33889,1,8,0:0:0:0:
320,352,34091,1,8,0:0:0:0:
320,352,34292,1,0,0:0:0:0:
320,352,34695,1,8,0:0:0:0:
320,352,34896,1,0,0:0:0:0:
320,352,35097,1,8,0:0:0:0:
320,352,35299,1,8,0:0:0:0:
320,352,35500,1,0,0:0:0:0:
320,352,35701,1,0,0:0:0:0:
320,352,35903,1,8,0:0:0:0:
320,352,36205,1,0,0:0:0:0:
320,352,36507,1,0,0:0:0:0:
320,352,36708,1,8,0:0:0:0:
320,352,36809,1,8,0:0:0:0:
320,352,36909,1,0,0:0:0:0:
320,352,37010,1,0,0:0:0:0:
320,352,37111,1,8,0:0:0:0:
320,352,37211,1,8,0:0:0:0:
320,352,37312,1,8,0:0:0:0:
320,352,37513,1,4,0:0:0:0:
320,352,37815,1,0,0:0:0:0:
320,352,37916,1,8,0:0:0:0:
320,352,38117,1,0,0:0:0:0:
320,352,38319,1,8,0:0:0:0:
320,352,38419,1,0,0:0:0:0:
320,352,38621,1,0,0:0:0:0:
320,352,38722,1,8,0:0:0:0:
320,352,38822,1,8,0:0:0:0:
320,352,38923,1,0,0:0:0:0:
320,352,39124,1,0,0:0:0:0:
320,352,39225,1,8,0:0:0:0:
320,352,39426,1,8,0:0:0:0:
320,352,39527,1,0,0:0:0:0:
320,352,39628,1,0,0:0:0:0:
320,352,39728,1,8,0:0:0:0:
320,352,39930,1,0,0:0:0:0:
320,352,40030,1,0,0:0:0:0:
320,352,40332,1,8,0:0:0:0:
320,352,40534,1,0,0:0:0:0:
320,352,40634,1,0,0:0:0:0:
320,352,40735,1,8,0:0:0:0:
320,352,40936,1,8,0:0:0:0:
320,352,41037,1,0,0:0:0:0:
320,352,41138,1,8,0:0:0:0:
320,352,41339,1,0,0:0:0:0:
320,352,41540,1,8,0:0:0:0:
320,352,41641,1,8,0:0:0:0:
320,352,41742,1,0,0:0:0:0:
320,352,41842,1,0,0:0:0:0:
320,352,41943,1,8,0:0:0:0:
320,352,42144,1,8,0:0:0:0:
320,352,42346,1,0,0:0:0:0:
320,352,42446,1,0,0:0:0:0:
320,352,42648,1,0,0:0:0:0:
320,352,42748,1,8,0:0:0:0:
320,352,42950,1,8,0:0:0:0:
320,352,43050,1,0,0:0:0:0:
320,352,43151,1,0,0:0:0:0:
320,352,43252,1,8,0:0:0:0:
320,352,43352,1,0,0:0:0:0:
320,352,43453,1,0,0:0:0:0:
320,352,43554,1,8,0:0:0:0:
320,352,43755,1,0,0:0:0:0:
320,352,43956,1,12,0:0:0:0:
320,352,44258,1,8,0:0:0:0:
320,352,44359,1,0,0:0:0:0:
320,352,44560,1,8,0:0:0:0:
320,352,44762,1,0,0:0:0:0:
320,352,44862,1,0,0:0:0:0:
320,352,45064,1,8,0:0:0:0:
320,352,45164,1,0,0:0:0:0:
320,352,45366,1,8,0:0:0:0:
320,352,45466,1,8,0:0:0:0:
320,352,45567,1,0,0:0:0:0:
320,352,45668,1,8,0:0:0:0:
320,352,45869,1,8,0:0:0:0:
320,352,45970,1,0,0:0:0:0:
320,352,46171,1,8,0:0:0:0:
320,352,46373,1,0,0:0:0:0:
320,352,46473,1,8,0:0:0:0:
320,352,46675,1,8,0:0:0:0:
320,352,46775,1,0,0:0:0:0:
320,352,46876,1,0,0:0:0:0:
320,352,46977,1,8,0:0:0:0:
320,352,47178,1,4,0:0:0:0:
320,352,47480,1,8,0:0:0:0:
320,352,47581,1,0,0:0:0:0:
320,352,47782,1,8,0:0:0:0:
320,352,47983,1,0,0:0:0:0:
320,352,48084,1,8,0:0:0:0:
320,352,48285,1,8,0:0:0:0:
320,352,48386,1,0,0:0:0:0:
320,352,48587,1,8,0:0:0:0:
320,352,48688,1,8,0:0:0:0:
320,352,48789,1,0,0:0:0:0:
320,352,48889,1,0,0:0:0:0:
320,352,49091,1,8,0:0:0:0:
320,352,49191,1,0,0:0:0:0:
320,352,49393,1,8,0:0:0:0:
320,352,49594,1,0,0:0:0:0:
320,352,49695,1,8,0:0:0:0:
320,352,49896,1,0,0:0:0:0:
320,352,49997,1,8,0:0:0:0:
320,352,50097,1,8,0:0:0:0:
320,352,50198,1,0,0:0:0:0:
320,352,50399,1,12,0:0:0:0:
320,352,50701,1,8,0:0:0:0:
320,352,50802,1,0,0:0:0:0:
320,352,51003,1,8,0:0:0:0:
320,352,51205,1,0,0:0:0:0:
320,352,51305,1,8,0:0:0:0:
320,352,51507,1,8,0:0:0:0:
320,352,51607,1,0,0:0:0:0:
320,352,51809,1,8,0:0:0:0:
320,352,51909,1,8,0:0:0:0:
320,352,52010,1,0,0:0:0:0:
320,352,52111,1,0,0:0:0:0:
320,352,52312,1,0,0:0:0:0:
320,352,52413,1,8,0:0:0:0:
320,352,52614,1,0,0:0:0:0:
320,352,52715,1,0,0:0:0:0:
320,352,52815,1,8,0:0:0:0:
320,352,52916,1,0,0:0:0:0:
320,352,53117,1,0,0:0:0:0:
320,352,53218,1,8,0:0:0:0:
320,352,53319,1,8,0:0:0:0:
320,352,53419,1,0,0:0:0:0:
320,352,53621,1,12,0:0:0:0:
320,352,53923,1,8,0:0:0:0:
320,352,54024,1,0,0:0:0:0:
320,352,54225,1,8,0:0:0:0:
320,352,54426,1,0,0:0:0:0:
320,352,54527,1,0,0:0:0:0:
320,352,54728,1,8,0:0:0:0:
320,352,54829,1,0,0:0:0:0:
320,352,55030,1,0,0:0:0:0:
320,352,55131,1,0,0:0:0:0:
320,352,55232,1,8,0:0:0:0:
320,352,55332,1,8,0:0:0:0:
320,352,55534,1,8,0:0:0:0:
320,352,55634,1,0,0:0:0:0:
320,352,55836,1,8,0:0:0:0:
320,352,56037,1,0,0:0:0:0:
320,352,56138,1,8,0:0:0:0:
320,352,56339,1,0,0:0:0:0:
320,352,56440,1,8,0:0:0:0:
320,352,56641,1,0,0:0:0:0:
320,352,56742,1,0,0:0:0:0:
320,352,56842,1,8,0:0:0:0:
320,352,57044,1,8,0:0:0:0:
320,352,57144,1,0,0:0:0:0:
320,352,57346,1,0,0:0:0:0:
320,352,57446,1,8,0:0:0:0:
320,352,57547,1,8,0:0:0:0:
320,352,57648,1,0,0:0:0:0:
320,352,57748,1,0,0:0:0:0:
320,352,57849,1,0,0:0:0:0:
320,352,57950,1,8,0:0:0:0:
320,352,58151,1,8,0:0:0:0:
320,352,58252,1,0,0:0:0:0:
320,352,58453,1,8,0:0:0:0:
320,352,58554,1,0,0:0:0:0:
320,352,58654,1,0,0:0:0:0:
320,352,58755,1,8,0:0:0:0:
320,352,58856,1,0,0:0:0:0:
320,352,58956,1,0,0:0:0:0:
320,352,59057,1,8,0:0:0:0:
320,352,59158,1,0,0:0:0:0:
320,352,59258,1,8,0:0:0:0:
320,352,59326,1,8,0:0:0:0:
320,352,59393,1,8,0:0:0:0:
320,352,59460,1,0,0:0:0:0:
320,352,59560,1,8,0:0:0:0:
320,352,59661,1,0,0:0:0:0:
320,352,59762,1,0,0:0:0:0:
320,352,59862,1,8,0:0:0:0:
320,352,59963,1,8,0:0:0:0:
320,352,60064,1,4,0:0:0:0:
320,352,60366,1,0,0:0:0:0:
320,352,60466,1,8,0:0:0:0:
320,352,60668,1,8,0:0:0:0:
320,352,60768,1,8,0:0:0:0:
320,352,60869,1,0,0:0:0:0:
320,352,61070,1,8,0:0:0:0:
320,352,61171,1,0,0:0:0:0:
320,352,61272,1,8,0:0:0:0:
320,352,61473,1,8,0:0:0:0:
320,352,61674,1,0,0:0:0:0:
320,352,61775,1,0,0:0:0:0:
320,352,61976,1,0,0:0:0:0:
320,352,62077,1,8,0:0:0:0:
320,352,62178,1,8,0:0:0:0:
320,352,62278,1,0,0:0:0:0:
320,352,62480,1,8,0:0:0:0:
320,352,62681,1,8,0:0:0:0:
320,352,62782,1,8,0:0:0:0:
320,352,62882,1,0,0:0:0:0:
320,352,62983,1,0,0:0:0:0:
320,352,63084,1,8,0:0:0:0:
320,352,63184,1,0,0:0:0:0:
320,352,63285,1,8,0:0:0:0:
320,352,63486,1,8,0:0:0:0:
320,352,63587,1,8,0:0:0:0:
320,352,63688,1,0,0:0:0:0:
320,352,63889,1,8,0:0:0:0:
320,352,64090,1,0,0:0:0:0:
320,352,64191,1,8,0:0:0:0:
320,352,64292,1,0,0:0:0:0:
320,352,64392,1,0,0:0:0:0:
320,352,64493,1,8,0:0:0:0:
320,352,64694,1,0,0:0:0:0:
320,352,64896,1,8,0:0:0:0:
320,352,64996,1,8,0:0:0:0:
320,352,65198,1,8,0:0:0:0:
320,352,65298,1,0,0:0:0:0:
320,352,65500,1,8,0:0:0:0:
320,352,65600,1,0,0:0:0:0:
320,352,65701,1,8,0:0:0:0:
320,352,65902,1,0,0:0:0:0:
320,352,66003,1,0,0:0:0:0:
320,352,66104,1,8,0:0:0:0:
320,352,66204,1,8,0:0:0:0:
320,352,66305,1,0,0:0:0:0:
320,352,66506,1,12,0:0:0:0:
320,352,66808,1,0,0:0:0:0:
320,352,66909,1,8,0:0:0:0:
320,352,67110,1,8,0:0:0:0:
320,352,67211,1,8,0:0:0:0:
320,352,67312,1,0,0:0:0:0:
320,352,67513,1,0,0:0:0:0:
320,352,67614,1,0,0:0:0:0:
320,352,67715,1,8,0:0:0:0:
320,352,67916,1,0,0:0:0:0:
320,352,68117,1,8,0:0:0:0:
320,352,68218,1,0,0:0:0:0:
320,352,68419,1,8,0:0:0:0:
320,352,68520,1,0,0:0:0:0:
320,352,68621,1,0,0:0:0:0:
320,352,68721,1,8,0:0:0:0:
320,352,68923,1,0,0:0:0:0:
320,352,69124,1,8,0:0:0:0:
320,352,69225,1,0,0:0:0:0:
320,352,69325,1,8,0:0:0:0:
320,352,69426,1,8,0:0:0:0:
320,352,69527,1,0,0:0:0:0:
320,352,69627,1,0,0:0:0:0:
320,352,69728,1,8,0:0:0:0:
320,352,69829,1,0,0:0:0:0:
320,352,70030,1,0,0:0:0:0:
320,352,70131,1,8,0:0:0:0:
320,352,70332,1,0,0:0:0:0:
320,352,70433,1,0,0:0:0:0:
320,352,70533,1,8,0:0:0:0:
320,352,70735,1,0,0:0:0:0:
320,352,70835,1,0,0:0:0:0:
320,352,70936,1,8,0:0:0:0:
320,352,71037,1,8,0:0:0:0:
320,352,71137,1,0,0:0:0:0:
320,352,71339,1,8,0:0:0:0:
320,352,71439,1,0,0:0:0:0:
320,352,71540,1,8,0:0:0:0:
320,352,71641,1,8,0:0:0:0:
320,352,71741,1,0,0:0:0:0:
320,352,71842,1,0,0:0:0:0:
320,352,71943,1,8,0:0:0:0:
320,352,72010,1,8,0:0:0:0:
320,352,72077,1,8,0:0:0:0:
320,352,72144,1,0,0:0:0:0:
320,352,72245,1,0,0:0:0:0:
320,352,72345,1,8,0:0:0:0:
320,352,72446,1,0,0:0:0:0:
320,352,72547,1,8,0:0:0:0:
320,352,72614,1,0,0:0:0:0:
320,352,72681,1,0,0:0:0:0:
320,352,72748,1,8,0:0:0:0:
320,352,72849,1,8,0:0:0:0:
320,352,72949,1,4,0:0:0:0:
320,352,73251,1,0,0:0:0:0:
320,352,73352,1,8,0:0:0:0:
320,352,73553,1,0,0:0:0:0:
320,352,73654,1,8,0:0:0:0:
320,352,73755,1,0,0:0:0:0:
320,352,73956,1,0,0:0:0:0:
320,352,74057,1,0,0:0:0:0:
320,352,74157,1,8,0:0:0:0:
320,352,74359,1,0,0:0:0:0:
320,352,74560,1,8,0:0:0:0:
320,352,74661,1,0,0:0:0:0:
320,352,74862,1,8,0:0:0:0:
320,352,74963,1,0,0:0:0:0:
320,352,75063,1,0,0:0:0:0:
320,352,75164,1,8,0:0:0:0:
320,352,75366,1,0,0:0:0:0:
320,352,75567,1,8,0:0:0:0:
320,352,75668,1,0,0:0:0:0:
320,352,75768,1,8,0:0:0:0:
320,352,75869,1,8,0:0:0:0:
320,352,75970,1,0,0:0:0:0:
320,352,76070,1,0,0:0:0:0:
320,352,76171,1,8,0:0:0:0:
320,352,76372,1,8,0:0:0:0:
320,352,76473,1,8,0:0:0:0:
320,352,76574,1,0,0:0:0:0:
320,352,76775,1,8,0:0:0:0:
320,352,76976,1,0,0:0:0:0:
320,352,77077,1,0,0:0:0:0:
320,352,77178,1,8,0:0:0:0:
320,352,77278,1,0,0:0:0:0:
320,352,77379,1,8,0:0:0:0:
320,352,77580,1,0,0:0:0:0:
320,352,77782,1,8,0:0:0:0:
320,352,77882,1,8,0:0:0:0:
320,352,78084,1,8,0:0:0:0:
320,352,78184,1,0,0:0:0:0:
320,352,78386,1,0,0:0:0:0:
320,352,78486,1,0,0:0:0:0:
320,352,78587,1,8,0:0:0:0:
320,352,78788,1,0,0:0:0:0:
320,352,78889,1,0,0:0:0:0:
320,352,78990,1,8,0:0:0:0:
320,352,79090,1,8,0:0:0:0:
320,352,79191,1,0,0:0:0:0:
320,352,79392,1,12,0:0:0:0:
320,352,79694,1,0,0:0:0:0:
320,352,79795,1,8,0:0:0:0:
320,352,79996,1,0,0:0:0:0:
320,352,80097,1,0,0:0:0:0:
320,352,80198,1,8,0:0:0:0:
320,352,80399,1,8,0:0:0:0:
320,352,80500,1,0,0:0:0:0:
320,352,80600,1,8,0:0:0:0:
320,352,80701,1,8,0:0:0:0:
320,352,80802,1,0,0:0:0:0:
320,352,81003,1,0,0:0:0:0:
320,352,81104,1,8,0:0:0:0:
320,352,81305,1,8,0:0:0:0:
320,352,81406,1,0,0:0:0:0:
320,352,81607,1,0,0:0:0:0:
320,352,81708,1,0,0:0:0:0:
320,352,81808,1,8,0:0:0:0:
320,352,82010,1,8,0:0:0:0:
320,352,82110,1,0,0:0:0:0:
320,352,82211,1,8,0:0:0:0:
320,352,82412,1,8,0:0:0:0:
320,352,82614,1,0,0:0:0:0:
320,352,82715,1,0,0:0:0:0:
320,352,82815,1,8,0:0:0:0:
320,352,82916,1,8,0:0:0:0:
320,352,83017,1,0,0:0:0:0:
320,352,83218,1,8,0:0:0:0:
320,352,83419,1,0,0:0:0:0:
320,352,83520,1,8,0:0:0:0:
320,352,83621,1,0,0:0:0:0:
320,352,83721,1,0,0:0:0:0:
320,352,83822,1,8,0:0:0:0:
320,352,83923,1,8,0:0:0:0:
320,352,84023,1,0,0:0:0:0:
320,352,84225,1,8,0:0:0:0:
320,352,84325,1,0,0:0:0:0:
320,352,84426,1,8,0:0:0:0:
320,352,84527,1,8,0:0:0:0:
320,352,84627,1,0,0:0:0:0:
320,352,84728,1,8,0:0:0:0:
320,352,84829,1,0,0:0:0:0:
320,352,84929,1,0,0:0:0:0:
320,352,85030,1,8,0:0:0:0:
320,352,85097,1,0,0:0:0:0:
320,352,85164,1,0,0:0:0:0:
320,352,85231,1,8,0:0:0:0:
320,352,85298,1,0,0:0:0:0:
320,352,85366,1,0,0:0:0:0:
320,352,85433,1,8,0:0:0:0:
320,352,85500,1,0,0:0:0:0:
320,352,85567,1,0,0:0:0:0:
320,352,85634,1,8,0:0:0:0:
320,352,85701,1,0,0:0:0:0:
320,352,85768,1,0,0:0:0:0:
320,352,85835,1,8,0:0:0:0:
320,352,85936,1,0,0:0:0:0:
320,352,86037,1,0,0:0:0:0:
320,352,86137,1,8,0:0:0:0:
320,352,86238,1,0,0:0:0:0:
320,352,86339,1,0,0:0:0:0:
320,352,86439,1,8,0:0:0:0:
320,352,86540,1,0,0:0:0:0:
320,352,86641,1,8,0:0:0:0:
320,352,86741,1,0,0:0:0:0:
320,352,86842,1,0,0:0:0:0:
320,352,86943,1,8,0:0:0:0:
320,352,87043,1,0,0:0:0:0:
320,352,87144,1,0,0:0:0:0:
320,352,87245,1,8,0:0:0:0:
320,352,87345,1,8,0:0:0:0:
320,352,87446,1,0,0:0:0:0:
320,352,87547,1,8,0:0:0:0:
320,352,87647,1,0,0:0:0:0:
320,352,87748,1,0,0:0:0:0:
320,352,87849,1,8,0:0:0:0:
320,352,87949,1,0,0:0:0:0:
320,352,88050,1,8,0:0:0:0:
320,352,88151,1,8,0:0:0:0:
320,352,88251,1,0,0:0:0:0:
320,352,88319,1,0,0:0:0:0:
320,352,88386,1,0,0:0:0:0:
320,352,88453,1,8,0:0:0:0:
320,352,88553,1,0,0:0:0:0:
320,352,88654,1,8,0:0:0:0:
320,352,88755,1,0,0:0:0:0:
320,352,88855,1,8,0:0:0:0:
320,352,88956,1,8,0:0:0:0:
320,352,89057,1,4,0:0:0:0:
320,352,89661,1,0,0:0:0:0:
320,352,89862,1,8,0:0:0:0:
320,352,90265,1,0,0:0:0:0:
320,352,90466,1,0,0:0:0:0:
320,352,90667,1,8,0:0:0:0:
320,352,90969,1,0,0:0:0:0:
320,352,91271,1,8,0:0:0:0:
320,352,91473,1,0,0:0:0:0:
320,352,91875,1,8,0:0:0:0:
320,352,92077,1,0,0:0:0:0:
320,352,92278,1,8,0:0:0:0:
320,352,92882,1,0,0:0:0:0:
320,352,93083,1,8,0:0:0:0:
320,352,93486,1,0,0:0:0:0:
320,352,93687,1,0,0:0:0:0:
256,192,93889,8,8,95298,0:0:0:0:
320,352,95499,5,4,0:0:0:0:
320,352,95801,1,0,0:0:0:0:
320,352,95902,1,8,0:0:0:0:
320,352,96103,1,0,0:0:0:0:
320,352,96305,1,8,0:0:0:0:
320,352,96405,1,0,0:0:0:0:
320,352,96607,1,0,0:0:0:0:
320,352,96708,1,8,0:0:0:0:
320,352,96808,1,8,0:0:0:0:
320,352,96909,1,0,0:0:0:0:
320,352,97110,1,0,0:0:0:0:
320,352,97211,1,8,0:0:0:0:
320,352,97412,1,8,0:0:0:0:
320,352,97513,1,0,0:0:0:0:
320,352,97614,1,0,0:0:0:0:
320,352,97714,1,8,0:0:0:0:
320,352,97916,1,8,0:0:0:0:
320,352,98016,1,0,0:0:0:0:
320,352,98318,1,8,0:0:0:0:
320,352,98520,1,8,0:0:0:0:
320,352,98620,1,8,0:0:0:0:
320,352,98721,1,0,0:0:0:0:
320,352,98922,1,0,0:0:0:0:
320,352,99023,1,0,0:0:0:0:
320,352,99124,1,8,0:0:0:0:
320,352,99325,1,0,0:0:0:0:
320,352,99526,1,8,0:0:0:0:
320,352,99627,1,8,0:0:0:0:
320,352,99728,1,0,0:0:0:0:
320,352,99828,1,0,0:0:0:0:
320,352,99929,1,8,0:0:0:0:
320,352,100130,1,8,0:0:0:0:
320,352,100332,1,0,0:0:0:0:
320,352,100432,1,0,0:0:0:0:
320,352,100634,1,0,0:0:0:0:
320,352,100734,1,8,0:0:0:0:
320,352,100936,1,8,0:0:0:0:
320,352,101036,1,0,0:0:0:0:
320,352,101137,1,0,0:0:0:0:
320,352,101238,1,8,0:0:0:0:
320,352,101338,1,0,0:0:0:0:
320,352,101439,1,0,0:0:0:0:
320,352,101540,1,8,0:0:0:0:
320,352,101640,1,8,0:0:0:0:
320,352,101741,1,0,0:0:0:0:
320,352,101942,1,12,0:0:0:0:
320,352,102244,1,8,0:0:0:0:
320,352,102345,1,0,0:0:0:0:
320,352,102546,1,8,0:0:0:0:
320,352,102748,1,0,0:0:0:0:
320,352,102848,1,0,0:0:0:0:
320,352,103050,1,8,0:0:0:0:
320,352,103150,1,0,0:0:0:0:
320,352,103352,1,0,0:0:0:0:
320,352,103452,1,0,0:0:0:0:
320,352,103553,1,8,0:0:0:0:
320,352,103654,1,8,0:0:0:0:
320,352,103855,1,8,0:0:0:0:
320,352,103956,1,0,0:0:0:0:
320,352,104157,1,8,0:0:0:0:
320,352,104359,1,0,0:0:0:0:
320,352,104459,1,8,0:0:0:0:
320,352,104661,1,8,0:0:0:0:
320,352,104761,1,0,0:0:0:0:
320,352,104862,1,0,0:0:0:0:
320,352,104963,1,8,0:0:0:0:
320,352,105164,1,4,0:0:0:0:
320,352,105466,1,8,0:0:0:0:
320,352,105567,1,0,0:0:0:0:
320,352,105768,1,8,0:0:0:0:
320,352,105969,1,0,0:0:0:0:
320,352,106070,1,8,0:0:0:0:
320,352,106271,1,8,0:0:0:0:
320,352,106372,1,0,0:0:0:0:
320,352,106573,1,8,0:0:0:0:
320,352,106674,1,8,0:0:0:0:
320,352,106775,1,0,0:0:0:0:
320,352,106875,1,0,0:0:0:0:
320,352,107077,1,8,0:0:0:0:
320,352,107177,1,0,0:0:0:0:
320,352,107379,1,8,0:0:0:0:
320,352,107580,1,0,0:0:0:0:
320,352,107681,1,8,0:0:0:0:
320,352,107882,1,0,0:0:0:0:
320,352,107983,1,8,0:0:0:0:
320,352,108083,1,8,0:0:0:0:
320,352,108184,1,0,0:0:0:0:
320,352,108385,1,12,0:0:0:0:
320,352,108687,1,8,0:0:0:0:
320,352,108788,1,0,0:0:0:0:
320,352,108989,1,8,0:0:0:0:
320,352,109191,1,0,0:0:0:0:
320,352,109291,1,8,0:0:0:0:
320,352,109493,1,8,0:0:0:0:
320,352,109593,1,0,0:0:0:0:
320,352,109795,1,8,0:0:0:0:
320,352,109895,1,8,0:0:0:0:
320,352,109996,1,0,0:0:0:0:
320,352,110097,1,8,0:0:0:0:
320,352,110298,1,8,0:0:0:0:
320,352,110399,1,0,0:0:0:0:
320,352,110600,1,0,0:0:0:0:
320,352,110701,1,0,0:0:0:0:
320,352,110801,1,8,0:0:0:0:
320,352,110902,1,0,0:0:0:0:
320,352,111103,1,0,0:0:0:0:
320,352,111204,1,8,0:0:0:0:
320,352,111305,1,8,0:0:0:0:
320,352,111405,1,0,0:0:0:0:
320,352,111607,1,12,0:0:0:0:
320,352,111909,1,8,0:0:0:0:
320,352,112010,1,0,0:0:0:0:
320,352,112211,1,8,0:0:0:0:
320,352,112412,1,0,0:0:0:0:
320,352,112513,1,0,0:0:0:0:
320,352,112714,1,8,0:0:0:0:
320,352,112815,1,0,0:0:0:0:
320,352,113016,1,8,0:0:0:0:
320,352,113117,1,8,0:0:0:0:
320,352,113218,1,0,0:0:0:0:
320,352,113318,1,8,0:0:0:0:
320,352,113520,1,8,0:0:0:0:
320,352,113620,1,0,0:0:0:0:
320,352,113822,1,8,0:0:0:0:
320,352,114023,1,0,0:0:0:0:
320,352,114124,1,8,0:0:0:0:
320,352,114325,1,0,0:0:0:0:
320,352,114426,1,8,0:0:0:0:
320,352,114627,1,0,0:0:0:0:
320,352,114728,1,0,0:0:0:0:
320,352,114828,1,8,0:0:0:0:
320,352,115030,1,8,0:0:0:0:
320,352,115130,1,0,0:0:0:0:
320,352,115332,1,0,0:0:0:0:
320,352,115432,1,8,0:0:0:0:
320,352,115533,1,0,0:0:0:0:
320,352,115634,1,8,0:0:0:0:
320,352,115734,1,0,0:0:0:0:
320,352,115835,1,0,0:0:0:0:
320,352,115936,1,8,0:0:0:0:
320,352,116137,1,8,0:0:0:0:
320,352,116238,1,0,0:0:0:0:
320,352,116439,1,8,0:0:0:0:
320,352,116540,1,0,0:0:0:0:
320,352,116640,1,0,0:0:0:0:
320,352,116741,1,8,0:0:0:0:
320,352,116842,1,0,0:0:0:0:
320,352,116942,1,0,0:0:0:0:
320,352,117043,1,8,0:0:0:0:
320,352,117144,1,0,0:0:0:0:
320,352,117244,1,8,0:0:0:0:
320,352,117312,1,8,0:0:0:0:
320,352,117379,1,8,0:0:0:0:
320,352,117446,1,0,0:0:0:0:
320,352,117546,1,8,0:0:0:0:
320,352,117647,1,0,0:0:0:0:
320,352,117748,1,0,0:0:0:0:
320,352,117848,1,8,0:0:0:0:
320,352,117949,1,8,0:0:0:0:
320,352,118050,1,4,0:0:0:0:
320,352,118352,1,0,0:0:0:0:
320,352,118452,1,8,0:0:0:0:
320,352,118654,1,8,0:0:0:0:
320,352,118754,1,8,0:0:0:0:
320,352,118855,1,0,0:0:0:0:
320,352,119056,1,0,0:0:0:0:
320,352,119157,1,0,0:0:0:0:
320,352,119258,1,8,0:0:0:0:
320,352,119459,1,8,0:0:0:0:
320,352,119660,1,0,0:0:0:0:
320,352,119761,1,0,0:0:0:0:
320,352,119962,1,8,0:0:0:0:
320,352,120063,1,0,0:0:0:0:
320,352,120164,1,0,0:0:0:0:
320,352,120264,1,8,0:0:0:0:
320,352,120466,1,0,0:0:0:0:
320,352,120667,1,8,0:0:0:0:
320,352,120768,1,0,0:0:0:0:
320,352,120868,1,8,0:0:0:0:
320,352,120969,1,8,0:0:0:0:
320,352,121070,1,0,0:0:0:0:
320,352,121170,1,0,0:0:0:0:
320,352,121271,1,8,0:0:0:0:
320,352,121472,1,8,0:0:0:0:
320,352,121573,1,8,0:0:0:0:
320,352,121674,1,0,0:0:0:0:
320,352,121875,1,8,0:0:0:0:
320,352,122076,1,0,0:0:0:0:
320,352,122177,1,0,0:0:0:0:
320,352,122278,1,8,0:0:0:0:
320,352,122378,1,8,0:0:0:0:
320,352,122479,1,0,0:0:0:0:
320,352,122680,1,0,0:0:0:0:
320,352,122882,1,8,0:0:0:0:
320,352,122982,1,8,0:0:0:0:
320,352,123184,1,8,0:0:0:0:
320,352,123284,1,0,0:0:0:0:
320,352,123486,1,0,0:0:0:0:
320,352,123586,1,0,0:0:0:0:
320,352,123687,1,8,0:0:0:0:
320,352,123888,1,8,0:0:0:0:
320,352,123989,1,0,0:0:0:0:
320,352,124090,1,8,0:0:0:0:
320,352,124190,1,8,0:0:0:0:
320,352,124291,1,0,0:0:0:0:
320,352,124492,1,12,0:0:0:0:
320,352,124794,1,0,0:0:0:0:
320,352,124895,1,8,0:0:0:0:
320,352,125096,1,8,0:0:0:0:
320,352,125197,1,8,0:0:0:0:
320,352,125298,1,0,0:0:0:0:
320,352,125499,1,8,0:0:0:0:
320,352,125600,1,0,0:0:0:0:
320,352,125701,1,8,0:0:0:0:
320,352,125902,1,8,0:0:0:0:
320,352,126103,1,0,0:0:0:0:
320,352,126204,1,0,0:0:0:0:
320,352,126405,1,0,0:0:0:0:
320,352,126506,1,8,0:0:0:0:
320,352,126607,1,8,0:0:0:0:
320,352,126707,1,0,0:0:0:0:
320,352,126909,1,8,0:0:0:0:
320,352,127110,1,8,0:0:0:0:
320,352,127211,1,8,0:0:0:0:
320,352,127311,1,0,0:0:0:0:
320,352,127412,1,8,0:0:0:0:
320,352,127513,1,0,0:0:0:0:
320,352,127613,1,0,0:0:0:0:
320,352,127714,1,8,0:0:0:0:
320,352,127815,1,0,0:0:0:0:
320,352,128016,1,0,0:0:0:0:
320,352,128117,1,8,0:0:0:0:
320,352,128318,1,8,0:0:0:0:
320,352,128419,1,0,0:0:0:0:
320,352,128519,1,8,0:0:0:0:
320,352,128721,1,0,0:0:0:0:
320,352,128821,1,0,0:0:0:0:
320,352,128922,1,8,0:0:0:0:
320,352,129023,1,8,0:0:0:0:
320,352,129123,1,0,0:0:0:0:
320,352,129325,1,8,0:0:0:0:
320,352,129425,1,0,0:0:0:0:
320,352,129526,1,8,0:0:0:0:
320,352,129627,1,8,0:0:0:0:
320,352,129727,1,0,0:0:0:0:
320,352,129828,1,0,0:0:0:0:
320,352,129929,1,8,0:0:0:0:
320,352,129996,1,8,0:0:0:0:
320,352,130063,1,8,0:0:0:0:
320,352,130130,1,0,0:0:0:0:
320,352,130231,1,8,0:0:0:0:
320,352,130331,1,0,0:0:0:0:
320,352,130432,1,0,0:0:0:0:
320,352,130533,1,8,0:0:0:0:
320,352,130600,1,0,0:0:0:0:
320,352,130667,1,0,0:0:0:0:
320,352,130734,1,8,0:0:0:0:
320,352,130835,1,8,0:0:0:0:
320,352,130935,1,4,0:0:0:0:
320,352,131237,1,0,0:0:0:0:
320,352,131338,1,8,0:0:0:0:
320,352,131539,1,8,0:0:0:0:
320,352,131640,1,8,0:0:0:0:
320,352,131741,1,0,0:0:0:0:
320,352,131942,1,8,0:0:0:0:
320,352,132043,1,0,0:0:0:0:
320,352,132143,1,8,0:0:0:0:
320,352,132345,1,0,0:0:0:0:
320,352,132546,1,8,0:0:0:0:
320,352,132647,1,0,0:0:0:0:
320,352,132848,1,0,0:0:0:0:
320,352,132949,1,8,0:0:0:0:
320,352,133050,1,8,0:0:0:0:
320,352,133150,1,0,0:0:0:0:
320,352,133352,1,8,0:0:0:0:
320,352,133553,1,0,0:0:0:0:
320,352,133654,1,0,0:0:0:0:
320,352,133754,1,8,0:0:0:0:
320,352,133855,1,8,0:0:0:0:
320,352,133956,1,0,0:0:0:0:
320,352,134056,1,0,0:0:0:0:
320,352,134157,1,8,0:0:0:0:
320,352,134358,1,8,0:0:0:0:
320,352,134459,1,8,0:0:0:0:
320,352,134560,1,0,0:0:0:0:
320,352,134761,1,8,0:0:0:0:
320,352,134962,1,0,0:0:0:0:
320,352,135063,1,8,0:0:0:0:
320,352,135164,1,0,0:0:0:0:
320,352,135264,1,0,0:0:0:0:
320,352,135365,1,8,0:0:0:0:
320,352,135566,1,0,0:0:0:0:
320,352,135768,1,8,0:0:0:0:
320,352,135868,1,8,0:0:0:0:
320,352,136070,1,8,0:0:0:0:
320,352,136170,1,0,0:0:0:0:
320,352,136372,1,8,0:0:0:0:
320,352,136472,1,0,0:0:0:0:
320,352,136573,1,8,0:0:0:0:
320,352,136774,1,0,0:0:0:0:
320,352,136875,1,0,0:0:0:0:
320,352,136976,1,8,0:0:0:0:
320,352,137076,1,8,0:0:0:0:
320,352,137177,1,0,0:0:0:0:
320,352,137378,1,12,0:0:0:0:
320,352,137680,1,0,0:0:0:0:
320,352,137781,1,8,0:0:0:0:
320,352,137982,1,0,0:0:0:0:
320,352,138083,1,0,0:0:0:0:
320,352,138184,1,8,0:0:0:0:
320,352,138385,1,8,0:0:0:0:
320,352,138486,1,0,0:0:0:0:
320,352,138586,1,8,0:0:0:0:
320,352,138687,1,8,0:0:0:0:
320,352,138788,1,0,0:0:0:0:
320,352,138989,1,8,0:0:0:0:
320,352,139090,1,8,0:0:0:0:
320,352,139291,1,8,0:0:0:0:
320,352,139392,1,0,0:0:0:0:
320,352,139593,1,0,0:0:0:0:
320,352,139694,1,0,0:0:0:0:
320,352,139794,1,8,0:0:0:0:
320,352,139996,1,8,0:0:0:0:
320,352,140096,1,0,0:0:0:0:
320,352,140197,1,8,0:0:0:0:
320,352,140398,1,8,0:0:0:0:
320,352,140600,1,0,0:0:0:0:
320,352,140701,1,0,0:0:0:0:
320,352,140801,1,8,0:0:0:0:
320,352,140902,1,0,0:0:0:0:
320,352,141003,1,8,0:0:0:0:
320,352,141204,1,0,0:0:0:0:
320,352,141405,1,8,0:0:0:0:
320,352,141506,1,0,0:0:0:0:
320,352,141607,1,8,0:0:0:0:
320,352,141707,1,8,0:0:0:0:
320,352,141808,1,0,0:0:0:0:
320,352,141909,1,0,0:0:0:0:
320,352,142009,1,8,0:0:0:0:
320,352,142211,1,8,0:0:0:0:
320,352,142311,1,0,0:0:0:0:
320,352,142412,1,8,0:0:0:0:
320,352,142513,1,8,0:0:0:0:
320,352,142613,1,0,0:0:0:0:
320,352,142714,1,8,0:0:0:0:
320,352,142815,1,0,0:0:0:0:
320,352,142915,1,0,0:0:0:0:
320,352,143016,1,8,0:0:0:0:
320,352,143083,1,0,0:0:0:0:
320,352,143150,1,0,0:0:0:0:
320,352,143217,1,8,0:0:0:0:
320,352,143284,1,0,0:0:0:0:
320,352,143352,1,0,0:0:0:0:
320,352,143419,1,8,0:0:0:0:
320,352,143486,1,0,0:0:0:0:
320,352,143553,1,0,0:0:0:0:
320,352,143620,1,8,0:0:0:0:
320,352,143687,1,0,0:0:0:0:
320,352,143754,1,0,0:0:0:0:
320,352,143821,1,8,0:0:0:0:
320,352,143922,1,0,0:0:0:0:
320,352,144023,1,0,0:0:0:0:
320,352,144123,1,8,0:0:0:0:
320,352,144224,1,0,0:0:0:0:
320,352,144325,1,0,0:0:0:0:
320,352,144425,1,8,0:0:0:0:
320,352,144526,1,0,0:0:0:0:
320,352,144627,1,8,0:0:0:0:
320,352,144727,1,0,0:0:0:0:
320,352,144828,1,0,0:0:0:0:
320,352,144929,1,8,0:0:0:0:
320,352,145029,1,0,0:0:0:0:
320,352,145130,1,0,0:0:0:0:
320,352,145231,1,8,0:0:0:0:
320,352,145331,1,8,0:0:0:0:
320,352,145432,1,4,0:0:0:0:
320,352,145734,1,0,0:0:0:0:
320,352,145834,1,8,0:0:0:0:
320,352,146036,1,8,0:0:0:0:
320,352,146237,1,0,0:0:0:0:
320,352,146338,1,0,0:0:0:0:
320,352,146539,1,0,0:0:0:0:
320,352,146640,1,8,0:0:0:0:
320,352,146841,1,8,0:0:0:0:
320,352,147042,1,0,0:0:0:0:
320,352,147143,1,0,0:0:0:0:
320,352,147344,1,0,0:0:0:0:
320,352,147445,1,8,0:0:0:0:
320,352,147646,1,8,0:0:0:0:
320,352,147848,1,0,0:0:0:0:
320,352,148049,1,8,0:0:0:0:
320,352,148150,1,8,0:0:0:0:
320,352,148250,1,0,0:0:0:0:
320,352,148452,1,0,0:0:0:0:
320,352,148653,1,12,0:0:0:0:
320,352,148955,1,0,0:0:0:0:
320,352,149056,1,8,0:0:0:0:
320,352,149257,1,8,0:0:0:0:
320,352,149458,1,0,0:0:0:0:
320,352,149559,1,0,0:0:0:0:
320,352,149760,1,0,0:0:0:0:
320,352,149861,1,8,0:0:0:0:
320,352,150062,1,8,0:0:0:0:
320,352,150264,1,0,0:0:0:0:
320,352,150364,1,0,0:0:0:0:
320,352,150566,1,0,0:0:0:0:
320,352,150666,1,8,0:0:0:0:
320,352,150868,1,8,0:0:0:0:
320,352,150968,1,0,0:0:0:0:
320,352,151069,1,0,0:0:0:0:
320,352,151170,1,8,0:0:0:0:
320,352,151270,1,0,0:0:0:0:
320,352,151472,1,8,0:0:0:0:
320,352,151673,1,0,0:0:0:0:
320,352,151874,1,12,0:0:0:0:
320,352,152176,1,0,0:0:0:0:
320,352,152277,1,8,0:0:0:0:
320,352,152478,1,8,0:0:0:0:
320,352,152680,1,0,0:0:0:0:
320,352,152780,1,0,0:0:0:0:
320,352,152982,1,0,0:0:0:0:
320,352,153083,1,8,0:0:0:0:
320,352,153284,1,8,0:0:0:0:
320,352,153485,1,0,0:0:0:0:
320,352,153586,1,0,0:0:0:0:
320,352,153787,1,0,0:0:0:0:
320,352,153888,1,8,0:0:0:0:
320,352,154089,1,8,0:0:0:0:
320,352,154291,1,0,0:0:0:0:
320,352,154492,1,8,0:0:0:0:
320,352,154593,1,8,0:0:0:0:
320,352,154693,1,0,0:0:0:0:
320,352,154895,1,0,0:0:0:0:
320,352,155096,1,8,0:0:0:0:
320,352,155197,1,0,0:0:0:0:
320,352,155297,1,8,0:0:0:0:
320,352,155398,1,8,0:0:0:0:
320,352,155499,1,0,0:0:0:0:
320,352,155599,1,8,0:0:0:0:
320,352,155700,1,0,0:0:0:0:
320,352,155801,1,0,0:0:0:0:
320,352,155901,1,8,0:0:0:0:
320,352,155968,1,8,0:0:0:0:
320,352,156036,1,8,0:0:0:0:
320,352,156103,1,0,0:0:0:0:
320,352,156203,1,8,0:0:0:0:
320,352,156304,1,0,0:0:0:0:
320,352,156405,1,0,0:0:0:0:
320,352,156505,1,8,0:0:0:0:
320,352,156606,1,0,0:0:0:0:
320,352,156707,1,0,0:0:0:0:
320,352,156807,1,0,0:0:0:0:
320,352,156908,1,8,0:0:0:0:
320,352,157009,1,8,0:0:0:0:
320,352,157109,1,0,0:0:0:0:
320,352,157210,1,8,0:0:0:0:
320,352,157311,1,0,0:0:0:0:
320,352,157411,1,0,0:0:0:0:
320,352,157512,1,8,0:0:0:0:
320,352,157579,1,0,0:0:0:0:
320,352,157646,1,0,0:0:0:0:
320,352,157713,1,8,0:0:0:0:
320,352,157814,1,0,0:0:0:0:
320,352,157915,1,8,0:0:0:0:
320,352,158015,1,8,0:0:0:0:
320,352,158116,1,0,0:0:0:0:
320,352,158217,1,0,0:0:0:0:
320,352,158317,1,12,0:0:0:0:
320,352,158619,1,8,0:0:0:0:
320,352,158720,1,0,0:0:0:0:
320,352,158921,1,8,0:0:0:0:
320,352,159123,1,0,0:0:0:0:
320,352,159223,1,8,0:0:0:0:
320,352,159324,1,0,0:0:0:0:
320,352,159425,1,0,0:0:0:0:
320,352,159525,1,8,0:0:0:0:
320,352,159626,1,0,0:0:0:0:
320,352,159727,1,8,0:0:0:0:
320,352,159827,1,8,0:0:0:0:
320,352,159928,1,0,0:0:0:0:
320,352,160230,1,8,0:0:0:0:
320,352,160331,1,0,0:0:0:0:
320,352,160532,1,8,0:0:0:0:
320,352,160633,1,0,0:0:0:0:
320,352,160734,1,0,0:0:0:0:
320,352,160834,1,8,0:0:0:0:
320,352,161036,1,0,0:0:0:0:
320,352,161136,1,8,0:0:0:0:
320,352,161338,1,8,0:0:0:0:
320,352,161405,1,8,0:0:0:0:
320,352,161472,1,8,0:0:0:0:
320,352,161539,1,0,0:0:0:0:
320,352,161740,1,0,0:0:0:0:
320,352,161841,1,8,0:0:0:0:
320,352,161942,1,8,0:0:0:0:
320,352,162042,1,0,0:0:0:0:
320,352,162143,1,8,0:0:0:0:
320,352,162344,1,8,0:0:0:0:
320,352,162445,1,0,0:0:0:0:
320,352,162546,1,0,0:0:0:0:
320,352,162646,1,8,0:0:0:0:
320,352,162848,1,8,0:0:0:0:
320,352,162948,1,0,0:0:0:0:
320,352,163150,1,8,0:0:0:0:
320,352,163250,1,0,0:0:0:0:
320,352,163351,1,8,0:0:0:0:
320,352,163452,1,8,0:0:0:0:
320,352,163552,1,0,0:0:0:0:
320,352,163653,1,0,0:0:0:0:
320,352,163754,1,8,0:0:0:0:
320,352,163955,1,0,0:0:0:0:
320,352,164056,1,8,0:0:0:0:
320,352,164156,1,0,0:0:0:0:
320,352,164257,1,0,0:0:0:0:
320,352,164358,1,8,0:0:0:0:
320,352,164559,1,8,0:0:0:0:
320,352,164660,1,8,0:0:0:0:
320,352,164760,1,0,0:0:0:0:
320,352,165062,1,8,0:0:0:0:
320,352,165163,1,0,0:0:0:0:
320,352,165364,1,8,0:0:0:0:
320,352,165465,1,0,0:0:0:0:
320,352,165566,1,8,0:0:0:0:
320,352,165666,1,8,0:0:0:0:
320,352,165767,1,0,0:0:0:0:
320,352,165834,1,0,0:0:0:0:
320,352,165901,1,0,0:0:0:0:
320,352,165968,1,8,0:0:0:0:
320,352,166069,1,8,0:0:0:0:
320,352,166170,1,0,0:0:0:0:
320,352,166371,1,8,0:0:0:0:
320,352,166472,1,0,0:0:0:0:
320,352,166572,1,0,0:0:0:0:
320,352,166673,1,8,0:0:0:0:
320,352,166774,1,0,0:0:0:0:
320,352,166874,1,0,0:0:0:0:
320,352,166975,1,8,0:0:0:0:
320,352,167176,1,0,0:0:0:0:
320,352,167277,1,8,0:0:0:0:
320,352,167378,1,0,0:0:0:0:
320,352,167478,1,8,0:0:0:0:
320,352,167579,1,0,0:0:0:0:
320,352,167680,1,0,0:0:0:0:
320,352,167780,1,8,0:0:0:0:
320,352,167881,1,8,0:0:0:0:
320,352,167982,1,0,0:0:0:0:
320,352,168284,1,8,0:0:0:0:
320,352,168385,1,0,0:0:0:0:
320,352,168586,1,8,0:0:0:0:
320,352,168787,1,0,0:0:0:0:
320,352,168888,1,0,0:0:0:0:
320,352,168989,1,8,0:0:0:0:
320,352,169089,1,0,0:0:0:0:
320,352,169190,1,8,0:0:0:0:
320,352,169391,1,0,0:0:0:0:
320,352,169593,1,8,0:0:0:0:
320,352,169693,1,0,0:0:0:0:
320,352,169794,1,8,0:0:0:0:
320,352,169895,1,8,0:0:0:0:
320,352,169995,1,0,0:0:0:0:
320,352,170096,1,0,0:0:0:0:
320,352,170197,1,8,0:0:0:0:
320,352,170398,1,0,0:0:0:0:
320,352,170499,1,8,0:0:0:0:
320,352,170599,1,8,0:0:0:0:
320,352,170700,1,0,0:0:0:0:
320,352,170801,1,8,0:0:0:0:
320,352,170901,1,8,0:0:0:0:
320,352,171002,1,0,0:0:0:0:
320,352,171203,1,8,0:0:0:0:
320,352,171304,1,0,0:0:0:0:
320,352,171405,1,0,0:0:0:0:
320,352,171505,1,8,0:0:0:0:
320,352,171606,1,0,0:0:0:0:
320,352,171707,1,0,0:0:0:0:
320,352,171807,1,8,0:0:0:0:
320,352,171874,1,0,0:0:0:0:
320,352,171942,1,0,0:0:0:0:
320,352,172009,1,8,0:0:0:0:
320,352,172109,1,0,0:0:0:0:
320,352,172210,1,0,0:0:0:0:
320,352,172311,1,8,0:0:0:0:
320,352,172411,1,0,0:0:0:0:
320,352,172512,1,0,0:0:0:0:
320,352,172613,1,8,0:0:0:0:
320,352,172680,1,0,0:0:0:0:
320,352,172747,1,0,0:0:0:0:
320,352,172814,1,8,0:0:0:0:
320,352,172915,1,0,0:0:0:0:
320,352,173015,1,0,0:0:0:0:
320,352,173116,1,8,0:0:0:0:
320,352,173217,1,0,0:0:0:0:
320,352,173317,1,0,0:0:0:0:
320,352,173418,1,8,0:0:0:0:
320,352,173519,1,0,0:0:0:0:
320,352,173619,1,8,0:0:0:0:
320,352,173720,1,8,0:0:0:0:
320,352,173821,1,8,0:0:0:0:
320,352,173921,1,8,0:0:0:0:
320,352,174022,1,8,0:0:0:0:
320,352,174123,1,8,0:0:0:0:
320,352,174223,1,8,0:0:0:0:
320,352,174324,1,8,0:0:0:0:
320,352,174425,1,4,0:0:0:0:
320,352,176035,1,8,0:0:0:0:
320,352,176841,1,0,0:0:0:0:
320,352,177646,1,8,0:0:0:0:
320,352,178451,1,8,0:0:0:0:
320,352,179257,1,0,0:0:0:0:
320,352,179659,1,8,0:0:0:0:
320,352,179861,1,0,0:0:0:0:
320,352,180062,1,0,0:0:0:0:
320,352,180163,1,8,0:0:0:0:
320,352,180465,1,8,0:0:0:0:
320,352,180666,1,0,0:0:0:0:
320,352,180867,1,12,0:0:0:0:
320,352,182478,1,8,0:0:0:0:
320,352,183284,1,8,0:0:0:0:
320,352,184089,1,0,0:0:0:0:
320,352,184492,1,0,0:0:0:0:
320,352,184693,1,0,0:0:0:0:
320,352,184794,1,0,0:0:0:0:
320,352,184894,1,8,0:0:0:0:
320,352,185096,1,0,0:0:0:0:
320,352,185297,1,8,0:0:0:0:
320,352,185498,1,0,0:0:0:0:
320,352,185700,1,8,0:0:0:0:
320,352,185800,1,0,0:0:0:0:
320,352,185901,1,8,0:0:0:0:
320,352,186002,1,8,0:0:0:0:
320,352,186102,1,0,0:0:0:0:
320,352,186203,1,0,0:0:0:0:
320,352,186304,1,8,0:0:0:0:
320,352,186371,1,8,0:0:0:0:
320,352,186438,1,8,0:0:0:0:
320,352,186505,1,0,0:0:0:0:
320,352,186606,1,8,0:0:0:0:
320,352,186706,1,0,0:0:0:0:
320,352,186807,1,0,0:0:0:0:
320,352,186908,1,8,0:0:0:0:
320,352,186975,1,0,0:0:0:0:
320,352,187042,1,0,0:0:0:0:
320,352,187109,1,8,0:0:0:0:
320,352,187210,1,8,0:0:0:0:
320,352,187310,1,4,0:0:0:0:
320,352,187612,1,0,0:0:0:0:
320,352,187713,1,8,0:0:0:0:
320,352,187914,1,0,0:0:0:0:
320,352,188015,1,8,0:0:0:0:
320,352,188116,1,0,0:0:0:0:
320,352,188317,1,0,0:0:0:0:
320,352,188418,1,0,0:0:0:0:
320,352,188518,1,8,0:0:0:0:
320,352,188720,1,0,0:0:0:0:
320,352,188921,1,8,0:0:0:0:
320,352,189022,1,0,0:0:0:0:
320,352,189223,1,8,0:0:0:0:
320,352,189324,1,0,0:0:0:0:
320,352,189425,1,0,0:0:0:0:
320,352,189525,1,8,0:0:0:0:
320,352,189727,1,0,0:0:0:0:
320,352,189928,1,8,0:0:0:0:
320,352,190029,1,0,0:0:0:0:
320,352,190129,1,8,0:0:0:0:
320,352,190230,1,8,0:0:0:0:
320,352,190331,1,0,0:0:0:0:
320,352,190431,1,0,0:0:0:0:
320,352,190532,1,8,0:0:0:0:
320,352,190733,1,8,0:0:0:0:
320,352,190834,1,8,0:0:0:0:
320,352,190935,1,0,0:0:0:0:
320,352,191136,1,8,0:0:0:0:
320,352,191337,1,0,0:0:0:0:
320,352,191438,1,0,0:0:0:0:
320,352,191539,1,8,0:0:0:0:
320,352,191639,1,0,0:0:0:0:
320,352,191740,1,8,0:0:0:0:
320,352,191941,1,0,0:0:0:0:
320,352,192143,1,8,0:0:0:0:
320,352,192243,1,8,0:0:0:0:
320,352,192445,1,8,0:0:0:0:
320,352,192545,1,0,0:0:0:0:
320,352,192747,1,0,0:0:0:0:
320,352,192847,1,0,0:0:0:0:
320,352,192948,1,8,0:0:0:0:
320,352,193149,1,0,0:0:0:0:
320,352,193250,1,0,0:0:0:0:
320,352,193351,1,8,0:0:0:0:
320,352,193451,1,8,0:0:0:0:
320,352,193552,1,0,0:0:0:0:
320,352,193753,1,12,0:0:0:0:
320,352,194055,1,0,0:0:0:0:
320,352,194156,1,8,0:0:0:0:
320,352,194357,1,0,0:0:0:0:
320,352,194458,1,0,0:0:0:0:
320,352,194559,1,8,0:0:0:0:
320,352,194760,1,8,0:0:0:0:
320,352,194861,1,0,0:0:0:0:
320,352,194961,1,8,0:0:0:0:
320,352,195062,1,8,0:0:0:0:
320,352,195163,1,0,0:0:0:0:
320,352,195364,1,0,0:0:0:0:
320,352,195465,1,8,0:0:0:0:
320,352,195666,1,8,0:0:0:0:
320,352,195767,1,0,0:0:0:0:
320,352,195968,1,0,0:0:0:0:
320,352,196069,1,0,0:0:0:0:
320,352,196169,1,8,0:0:0:0:
320,352,196371,1,8,0:0:0:0:
320,352,196471,1,0,0:0:0:0:
320,352,196572,1,8,0:0:0:0:
320,352,196773,1,8,0:0:0:0:
320,352,196975,1,0,0:0:0:0:
320,352,197076,1,0,0:0:0:0:
320,352,197176,1,8,0:0:0:0:
320,352,197277,1,8,0:0:0:0:
320,352,197378,1,0,0:0:0:0:
320,352,197579,1,8,0:0:0:0:
320,352,197780,1,0,0:0:0:0:
320,352,197881,1,8,0:0:0:0:
320,352,197982,1,0,0:0:0:0:
320,352,198082,1,0,0:0:0:0:
320,352,198183,1,8,0:0:0:0:
320,352,198284,1,8,0:0:0:0:
320,352,198384,1,0,0:0:0:0:
320,352,198586,1,8,0:0:0:0:
320,352,198686,1,0,0:0:0:0:
320,352,198787,1,8,0:0:0:0:
320,352,198888,1,8,0:0:0:0:
320,352,198988,1,0,0:0:0:0:
320,352,199089,1,8,0:0:0:0:
320,352,199190,1,0,0:0:0:0:
320,352,199290,1,0,0:0:0:0:
320,352,199391,1,8,0:0:0:0:
320,352,199458,1,0,0:0:0:0:
320,352,199525,1,0,0:0:0:0:
320,352,199592,1,8,0:0:0:0:
320,352,199659,1,0,0:0:0:0:
320,352,199727,1,0,0:0:0:0:
320,352,199794,1,8,0:0:0:0:
320,352,199861,1,0,0:0:0:0:
320,352,199928,1,0,0:0:0:0:
320,352,199995,1,8,0:0:0:0:
320,352,200062,1,0,0:0:0:0:
320,352,200129,1,0,0:0:0:0:
320,352,200196,1,8,0:0:0:0:
320,352,200297,1,0,0:0:0:0:
320,352,200398,1,0,0:0:0:0:
320,352,200498,1,8,0:0:0:0:
320,352,200599,1,0,0:0:0:0:
320,352,200700,1,0,0:0:0:0:
320,352,200800,1,8,0:0:0:0:
320,352,200901,1,0,0:0:0:0:
320,352,201002,1,8,0:0:0:0:
320,352,201102,1,0,0:0:0:0:
320,352,201203,1,0,0:0:0:0:
320,352,201304,1,8,0:0:0:0:
320,352,201404,1,0,0:0:0:0:
320,352,201505,1,0,0:0:0:0:
320,352,201606,1,8,0:0:0:0:
320,352,201706,1,8,0:0:0:0:
320,352,201807,1,0,0:0:0:0:
320,352,201908,1,0,0:0:0:0:
320,352,202008,1,0,0:0:0:0:
320,352,202109,1,0,0:0:0:0:
320,352,202210,1,0,0:0:0:0:
320,352,202310,1,0,0:0:0:0:
320,352,202411,1,0,0:0:0:0:
320,352,202512,1,0,0:0:0:0:
320,352,202612,1,0,0:0:0:0:
320,352,202680,1,0,0:0:0:0:
320,352,202747,1,0,0:0:0:0:
320,352,202814,1,0,0:0:0:0:
320,352,202914,1,0,0:0:0:0:
320,352,203015,1,0,0:0:0:0:
320,352,203116,1,0,0:0:0:0:
320,352,203216,1,0,0:0:0:0:
320,352,203317,1,0,0:0:0:0:
320,352,203418,1,12,0:0:0:0:
320,352,203720,1,0,0:0:0:0:
320,352,203820,1,8,0:0:0:0:
320,352,204022,1,8,0:0:0:0:
320,352,204122,1,8,0:0:0:0:
320,352,204223,1,0,0:0:0:0:
320,352,204424,1,8,0:0:0:0:
320,352,204525,1,0,0:0:0:0:
320,352,204626,1,8,0:0:0:0:
320,352,204827,1,8,0:0:0:0:
320,352,205028,1,0,0:0:0:0:
320,352,205129,1,8,0:0:0:0:
320,352,205330,1,8,0:0:0:0:
320,352,205431,1,0,0:0:0:0:
320,352,205532,1,0,0:0:0:0:
320,352,205632,1,8,0:0:0:0:
320,352,205834,1,0,0:0:0:0:
320,352,206035,1,8,0:0:0:0:
320,352,206136,1,0,0:0:0:0:
320,352,206236,1,8,0:0:0:0:
320,352,206337,1,8,0:0:0:0:
320,352,206438,1,0,0:0:0:0:
320,352,206538,1,0,0:0:0:0:
320,352,206639,1,8,0:0:0:0:
320,352,206840,1,8,0:0:0:0:
320,352,206941,1,8,0:0:0:0:
320,352,207042,1,0,0:0:0:0:
320,352,207243,1,8,0:0:0:0:
320,352,207444,1,0,0:0:0:0:
320,352,207545,1,0,0:0:0:0:
320,352,207646,1,8,0:0:0:0:
320,352,207746,1,8,0:0:0:0:
320,352,207847,1,0,0:0:0:0:
320,352,208048,1,0,0:0:0:0:
320,352,208250,1,8,0:0:0:0:
320,352,208350,1,8,0:0:0:0:
320,352,208552,1,8,0:0:0:0:
320,352,208652,1,0,0:0:0:0:
320,352,208854,1,0,0:0:0:0:
320,352,208954,1,0,0:0:0:0:
320,352,209055,1,8,0:0:0:0:
320,352,209256,1,8,0:0:0:0:
320,352,209357,1,0,0:0:0:0:
320,352,209458,1,8,0:0:0:0:
320,352,209558,1,8,0:0:0:0:
320,352,209659,1,0,0:0:0:0:
320,352,209860,1,12,0:0:0:0:
320,352,210162,1,0,0:0:0:0:
320,352,210263,1,8,0:0:0:0:
320,352,210464,1,8,0:0:0:0:
320,352,210565,1,8,0:0:0:0:
320,352,210666,1,0,0:0:0:0:
320,352,210867,1,8,0:0:0:0:
320,352,210968,1,0,0:0:0:0:
320,352,211069,1,8,0:0:0:0:
320,352,211270,1,8,0:0:0:0:
320,352,211471,1,0,0:0:0:0:
320,352,211572,1,0,0:0:0:0:
320,352,211773,1,0,0:0:0:0:
320,352,211874,1,8,0:0:0:0:
320,352,211975,1,8,0:0:0:0:
320,352,212075,1,0,0:0:0:0:
320,352,212277,1,8,0:0:0:0:
320,352,212478,1,8,0:0:0:0:
320,352,212579,1,0,0:0:0:0:
320,352,212679,1,8,0:0:0:0:
320,352,212780,1,8,0:0:0:0:
320,352,212881,1,0,0:0:0:0:
320,352,212981,1,0,0:0:0:0:
320,352,213082,1,8,0:0:0:0:
320,352,213183,1,0,0:0:0:0:
320,352,213384,1,0,0:0:0:0:
320,352,213485,1,8,0:0:0:0:
320,352,213686,1,8,0:0:0:0:
320,352,213787,1,0,0:0:0:0:
320,352,213887,1,8,0:0:0:0:
320,352,214089,1,0,0:0:0:0:
320,352,214189,1,0,0:0:0:0:
320,352,214290,1,8,0:0:0:0:
320,352,214391,1,8,0:0:0:0:
320,352,214491,1,0,0:0:0:0:
320,352,214693,1,8,0:0:0:0:
320,352,214793,1,8,0:0:0:0:
320,352,214894,1,0,0:0:0:0:
320,352,214995,1,8,0:0:0:0:
320,352,215095,1,0,0:0:0:0:
320,352,215196,1,0,0:0:0:0:
320,352,215297,1,8,0:0:0:0:
320,352,215364,1,8,0:0:0:0:
320,352,215431,1,8,0:0:0:0:
320,352,215498,1,0,0:0:0:0:
320,352,215599,1,0,0:0:0:0:
320,352,215699,1,8,0:0:0:0:
320,352,215800,1,0,0:0:0:0:
320,352,215901,1,8,0:0:0:0:
320,352,215968,1,0,0:0:0:0:
320,352,216035,1,0,0:0:0:0:
320,352,216102,1,8,0:0:0:0:
320,352,216203,1,8,0:0:0:0:
320,352,216303,1,4,0:0:0:0:
320,352,216605,1,0,0:0:0:0:
320,352,216706,1,8,0:0:0:0:
320,352,216907,1,8,0:0:0:0:
320,352,217008,1,8,0:0:0:0:
320,352,217109,1,0,0:0:0:0:
320,352,217310,1,8,0:0:0:0:
320,352,217411,1,0,0:0:0:0:
320,352,217511,1,8,0:0:0:0:
320,352,217713,1,0,0:0:0:0:
320,352,217914,1,8,0:0:0:0:
320,352,218015,1,0,0:0:0:0:
320,352,218216,1,0,0:0:0:0:
320,352,218317,1,8,0:0:0:0:
320,352,218418,1,8,0:0:0:0:
320,352,218518,1,0,0:0:0:0:
320,352,218720,1,8,0:0:0:0:
320,352,218921,1,0,0:0:0:0:
320,352,219022,1,0,0:0:0:0:
320,352,219122,1,8,0:0:0:0:
320,352,219223,1,8,0:0:0:0:
320,352,219324,1,0,0:0:0:0:
320,352,219424,1,0,0:0:0:0:
320,352,219525,1,8,0:0:0:0:
320,352,219726,1,8,0:0:0:0:
320,352,219827,1,8,0:0:0:0:
320,352,219928,1,0,0:0:0:0:
320,352,220129,1,8,0:0:0:0:
320,352,220330,1,0,0:0:0:0:
320,352,220431,1,8,0:0:0:0:
320,352,220532,1,0,0:0:0:0:
320,352,220632,1,0,0:0:0:0:
320,352,220733,1,8,0:0:0:0:
320,352,220934,1,0,0:0:0:0:
320,352,221136,1,8,0:0:0:0:
320,352,221236,1,8,0:0:0:0:
320,352,221438,1,8,0:0:0:0:
320,352,221538,1,0,0:0:0:0:
320,352,221740,1,8,0:0:0:0:
320,352,221840,1,0,0:0:0:0:
320,352,221941,1,8,0:0:0:0:
320,352,222142,1,0,0:0:0:0:
320,352,222243,1,0,0:0:0:0:
320,352,222344,1,8,0:0:0:0:
320,352,222444,1,8,0:0:0:0:
320,352,222545,1,0,0:0:0:0:
320,352,222746,1,12,0:0:0:0:
320,352,223048,1,0,0:0:0:0:
320,352,223149,1,8,0:0:0:0:
320,352,223350,1,0,0:0:0:0:
320,352,223451,1,0,0:0:0:0:
320,352,223552,1,8,0:0:0:0:
320,352,223753,1,8,0:0:0:0:
320,352,223854,1,0,0:0:0:0:
320,352,223954,1,8,0:0:0:0:
320,352,224055,1,8,0:0:0:0:
320,352,224156,1,0,0:0:0:0:
320,352,224357,1,8,0:0:0:0:
320,352,224458,1,8,0:0:0:0:
320,352,224659,1,8,0:0:0:0:
320,352,224760,1,0,0:0:0:0:
320,352,224961,1,0,0:0:0:0:
320,352,225062,1,0,0:0:0:0:
320,352,225162,1,8,0:0:0:0:
320,352,225364,1,8,0:0:0:0:
320,352,225464,1,0,0:0:0:0:
320,352,225565,1,8,0:0:0:0:
320,352,225766,1,8,0:0:0:0:
320,352,225968,1,0,0:0:0:0:
320,352,226069,1,0,0:0:0:0:
320,352,226169,1,8,0:0:0:0:
320,352,226270,1,0,0:0:0:0:
320,352,226371,1,8,0:0:0:0:
320,352,226572,1,8,0:0:0:0:
320,352,226773,1,0,0:0:0:0:
320,352,226874,1,8,0:0:0:0:
320,352,226975,1,0,0:0:0:0:
320,352,227075,1,0,0:0:0:0:
320,352,227176,1,8,0:0:0:0:
320,352,227277,1,8,0:0:0:0:
320,352,227377,1,0,0:0:0:0:
320,352,227579,1,8,0:0:0:0:
320,352,227679,1,0,0:0:0:0:
320,352,227780,1,8,0:0:0:0:
320,352,227881,1,8,0:0:0:0:
320,352,227981,1,0,0:0:0:0:
320,352,228082,1,8,0:0:0:0:
320,352,228183,1,0,0:0:0:0:
320,352,228283,1,0,0:0:0:0:
320,352,228384,1,8,0:0:0:0:
320,352,228451,1,0,0:0:0:0:
320,352,228518,1,0,0:0:0:0:
320,352,228585,1,8,0:0:0:0:
320,352,228652,1,0,0:0:0:0:
320,352,228720,1,0,0:0:0:0:
320,352,228787,1,8,0:0:0:0:
320,352,228854,1,0,0:0:0:0:
320,352,228921,1,0,0:0:0:0:
320,352,228988,1,8,0:0:0:0:
320,352,229055,1,0,0:0:0:0:
320,352,229122,1,0,0:0:0:0:
320,352,229189,1,8,0:0:0:0:
320,352,229290,1,0,0:0:0:0:
320,352,229391,1,0,0:0:0:0:
320,352,229491,1,8,0:0:0:0:
320,352,229592,1,0,0:0:0:0:
320,352,229693,1,0,0:0:0:0:
320,352,229793,1,8,0:0:0:0:
320,352,229894,1,0,0:0:0:0:
320,352,229995,1,8,0:0:0:0:
320,352,230095,1,0,0:0:0:0:
320,352,230196,1,0,0:0:0:0:
320,352,230297,1,8,0:0:0:0:
320,352,230397,1,0,0:0:0:0:
320,352,230498,1,0,0:0:0:0:
320,352,230599,1,8,0:0:0:0:
320,352,230699,1,8,0:0:0:0:
320,352,230800,1,0,0:0:0:0:
320,352,230867,1,8,0:0:0:0:
320,352,230934,1,8,0:0:0:0:
320,352,231001,1,0,0:0:0:0:
320,352,231069,1,8,0:0:0:0:
320,352,231136,1,8,0:0:0:0:
320,352,231203,1,0,0:0:0:0:
320,352,231270,1,8,0:0:0:0:
320,352,231337,1,8,0:0:0:0:
320,352,231404,1,0,0:0:0:0:
320,352,231471,1,8,0:0:0:0:
320,352,231538,1,8,0:0:0:0:
256,192,231605,8,8,238048,0:0:0:0:
