osu file format v14

[General]
AudioFilename: audio.mp3
AudioLeadIn: 0
PreviewTime: 11954
Countdown: 0
SampleSet: Soft
StackLeniency: 0.7
Mode: 2
LetterboxInBreaks: 0
WidescreenStoryboard: 1

[Editor]
Bookmarks: 23270,28884,40112,51340,65375,76603
DistanceSpacing: 1
BeatDivisor: 4
GridSize: 32
TimelineZoom: 1.7

[Metadata]
Title:dual existence (TV Size)
TitleUnicode:dual existence (TV Size)
Artist:fripSide
ArtistUnicode:fripSide
Creator:Souvenir
Version:Rain
Source:とある科学の超電磁砲T
Tags:scientific railgun t opening op op2 anime japanese pop jpop j-pop 南條愛乃 Nanjou Nanjo Yoshino 八木沼悟志 Yaginuma Satoshi Volta Ron Toaru Kagaku no
BeatmapID:2977460
BeatmapSetID:1447905

[Difficulty]
HPDrainRate:5
CircleSize:4
OverallDifficulty:9
ApproachRate:9
SliderMultiplier:1.96
SliderTickRate:2

[Events]
//Background and Video events
Video,0,"fripSide_dual existence.mp4"
0,0,"dual existence.jpg",0,0
//Break Periods
//Storyboard Layer 0 (Background)
//Storyboard Layer 1 (Fail)
//Storyboard Layer 2 (Pass)
//Storyboard Layer 3 (Foreground)
//Storyboard Layer 4 (Overlay)
//Storyboard Sound Samples

[TimingPoints]
552,631.578947368421,4,2,2,55,1,0
552,-100,4,2,2,55,0,0
10639,350.877192982456,4,2,1,60,1,0
11516,-100,4,2,1,80,0,0
12042,-100,4,2,1,80,0,1
23270,-100,4,2,1,80,0,0
28884,-100,4,2,2,65,0,0
39060,-100,4,2,1,65,0,0
40112,-100,4,2,2,70,0,0
50288,-100,4,2,1,70,0,0
50726,-100,4,2,2,70,0,0
50902,-100,4,2,1,70,0,0
50989,-100,4,2,2,70,0,0
51165,-100,4,2,1,70,0,0
51340,-100,4,2,2,70,0,0
51494,-100,4,2,11,75,0,0
51538,-100,4,2,1,75,0,0
54301,-100,4,2,11,75,0,0
54345,-100,4,2,1,75,0,0
56954,-100,4,2,2,75,0,0
57042,-100,4,2,1,75,0,0
57108,-100,4,2,11,75,0,0
57152,-100,4,2,1,75,0,0
62722,-100,4,2,11,75,0,0
62766,-100,4,2,1,75,0,0
65375,-100,4,2,1,80,0,1
76428,-100,4,2,1,80,0,0
76603,-100,4,2,1,80,0,1
87831,-100,4,2,1,40,0,0

[Colours]
Combo1 : 187,177,174
Combo2 : 241,166,120
Combo3 : 106,215,255
Combo4 : 251,108,108

[HitObjects]
134,248,552,6,0,L|130:135,1,98,2|0,0:0|0:0,0:0:0:0:
227,111,1183,2,0,L|344:104,1,98,2|0,0:0|0:0,0:0:0:0:
122,248,1815,2,0,P|60:185|132:131,1,196,10|2,0:0|0:0,0:0:0:0:
232,131,2762,1,0,0:0:0:0:
428,211,3078,6,0,L|432:109,1,98,2|0,0:0|0:0,0:0:0:0:
327,93,3709,2,0,L|212:82,1,98,2|0,0:0|0:0,0:0:0:0:
438,307,4341,2,0,P|440:217|336:174,1,196,10|2,0:0|0:0,0:0:0:0:
250,175,5288,1,0,0:0:0:0:
52,261,5604,6,0,L|47:152,1,98,2|0,0:0|0:0,0:0:0:0:
149,174,6236,2,0,L|153:58,1,98,2|0,0:0|0:0,0:0:0:0:
351,276,6867,2,0,L|356:167,1,98,10|0,0:0|0:0,0:0:0:0:
254,189,7499,2,0,L|250:73,1,98,2|0,0:0|0:0,0:0:0:0:
450,101,8130,5,2,0:0:0:0:
256,192,8446,12,0,11340,0:0:0:0:
110,178,11516,5,2,0:0:0:0:
345,201,11691,2,0,L|401:199,1,49,8|8,0:0|0:0,0:0:0:0:
395,158,11867,2,0,L|331:151,1,49,8|8,0:0|0:0,0:0:0:0:
174,136,12042,6,0,L|76:127,1,98,6|0,0:0|0:0,0:0:0:0:
241,258,12393,2,0,L|252:146,1,98,8|0,0:0|0:0,0:0:0:0:
89,158,12744,1,2,0:0:0:0:
335,259,12919,2,0,L|343:147,1,98,2|8,0:0|0:0,0:0:0:0:
107,270,13270,6,0,P|55:222|121:129,1,196,2|2,0:0|0:0,0:0:0:0:
209,101,13796,1,8,0:0:0:0:
36,185,13972,2,0,L|237:155,1,196,2|2,0:0|0:0,0:0:0:0:
62,249,14498,2,0,L|58:138,1,98,8|2,0:0|0:0,0:0:0:0:
300,206,14849,6,0,L|423:193,1,98,2|0,0:0|0:0,0:0:0:0:
230,142,15200,2,0,L|114:131,1,98,8|0,0:0|0:0,0:0:0:0:
369,243,15551,2,0,L|481:236,2,98,2|2|8,0:0|0:0|0:0,0:0:0:0:
135,272,16077,6,0,P|73:222|148:151,1,196,2|2,0:0|0:0,0:0:0:0:
232,155,16603,1,8,0:0:0:0:
466,248,16779,2,0,P|468:156|378:117,1,196,2|2,0:0|0:0,0:0:0:0:
213,233,17305,2,0,L|215:169,1,49,8|0,0:0|0:0,0:0:0:0:
279,143,17481,2,0,L|334:137,1,49,2|0,0:0|0:0,0:0:0:0:
151,77,17656,6,0,L|41:74,2,98,6|0|8,0:0|0:0|0:0,0:0:0:0:
322,78,18182,2,0,L|331:192,1,98,2|0,0:0|0:0,0:0:0:0:
155,180,18533,2,0,L|145:292,1,98,2|8,0:0|0:0,0:0:0:0:
379,254,18884,6,0,L|488:237,1,98,2|0,0:0|0:0,0:0:0:0:
215,191,19235,2,0,L|99:172,1,98,2|0,0:0|0:0,0:0:0:0:
397,160,19586,2,0,L|503:149,1,98,2|2,0:0|0:0,0:0:0:0:
329,98,19937,1,2,0:0:0:0:
88,226,20112,2,0,L|76:121,1,98,8|2,0:0|0:0,0:0:0:0:
136,133,20375,1,0,0:0:0:0:
313,280,20463,6,0,P|374:248|309:168,1,196,2|8,0:0|0:0,0:0:0:0:
81,89,20989,2,0,P|25:153|96:226,1,196,2|2,0:0|0:0,0:0:0:0:
184,213,21516,1,8,0:0:0:0:
418,221,21691,6,0,P|411:130|297:99,1,196,2|2,0:0|0:0,0:0:0:0:
77,288,22217,2,0,L|24:281,1,49,10|0,0:0|0:0,0:0:0:0:
27,247,22393,2,0,L|97:236,1,49,2|0,0:0|0:0,0:0:0:0:
236,199,22568,6,0,L|304:192,1,49,10|0,0:0|0:0,0:0:0:0:
350,185,22744,2,0,L|353:117,1,49,2|0,0:0|0:0,0:0:0:0:
195,274,22919,2,0,L|142:269,1,49,10|0,0:0|0:0,0:0:0:0:
203,230,23095,2,0,L|266:225,1,49,2|0,0:0|0:0,0:0:0:0:
421,274,23270,6,0,L|427:161,1,98,6|0,0:0|0:0,0:0:0:0:
260,152,23621,1,8,0:0:0:0:
431,183,23796,2,0,L|440:81,1,98,0|2,0:0|0:0,0:0:0:0:
339,65,24147,1,0,0:0:0:0:
91,275,24323,6,0,L|85:162,1,98,8|0,0:0|0:0,0:0:0:0:
252,153,24674,1,2,0:0:0:0:
81,184,24849,2,0,L|187:169,1,98,0|10,0:0|0:0,0:0:0:0:
277,155,25200,1,0,0:0:0:0:
41,255,25375,1,2,0:0:0:0:
141,241,25551,1,2,0:0:0:0:
144,152,25726,1,8,0:0:0:0:
44,149,25902,1,2,0:0:0:0:
281,289,26077,6,0,L|278:189,1,98,2|0,0:0|0:0,0:0:0:0:
442,191,26428,1,8,0:0:0:0:
269,169,26603,2,0,L|265:60,1,98,0|2,0:0|0:0,0:0:0:0:
435,69,26954,1,2,0:0:0:0:
273,52,27130,1,8,0:0:0:0:
37,46,27305,6,0,P|56:139|178:170,1,196,2|2,0:0|0:0,0:0:0:0:
473,45,28007,2,0,P|451:145|337:177,1,196,2|2,0:0|0:0,0:0:0:0:
203,263,28533,1,8,0:0:0:0:
251,260,28620,1,0,0:0:0:0:
300,257,28708,1,2,0:0:0:0:
61,297,28884,6,0,L|48:94,1,196,14|2,0:0|0:0,0:0:0:0:
152,97,29410,1,2,0:0:0:0:
340,92,29761,2,0,P|405:140|331:210,1,196,2|0,0:0|0:0,0:0:0:0:
174,284,30288,6,0,P|76:184|176:108,1,294,8|2,0:0|0:0,0:0:0:0:
342,107,30989,2,0,P|436:198|338:284,1,294,2|0,0:0|0:0,0:0:0:0:
169,277,31691,6,0,L|157:70,1,196,10|2,0:0|0:0,0:0:0:0:
62,84,32217,1,2,0:0:0:0:
236,70,32568,2,0,P|152:92|129:211,1,196,2|0,0:0|0:0,0:0:0:0:
291,291,33095,6,0,P|395:222|294:150,1,294,10|2,0:0|0:0,0:0:0:0:
125,53,33796,2,0,P|36:97|137:214,1,294,2|0,0:0|0:0,0:0:0:0:
301,73,34498,6,0,L|313:296,1,196,10|2,0:0|0:0,0:0:0:0:
214,255,35024,1,2,0:0:0:0:
404,282,35375,2,0,P|463:217|400:144,1,196,2|0,0:0|0:0,0:0:0:0:
238,115,35902,6,0,L|37:100,1,196,10|2,0:0|0:0,0:0:0:0:
130,176,36428,1,2,0:0:0:0:
312,299,36779,2,0,P|227:247|235:159,1,196,2|0,0:0|0:0,0:0:0:0:
406,243,37305,6,0,L|418:122,1,98,10|0,0:0|0:0,0:0:0:0:
327,133,37656,1,2,0:0:0:0:
163,102,37831,2,0,L|370:122,1,196,2|2,0:0|0:0,0:0:0:0:
455,145,38358,2,0,L|467:38,1,98,2|0,0:0|0:0,0:0:0:0:
229,272,38709,6,0,L|223:169,1,98,10|0,0:0|0:0,0:0:0:0:
131,176,39060,2,0,L|124:61,1,98,2|0,0:0|0:0,0:0:0:0:
187,74,39323,1,2,0:0:0:0:
337,86,39410,2,0,L|460:93,3,98,2|2|2|2,0:0|0:0|0:0|0:0,0:0:0:0:
179,255,40112,6,0,P|117:176|193:147,1,196,14|2,0:0|0:0,0:0:0:0:
344,110,40638,2,0,L|347:227,1,98,2|0,0:0|0:0,0:0:0:0:
190,232,40989,2,0,L|88:227,2,98,2|0|0,0:0|0:0|0:0,0:0:0:0:
432,305,41516,6,0,P|489:250|420:174,1,196,8|0,0:0|0:0,0:0:0:0:
331,165,42042,1,2,0:0:0:0:
89,250,42217,2,0,L|86:137,1,98,2|0,0:0|0:0,0:0:0:0:
178,152,42568,2,0,L|185:41,1,98,2|0,0:0|0:0,0:0:0:0:
421,272,42919,6,0,P|479:229|414:140,1,196,10|2,0:0|0:0,0:0:0:0:
256,121,43446,2,0,L|247:229,1,98,2|0,0:0|0:0,0:0:0:0:
414,89,43796,2,0,L|304:81,2,98,2|0|0,0:0|0:0|0:0,0:0:0:0:
173,240,44323,6,0,P|114:188|188:106,1,196,8|0,0:0|0:0,0:0:0:0:
77,104,44849,1,2,0:0:0:0:
318,290,45024,2,0,L|324:184,1,98,2|0,0:0|0:0,0:0:0:0:
416,197,45375,2,0,L|424:87,1,98,2|0,0:0|0:0,0:0:0:0:
177,95,45726,6,0,P|101:124|63:235,1,196,10|2,0:0|0:0,0:0:0:0:
162,226,46253,1,0,0:0:0:0:
330,220,46428,2,0,L|442:209,1,98,2|2,0:0|0:0,0:0:0:0:
327,174,46779,2,0,L|221:156,1,98,2|0,0:0|0:0,0:0:0:0:
481,318,47130,6,0,P|454:225|354:194,1,196,10|2,0:0|0:0,0:0:0:0:
272,199,47656,1,0,0:0:0:0:
108,282,47831,2,0,L|215:264,1,98,2|2,0:0|0:0,0:0:0:0:
110,244,48182,2,0,L|9:229,1,98,2|0,0:0|0:0,0:0:0:0:
259,295,48533,6,0,L|465:265,1,196,10|2,0:0|0:0,0:0:0:0:
42,154,49235,2,0,L|206:134,2,147,10|0|0,0:0|0:0|0:0,0:0:0:0:
284,235,49937,6,0,L|291:123,1,98,10|0,0:0|0:0,0:0:0:0:
129,141,50288,2,0,L|117:27,1,98,8|0,0:0|0:0,0:0:0:0:
353,83,50638,2,0,L|410:79,1,49,2|8,0:0|0:0,0:0:0:0:
234,172,50902,2,0,L|175:168,1,49,2|8,0:0|0:0,0:0:0:0:
16,273,51165,2,0,L|79:269,1,49,2|2,0:0|0:0,0:0:0:0:
239,330,51340,6,0,P|300:269|234:201,1,196,6|8,0:0|0:0,0:0:0:0:
141,201,51867,1,0,0:0:0:0:
306,133,52042,2,0,L|465:119,2,147,2|2|2,0:0|0:0|0:0,0:0:0:0:
144,177,52744,6,0,L|141:71,1,98,2|2,0:0|0:0,0:0:0:0:
375,295,53095,2,0,L|491:291,1,98,8|0,0:0|0:0,0:0:0:0:
317,223,53446,2,0,L|318:114,1,98,2|2,0:0|0:0,0:0:0:0:
156,244,53796,2,0,L|46:243,1,98,8|0,0:0|0:0,0:0:0:0:
303,129,54147,6,0,L|91:118,1,196,2|8,0:0|0:0,0:0:0:0:
211,85,54674,1,0,0:0:0:0:
378,225,54849,2,0,L|231:211,2,147,2|2|2,0:0|0:0|0:0,0:0:0:0:
220,315,55551,6,0,L|217:199,1,98,2|2,0:0|0:0,0:0:0:0:
454,152,55902,2,0,L|350:149,1,98,8|0,0:0|0:0,0:0:0:0:
195,164,56253,2,0,L|191:52,1,98,2|2,0:0|0:0,0:0:0:0:
353,223,56603,2,0,L|462:227,1,98,8|2,0:0|0:0,0:0:0:0:
392,193,56867,1,2,0:0:0:0:
222,87,56954,6,0,P|161:121|236:201,1,196,6|8,0:0|0:0,0:0:0:0:
316,195,57481,1,0,0:0:0:0:
145,257,57656,2,0,L|296:243,2,147,2|2|2,0:0|0:0|0:0,0:0:0:0:
389,212,58358,6,0,L|395:98,1,98,2|2,0:0|0:0,0:0:0:0:
295,107,58709,1,8,0:0:0:0:
395,75,58884,1,0,0:0:0:0:
228,50,59060,2,0,L|78:37,2,147,2|2|2,0:0|0:0|0:0,0:0:0:0:
464,265,59761,6,0,L|471:151,1,98,2|2,0:0|0:0,0:0:0:0:
369,155,60112,1,8,0:0:0:0:
470,122,60288,1,0,0:0:0:0:
301,212,60463,2,0,L|294:98,1,98,2|2,0:0|0:0,0:0:0:0:
396,102,60814,1,8,0:0:0:0:
295,69,60990,1,2,0:0:0:0:
62,268,61165,6,0,L|55:154,1,98,2|2,0:0|0:0,0:0:0:0:
157,158,61516,1,8,0:0:0:0:
56,125,61692,1,2,0:0:0:0:
225,215,61867,2,0,L|232:101,1,98,2|2,0:0|0:0,0:0:0:0:
130,105,62218,1,8,0:0:0:0:
231,72,62394,1,0,0:0:0:0:
281,58,62481,1,0,0:0:0:0:
106,151,62568,6,0,P|47:211|107:292,1,196,2|8,0:0|0:0,0:0:0:0:
202,290,63095,1,0,0:0:0:0:
372,260,63270,2,0,L|221:243,2,147,2|2|2,0:0|0:0|0:0,0:0:0:0:
105,123,63972,6,0,L|256:106,2,147,2|8|8,0:0|0:0|0:0,0:0:0:0:
394,145,64849,1,2,0:0:0:0:
230,213,65024,2,0,L|171:212,1,49,8|8,0:0|0:0,0:0:0:0:
354,190,65200,2,0,L|422:190,1,49,8|8,0:0|0:0,0:0:0:0:
225,248,65375,6,0,L|118:248,1,98,6|0,0:0|0:0,0:0:0:0:
294,276,65726,2,0,L|296:161,1,98,8|0,0:0|0:0,0:0:0:0:
463,178,66077,1,2,0:0:0:0:
221,73,66253,2,0,L|215:176,1,98,2|8,0:0|0:0,0:0:0:0:
451,76,66603,6,0,L|464:282,1,196,2|2,0:0|0:0,0:0:0:0:
364,256,67130,1,8,0:0:0:0:
195,202,67305,2,0,L|392:176,1,196,2|2,0:0|0:0,0:0:0:0:
222,117,67831,2,0,L|119:103,1,98,8|2,0:0|0:0,0:0:0:0:
373,299,68182,6,0,L|486:288,1,98,2|0,0:0|0:0,0:0:0:0:
302,192,68533,2,0,L|416:182,1,98,8|0,0:0|0:0,0:0:0:0:
156,117,68884,2,0,L|46:105,2,98,2|2|8,0:0|0:0|0:0,0:0:0:0:
420,75,69410,6,0,P|478:150|407:213,1,196,2|2,0:0|0:0,0:0:0:0:
320,207,69937,1,8,0:0:0:0:
76,281,70112,2,0,L|278:264,1,196,2|2,0:0|0:0,0:0:0:0:
103,203,70638,2,0,L|97:141,1,49,8|0,0:0|0:0,0:0:0:0:
162,130,70814,2,0,L|218:125,1,49,2|0,0:0|0:0,0:0:0:0:
391,240,70989,6,0,L|493:234,1,98,6|0,0:0|0:0,0:0:0:0:
317,191,71340,2,0,L|315:80,1,98,8|0,0:0|0:0,0:0:0:0:
146,93,71691,1,2,0:0:0:0:
389,320,71867,2,0,L|396:210,1,98,2|8,0:0|0:0,0:0:0:0:
150,285,72217,6,0,P|90:234|165:168,1,196,2|2,0:0|0:0,0:0:0:0:
251,171,72744,1,8,0:0:0:0:
418,147,72919,2,0,L|211:123,1,196,2|2,0:0|0:0,0:0:0:0:
390,239,73446,2,0,L|495:227,1,98,8|2,0:0|0:0,0:0:0:0:
427,195,73709,1,0,0:0:0:0:
242,178,73796,6,0,L|238:64,1,98,2|0,0:0|0:0,0:0:0:0:
408,117,74147,1,8,0:0:0:0:
169,241,74323,2,0,L|66:232,1,98,2|0,0:0|0:0,0:0:0:0:
309,318,74674,2,0,L|422:308,1,98,2|8,0:0|0:0,0:0:0:0:
128,199,75024,6,0,P|69:140|142:67,1,196,2|2,0:0|0:0,0:0:0:0:
296,62,75551,1,8,0:0:0:0:
133,126,75726,2,0,L|126:62,1,49,2|0,0:0|0:0,0:0:0:0:
323,223,75902,6,0,L|394:219,1,49,10|0,0:0|0:0,0:0:0:0:
378,293,76077,2,0,L|307:289,1,49,2|0,0:0|0:0,0:0:0:0:
123,227,76253,2,0,L|52:223,1,49,8|0,0:0|0:0,0:0:0:0:
133,275,76428,2,0,L|204:271,1,49,10|0,0:0|0:0,0:0:0:0:
387,137,76603,6,0,L|504:131,1,98,6|0,0:0|0:0,0:0:0:0:
318,215,76954,2,0,L|320:96,1,98,8|0,0:0|0:0,0:0:0:0:
153,121,77305,1,2,0:0:0:0:
393,221,77481,2,0,L|398:109,1,98,2|8,0:0|0:0,0:0:0:0:
149,269,77831,6,0,L|352:252,1,196,2|2,0:0|0:0,0:0:0:0:
241,226,78358,1,8,0:0:0:0:
409,167,78533,2,0,L|201:147,1,196,2|2,0:0|0:0,0:0:0:0:
39,240,79060,2,0,L|151:225,1,98,8|2,0:0|0:0,0:0:0:0:
378,310,79410,6,0,L|267:297,1,98,2|0,0:0|0:0,0:0:0:0:
449,235,79761,2,0,L|334:222,1,98,8|0,0:0|0:0,0:0:0:0:
101,143,80112,2,0,L|215:131,2,98,2|2|8,0:0|0:0|0:0,0:0:0:0:
372,69,80638,6,0,L|167:57,1,196,2|2,0:0|0:0,0:0:0:0:
73,52,81165,1,8,0:0:0:0:
342,222,81340,2,0,L|138:211,1,196,2|2,0:0|0:0,0:0:0:0:
312,338,81867,2,0,L|316:280,1,49,8|0,0:0|0:0,0:0:0:0:
254,271,82042,2,0,L|188:265,1,49,2|0,0:0|0:0,0:0:0:0:
398,149,82217,6,0,L|496:143,2,98,6|0|8,0:0|0:0|0:0,0:0:0:0:
228,227,82744,2,0,L|226:117,1,98,2|0,0:0|0:0,0:0:0:0:
399,313,83095,2,0,L|404:200,1,98,2|8,0:0|0:0,0:0:0:0:
163,257,83446,6,0,L|55:250,1,98,2|0,0:0|0:0,0:0:0:0:
333,181,83796,2,0,L|451:171,1,98,2|0,0:0|0:0,0:0:0:0:
135,120,84147,2,0,L|24:111,1,98,2|2,0:0|0:0,0:0:0:0:
203,58,84498,1,2,0:0:0:0:
451,296,84674,2,0,L|461:180,1,98,8|2,0:0|0:0,0:0:0:0:
401,196,84937,1,0,0:0:0:0:
201,187,85024,6,0,L|101:178,1,98,2|0,0:0|0:0,0:0:0:0:
268,127,85375,1,8,0:0:0:0:
29,286,85551,2,0,L|26:181,1,98,2|0,0:0|0:0,0:0:0:0:
274,242,85902,2,0,L|396:233,1,98,2|8,0:0|0:0,0:0:0:0:
122,295,86253,6,0,P|62:228|145:177,1,196,2|2,0:0|0:0,0:0:0:0:
423,107,86779,2,0,L|486:100,1,49,10|0,0:0|0:0,0:0:0:0:
471,158,86954,2,0,L|413:154,1,49,2|0,0:0|0:0,0:0:0:0:
229,226,87130,6,0,L|223:161,1,49,10|0,0:0|0:0,0:0:0:0:
290,164,87305,2,0,L|293:96,1,49,2|0,0:0|0:0,0:0:0:0:
121,306,87481,2,0,L|64:301,1,49,10|0,0:0|0:0,0:0:0:0:
69,262,87656,2,0,L|135:255,1,49,2|0,0:0|0:0,0:0:0:0:
317,249,87831,5,6,0:0:0:0:
