osu file format v14

[General]
AudioFilename: audio.mp3
AudioLeadIn: 0
PreviewTime: 11954
Countdown: 0
SampleSet: Soft
StackLeniency: 0.7
Mode: 2
LetterboxInBreaks: 0
WidescreenStoryboard: 0

[Editor]
Bookmarks: 23270,28884,40112,51340,65375,76603
DistanceSpacing: 1
BeatDivisor: 4
GridSize: 32
TimelineZoom: 1.7

[Metadata]
Title:dual existence (TV Size)
TitleUnicode:dual existence (TV Size)
Artist:fripSide
ArtistUnicode:fripSide
Creator:Souvenir
Version:Lightning of Railgun
Source:とある科学の超電磁砲T
Tags:scientific railgun t opening op op2 anime japanese pop jpop j-pop 南條愛乃 Nanjou Nanjo Yoshino 八木沼悟志 Yaginuma Satoshi Volta Ron Toaru Kagaku no
BeatmapID:2977459
BeatmapSetID:1447905

[Difficulty]
HPDrainRate:6
CircleSize:4.2
OverallDifficulty:9.4
ApproachRate:9.4
SliderMultiplier:2.08
SliderTickRate:2

[Events]
//Background and Video events
Video,0,"fripSide_dual existence.mp4"
0,0,"dual existence.jpg",0,0
//Break Periods
//Storyboard Layer 0 (Background)
//Storyboard Layer 1 (Fail)
//Storyboard Layer 2 (Pass)
//Storyboard Layer 3 (Foreground)
//Storyboard Layer 4 (Overlay)
//Storyboard Sound Samples

[TimingPoints]
552,631.578947368421,4,2,2,55,1,0
552,-100,4,2,2,55,0,0
10639,350.877192982456,4,2,1,60,1,0
11516,-100,4,2,1,80,0,0
12042,-100,4,2,1,80,0,1
23270,-100,4,2,1,80,0,0
28884,-100,4,2,2,65,0,0
39060,-100,4,2,1,65,0,0
40112,-100,4,2,2,70,0,0
50288,-100,4,2,1,70,0,0
50726,-100,4,2,2,70,0,0
50902,-100,4,2,1,70,0,0
50989,-100,4,2,2,70,0,0
51165,-100,4,2,1,70,0,0
51340,-100,4,2,2,70,0,0
51516,-100,4,2,1,75,0,0
56954,-100,4,2,2,75,0,0
57042,-100,4,2,1,75,0,0
63424,-100,4,2,11,75,0,0
63467,-100,4,2,1,75,0,0
63972,-66.6666666666667,4,2,1,75,0,0
64498,-100,4,2,1,75,0,0
65375,-100,4,2,1,80,0,1
76428,-100,4,2,1,80,0,0
76603,-100,4,2,1,80,0,1
87831,-100,4,2,1,40,0,0

[Colours]
Combo1 : 187,177,174
Combo2 : 241,166,120
Combo3 : 106,215,255
Combo4 : 251,108,108

[HitObjects]
69,252,552,6,0,L|63:136,1,104,2|0,0:0|0:0,0:0:0:0:
166,184,1183,2,0,L|160:63,1,104,2|0,0:0|0:0,0:0:0:0:
374,103,1815,2,0,P|445:164|373:232,1,208,10|2,0:0|0:0,0:0:0:0:
277,227,2762,1,0,0:0:0:0:
66,220,3078,6,0,L|57:106,1,104,2|0,0:0|0:0,0:0:0:0:
164,99,3709,2,0,L|290:83,1,104,2|0,0:0|0:0,0:0:0:0:
56,289,4341,2,0,P|66:191|190:175,1,208,10|2,0:0|0:0,0:0:0:0:
266,171,5288,1,0,0:0:0:0:
484,249,5604,6,0,L|488:135,1,104,2|0,0:0|0:0,0:0:0:0:
382,108,6236,2,0,L|259:98,1,104,2|0,0:0|0:0,0:0:0:0:
65,266,6867,2,0,L|59:157,1,104,10|0,0:0|0:0,0:0:0:0:
166,152,7499,2,0,L|273:140,1,104,2|0,0:0|0:0,0:0:0:0:
58,255,8130,5,2,0:0:0:0:
256,192,8446,12,0,11340,0:0:0:0:
145,176,11516,5,2,0:0:0:0:
379,155,11691,2,0,L|446:150,1,52,8|8,0:0|0:0,0:0:0:0:
427,210,11867,2,0,L|361:217,1,52,8|8,0:0|0:0,0:0:0:0:
188,222,12042,6,0,L|74:216,1,104,6|0,0:0|0:0,0:0:0:0:
320,321,12393,2,0,L|324:210,1,104,8|0,0:0|0:0,0:0:0:0:
86,145,12744,1,2,0:0:0:0:
317,142,12919,2,0,L|443:132,1,104,2|8,0:0|0:0,0:0:0:0:
181,266,13270,6,0,P|121:203|199:121,1,208,2|2,0:0|0:0,0:0:0:0:
342,114,13796,1,8,0:0:0:0:
109,301,13972,2,0,L|102:187,1,104,2|2,0:0|0:0,0:0:0:0:
337,187,14323,2,0,L|213:172,2,104,2|8|2,0:0|0:0|0:0,0:0:0:0:
58,207,14849,6,0,L|185:193,1,104,2|0,0:0|0:0,0:0:0:0:
399,274,15200,2,0,L|281:260,1,104,8|0,0:0|0:0,0:0:0:0:
59,133,15551,2,0,L|53:22,1,104,2|2,0:0|0:0,0:0:0:0:
157,35,15902,1,8,0:0:0:0:
391,88,16077,6,0,P|459:159|375:214,1,208,2|2,0:0|0:0,0:0:0:0:
286,215,16603,1,8,0:0:0:0:
51,300,16779,2,0,P|49:200|160:172,1,208,2|2,0:0|0:0,0:0:0:0:
372,298,17305,2,0,L|377:229,1,52,8|0,0:0|0:0,0:0:0:0:
305,214,17481,2,0,L|226:204,1,52,2|0,0:0|0:0,0:0:0:0:
436,166,17656,6,0,L|321:151,2,104,6|0|8,0:0|0:0|0:0,0:0:0:0:
192,286,18182,2,0,L|182:164,1,104,2|0,0:0|0:0,0:0:0:0:
430,219,18533,2,0,L|435:106,1,104,2|8,0:0|0:0,0:0:0:0:
165,159,18884,6,0,L|157:36,1,104,2|0,0:0|0:0,0:0:0:0:
430,287,19235,2,0,L|323:276,1,104,2|0,0:0|0:0,0:0:0:0:
41,232,19586,1,2,0:0:0:0:
92,226,19673,1,0,0:0:0:0:
144,220,19761,1,2,0:0:0:0:
378,200,19937,1,2,0:0:0:0:
130,124,20112,2,0,L|17:113,1,104,8|2,0:0|0:0,0:0:0:0:
97,77,20375,1,0,0:0:0:0:
307,82,20463,6,0,P|372:127|308:219,1,208,2|8,0:0|0:0,0:0:0:0:
77,295,20989,2,0,L|310:276,1,208,2|2,0:0|0:0,0:0:0:0:
121,218,21516,1,8,0:0:0:0:
361,216,21691,6,0,L|371:98,1,104,2|0,0:0|0:0,0:0:0:0:
133,93,22042,1,2,0:0:0:0:
366,144,22217,2,0,L|437:136,1,52,10|0,0:0|0:0,0:0:0:0:
246,251,22393,2,0,L|179:243,1,52,2|0,0:0|0:0,0:0:0:0:
368,291,22568,5,10,0:0:0:0:
411,279,22627,1,0,0:0:0:0:
371,256,22685,1,0,0:0:0:0:
229,206,22744,1,2,0:0:0:0:
186,194,22803,1,0,0:0:0:0:
226,171,22861,1,0,0:0:0:0:
364,153,22919,6,0,L|369:94,1,34.6666666666667,10|0,0:0|0:0,0:0:0:0:
317,104,23036,1,0,0:0:0:0:
184,103,23095,2,0,L|179:44,1,34.6666666666667,2|0,0:0|0:0,0:0:0:0:
231,53,23212,1,0,0:0:0:0:
387,222,23270,6,0,L|502:212,1,104,6|0,0:0|0:0,0:0:0:0:
250,293,23621,2,0,L|136:278,1,104,8|0,0:0|0:0,0:0:0:0:
305,222,23972,2,0,L|310:101,1,104,2|0,0:0|0:0,0:0:0:0:
68,217,24323,2,0,L|62:91,1,104,8|0,0:0|0:0,0:0:0:0:
216,105,24674,5,2,0:0:0:0:
455,174,24849,2,0,L|335:160,1,104,0|10,0:0|0:0,0:0:0:0:
246,143,25200,1,0,0:0:0:0:
485,314,25375,2,0,L|375:301,3,104,2|2|8|2,0:0|0:0|0:0|0:0,0:0:0:0:
136,242,26077,6,0,L|13:229,1,104,2|0,0:0|0:0,0:0:0:0:
277,186,26428,2,0,L|392:170,1,104,8|0,0:0|0:0,0:0:0:0:
146,112,26779,1,2,0:0:0:0:
308,103,26954,1,2,0:0:0:0:
146,112,27130,1,8,0:0:0:0:
403,96,27305,6,0,P|463:163|397:251,1,208,2|2,0:0|0:0,0:0:0:0:
106,249,28007,2,0,P|48:171|109:96,1,208,2|2,0:0|0:0,0:0:0:0:
266,88,28533,2,0,L|276:147,1,34.6666666666667,8|0,0:0|0:0,0:0:0:0:
220,124,28650,1,0,0:0:0:0:
100,123,28709,1,2,0:0:0:0:
56,133,28767,1,0,0:0:0:0:
99,153,28826,1,0,0:0:0:0:
238,282,28884,6,0,P|296:253|235:147,1,208,14|2,0:0|0:0,0:0:0:0:
144,147,29410,1,2,0:0:0:0:
338,76,29761,2,0,L|354:296,1,208,2|0,0:0|0:0,0:0:0:0:
193,278,30288,6,0,P|131:240|206:143,1,208,8|0,0:0|0:0,0:0:0:0:
284,138,30814,1,2,0:0:0:0:
446,134,30989,2,0,P|458:233|366:277,1,208,2|2,0:0|0:0,0:0:0:0:
76,261,31691,6,0,L|59:39,1,208,10|2,0:0|0:0,0:0:0:0:
163,43,32217,1,2,0:0:0:0:
359,53,32568,2,0,P|420:141|347:195,1,208,2|0,0:0|0:0,0:0:0:0:
201,242,33095,6,0,P|119:199|118:74,1,208,10|0,0:0|0:0,0:0:0:0:
263,93,33621,1,2,0:0:0:0:
418,93,33796,2,0,L|448:314,1,208,2|2,0:0|0:0,0:0:0:0:
145,257,34498,6,0,L|362:224,1,208,10|2,0:0|0:0,0:0:0:0:
247,165,35024,2,0,L|238:39,1,104,2|0,0:0|0:0,0:0:0:0:
347,47,35375,2,0,P|411:114|343:195,1,208,2|0,0:0|0:0,0:0:0:0:
192,277,35902,6,0,L|185:166,1,104,10|0,0:0|0:0,0:0:0:0:
286,167,36253,1,2,0:0:0:0:
387,159,36428,2,0,L|278:148,1,104,2|0,0:0|0:0,0:0:0:0:
440,292,36779,2,0,P|449:202|342:147,1,208,2|0,0:0|0:0,0:0:0:0:
195,90,37305,6,0,L|185:207,1,104,10|0,0:0|0:0,0:0:0:0:
287,189,37656,1,2,0:0:0:0:
131,275,37831,2,0,L|120:149,1,104,2|0,0:0|0:0,0:0:0:0:
228,162,38182,1,2,0:0:0:0:
391,165,38358,2,0,L|405:48,1,104,2|0,0:0|0:0,0:0:0:0:
161,225,38709,6,0,L|150:108,1,104,10|0,0:0|0:0,0:0:0:0:
310,110,39060,2,0,L|437:101,1,104,2|0,0:0|0:0,0:0:0:0:
349,72,39323,1,2,0:0:0:0:
195,71,39410,1,2,0:0:0:0:
71,80,39586,1,2,0:0:0:0:
59,202,39761,1,2,0:0:0:0:
185,199,39937,1,2,0:0:0:0:
426,261,40112,6,0,L|435:145,1,104,14|0,0:0|0:0,0:0:0:0:
325,152,40463,1,2,0:0:0:0:
216,142,40638,2,0,L|339:132,1,104,2|0,0:0|0:0,0:0:0:0:
157,265,40989,2,0,L|39:256,2,104,2|0|0,0:0|0:0|0:0,0:0:0:0:
397,269,41516,6,0,L|406:148,1,104,8|0,0:0|0:0,0:0:0:0:
303,152,41867,1,0,0:0:0:0:
465,123,42042,1,2,0:0:0:0:
226,215,42217,1,2,0:0:0:0:
105,195,42393,1,0,0:0:0:0:
228,135,42568,1,2,0:0:0:0:
349,114,42744,1,0,0:0:0:0:
105,316,42919,6,0,L|96:197,1,104,10|0,0:0|0:0,0:0:0:0:
204,193,43270,1,2,0:0:0:0:
307,186,43446,2,0,L|194:165,1,104,2|0,0:0|0:0,0:0:0:0:
363,282,43796,2,0,L|479:266,2,104,2|0|0,0:0|0:0|0:0,0:0:0:0:
122,245,44323,6,0,L|112:128,1,104,8|0,0:0|0:0,0:0:0:0:
213,135,44674,1,0,0:0:0:0:
48,109,44849,1,2,0:0:0:0:
284,231,45024,1,2,0:0:0:0:
390,216,45200,1,0,0:0:0:0:
496,203,45375,1,2,0:0:0:0:
387,183,45551,1,0,0:0:0:0:
148,300,45726,6,0,L|141:189,1,104,10|0,0:0|0:0,0:0:0:0:
240,191,46077,2,0,L|127:179,1,104,2|0,0:0|0:0,0:0:0:0:
295,84,46428,1,2,0:0:0:0:
403,75,46603,1,2,0:0:0:0:
286,128,46779,1,2,0:0:0:0:
179,121,46954,1,0,0:0:0:0:
415,290,47130,6,0,L|428:168,1,104,10|0,0:0|0:0,0:0:0:0:
326,179,47481,2,0,L|434:169,1,104,2|0,0:0|0:0,0:0:0:0:
269,91,47831,1,2,0:0:0:0:
162,79,48007,1,2,0:0:0:0:
45,80,48182,1,2,0:0:0:0:
156,61,48358,1,0,0:0:0:0:
391,257,48533,6,0,L|397:134,1,104,10|0,0:0|0:0,0:0:0:0:
233,137,48884,2,0,L|225:18,1,104,2|0,0:0|0:0,0:0:0:0:
465,318,49235,2,0,L|302:302,2,156,10|0|0,0:0|0:0|0:0,0:0:0:0:
229,258,49937,6,0,L|222:145,1,104,10|0,0:0|0:0,0:0:0:0:
461,154,50288,2,0,L|343:142,1,104,8|0,0:0|0:0,0:0:0:0:
120,246,50638,1,2,0:0:0:0:
53,232,50726,1,8,0:0:0:0:
106,195,50814,1,0,0:0:0:0:
159,181,50902,1,2,0:0:0:0:
324,213,50989,2,0,L|329:158,1,52,8|0,0:0|0:0,0:0:0:0:
259,131,51165,2,0,L|201:126,1,52,2|2,0:0|0:0,0:0:0:0:
416,287,51340,6,0,L|427:177,1,104,6|2,0:0|0:0,0:0:0:0:
259,176,51691,1,8,0:0:0:0:
420,142,51867,1,0,0:0:0:0:
189,70,52042,2,0,L|26:74,2,156,2|2|2,0:0|0:0|0:0,0:0:0:0:
354,228,52744,6,0,L|480:220,1,104,2|2,0:0|0:0,0:0:0:0:
220,310,53095,2,0,L|214:188,1,104,8|0,0:0|0:0,0:0:0:0:
375,133,53446,2,0,L|485:127,1,104,2|2,0:0|0:0,0:0:0:0:
243,149,53796,2,0,L|365:137,1,104,8|0,0:0|0:0,0:0:0:0:
103,297,54147,6,0,L|96:181,1,104,2|2,0:0|0:0,0:0:0:0:
256,184,54498,1,8,0:0:0:0:
93,153,54674,1,0,0:0:0:0:
326,122,54849,2,0,L|155:100,2,156,2|2|2,0:0|0:0|0:0,0:0:0:0:
161,266,55551,6,0,L|45:273,1,104,2|2,0:0|0:0,0:0:0:0:
296,234,55902,2,0,L|406:241,1,104,8|0,0:0|0:0,0:0:0:0:
232,187,56253,2,0,L|224:72,1,104,2|2,0:0|0:0,0:0:0:0:
456,85,56603,1,8,0:0:0:0:
296,127,56779,2,0,L|234:120,1,52,2|2,0:0|0:0,0:0:0:0:
430,309,56954,6,0,L|441:188,1,104,6|2,0:0|0:0,0:0:0:0:
277,180,57305,1,8,0:0:0:0:
114,164,57481,1,0,0:0:0:0:
350,251,57656,2,0,L|192:229,2,156,2|2|2,0:0|0:0|0:0,0:0:0:0:
96,303,58358,6,0,L|89:192,1,104,2|2,0:0|0:0,0:0:0:0:
252,183,58709,1,8,0:0:0:0:
412,171,58884,1,0,0:0:0:0:
176,119,59060,2,0,L|354:105,2,156,2|2|2,0:0|0:0|0:0,0:0:0:0:
411,299,59761,6,0,L|418:178,1,104,2|2,0:0|0:0,0:0:0:0:
254,197,60112,2,0,L|250:74,1,104,8|0,0:0|0:0,0:0:0:0:
413,288,60463,2,0,L|420:176,1,104,2|2,0:0|0:0,0:0:0:0:
253,180,60814,2,0,L|137:163,1,104,8|2,0:0|0:0,0:0:0:0:
214,136,61077,1,0,0:0:0:0:
387,122,61165,6,0,L|492:116,2,104,2|2|8,0:0|0:0|0:0,0:0:0:0:
228,132,61691,2,0,L|215:249,1,104,2|2,0:0|0:0,0:0:0:0:
326,232,62042,1,2,0:0:0:0:
162,311,62217,2,0,L|42:303,1,104,8|0,0:0|0:0,0:0:0:0:
122,275,62481,1,0,0:0:0:0:
305,265,62568,6,0,L|313:147,1,104,2|2,0:0|0:0,0:0:0:0:
153,152,62919,1,8,0:0:0:0:
390,108,63095,1,0,0:0:0:0:
154,87,63270,2,0,L|318:68,1,156,2|2,0:0|0:0,0:0:0:0:
143,275,63621,2,0,L|134:209,1,52,8|0,0:0|0:0,0:0:0:0:
203,205,63796,2,0,L|210:140,1,52,2|0,0:0|0:0,0:0:0:0:
22,336,63972,6,0,L|265:325,2,234.000008926392,2|8|8,0:0|0:0|0:0,0:0:0:0:
430,219,64849,1,2,0:0:0:0:
198,164,65024,2,0,L|276:153,1,52,8|8,0:0|0:0,0:0:0:0:
433,158,65200,2,0,L|355:145,1,52,8|8,0:0|0:0,0:0:0:0:
171,207,65375,6,0,L|46:196,1,104,6|0,0:0|0:0,0:0:0:0:
320,298,65726,2,0,L|436:290,1,104,8|0,0:0|0:0,0:0:0:0:
173,297,66077,1,2,0:0:0:0:
425,229,66253,2,0,L|433:115,1,104,2|8,0:0|0:0,0:0:0:0:
170,80,66603,6,0,P|101:123|179:204,1,208,2|2,0:0|0:0,0:0:0:0:
326,196,67130,1,8,0:0:0:0:
79,294,67305,2,0,L|68:169,1,104,2|2,0:0|0:0,0:0:0:0:
326,105,67656,1,2,0:0:0:0:
172,93,67831,1,8,0:0:0:0:
329,78,68007,1,2,0:0:0:0:
59,195,68182,6,0,L|185:181,1,104,2|0,0:0|0:0,0:0:0:0:
420,256,68533,2,0,L|306:241,1,104,8|0,0:0|0:0,0:0:0:0:
66,291,68884,1,2,0:0:0:0:
202,272,69060,1,2,0:0:0:0:
338,258,69235,1,8,0:0:0:0:
50,211,69410,6,0,P|57:115|173:90,1,208,2|2,0:0|0:0,0:0:0:0:
313,125,69937,1,8,0:0:0:0:
53,243,70112,2,0,L|276:227,1,208,2|2,0:0|0:0,0:0:0:0:
23,333,70638,2,0,L|97:323,1,52,8|0,0:0|0:0,0:0:0:0:
259,317,70814,2,0,L|333:307,1,52,2|0,0:0|0:0,0:0:0:0:
76,271,70989,6,0,L|67:152,1,104,6|0,0:0|0:0,0:0:0:0:
327,119,71340,2,0,L|451:107,1,104,8|0,0:0|0:0,0:0:0:0:
182,175,71691,1,2,0:0:0:0:
436,283,71867,2,0,L|446:164,1,104,2|8,0:0|0:0,0:0:0:0:
193,169,72217,6,0,L|413:148,1,208,2|2,0:0|0:0,0:0:0:0:
241,89,72744,1,8,0:0:0:0:
481,278,72919,2,0,L|267:248,1,208,2|2,0:0|0:0,0:0:0:0:
29,207,73446,2,0,L|26:97,1,104,8|2,0:0|0:0,0:0:0:0:
93,100,73709,1,0,0:0:0:0:
329,96,73796,6,0,L|459:88,1,104,2|0,0:0|0:0,0:0:0:0:
169,272,74147,2,0,L|57:263,1,104,8|2,0:0|0:0,0:0:0:0:
223,205,74498,1,0,0:0:0:0:
492,199,74674,2,0,L|381:184,1,104,2|8,0:0|0:0,0:0:0:0:
93,173,75024,6,0,L|310:137,1,208,2|2,0:0|0:0,0:0:0:0:
461,113,75551,1,8,0:0:0:0:
114,303,75726,2,0,L|108:233,1,52,2|0,0:0|0:0,0:0:0:0:
285,212,75902,5,10,0:0:0:0:
326,207,75960,1,0,0:0:0:0:
335,180,76018,1,0,0:0:0:0:
186,132,76077,1,2,0:0:0:0:
144,126,76135,1,0,0:0:0:0:
137,86,76193,1,0,0:0:0:0:
316,88,76253,5,8,0:0:0:0:
350,83,76311,1,0,0:0:0:0:
384,79,76369,1,0,0:0:0:0:
178,256,76428,1,10,0:0:0:0:
143,250,76486,1,0,0:0:0:0:
109,245,76544,1,0,0:0:0:0:
337,319,76603,6,0,L|226:301,1,104,6|0,0:0|0:0,0:0:0:0:
488,229,76954,2,0,L|491:116,1,104,8|0,0:0|0:0,0:0:0:0:
257,111,77305,1,2,0:0:0:0:
16,105,77481,2,0,L|130:98,1,104,2|8,0:0|0:0,0:0:0:0:
382,268,77831,6,0,P|445:202|375:119,1,208,2|2,0:0|0:0,0:0:0:0:
224,107,78358,1,8,0:0:0:0:
481,319,78533,2,0,L|376:306,1,104,2|2,0:0|0:0,0:0:0:0:
119,199,78884,1,2,0:0:0:0:
273,183,79060,1,8,0:0:0:0:
116,164,79235,1,2,0:0:0:0:
387,258,79410,6,0,L|272:246,1,104,2|0,0:0|0:0,0:0:0:0:
29,250,79761,2,0,L|137:236,1,104,8|0,0:0|0:0,0:0:0:0:
386,325,80112,1,2,0:0:0:0:
249,304,80288,1,2,0:0:0:0:
113,286,80463,1,8,0:0:0:0:
427,240,80638,6,0,L|441:27,1,208,2|2,0:0|0:0,0:0:0:0:
285,38,81165,1,8,0:0:0:0:
31,172,81340,2,0,L|249:157,1,208,2|2,0:0|0:0,0:0:0:0:
495,282,81867,2,0,L|436:275,1,52,8|0,0:0|0:0,0:0:0:0:
261,243,82042,2,0,L|194:231,1,52,2|0,0:0|0:0,0:0:0:0:
473,196,82217,6,0,L|361:181,1,104,6|0,0:0|0:0,0:0:0:0:
120,158,82568,1,8,0:0:0:0:
377,321,82744,2,0,L|382:213,1,104,2|0,0:0|0:0,0:0:0:0:
120,227,83095,2,0,L|112:105,1,104,2|8,0:0|0:0,0:0:0:0:
397,192,83446,6,0,L|408:63,1,104,2|0,0:0|0:0,0:0:0:0:
66,192,83796,2,0,L|175:177,1,104,2|0,0:0|0:0,0:0:0:0:
485,244,84147,1,2,0:0:0:0:
422,237,84235,1,0,0:0:0:0:
359,227,84323,1,2,0:0:0:0:
101,189,84498,1,2,0:0:0:0:
366,157,84674,1,8,0:0:0:0:
209,132,84849,1,2,0:0:0:0:
147,128,84937,1,0,0:0:0:0:
405,82,85024,6,0,P|463:168|396:238,1,208,2|8,0:0|0:0,0:0:0:0:
88,296,85551,2,0,L|301:278,1,208,2|2,0:0|0:0,0:0:0:0:
139,237,86077,1,8,0:0:0:0:
450,220,86253,6,0,L|235:198,1,208,2|2,0:0|0:0,0:0:0:0:
491,156,86779,2,0,L|423:142,1,52,10|0,0:0|0:0,0:0:0:0:
287,120,86954,1,2,0:0:0:0:
216,113,87042,1,0,0:0:0:0:
41,259,87130,5,10,0:0:0:0:
84,253,87188,1,0,0:0:0:0:
127,247,87246,1,0,0:0:0:0:
313,245,87305,1,2,0:0:0:0:
356,237,87364,1,0,0:0:0:0:
314,218,87422,1,0,0:0:0:0:
148,117,87481,5,10,0:0:0:0:
106,136,87539,1,0,0:0:0:0:
149,144,87598,1,0,0:0:0:0:
299,136,87657,1,2,0:0:0:0:
342,142,87715,1,0,0:0:0:0:
385,148,87773,1,0,0:0:0:0:
144,314,87831,5,6,0:0:0:0:
