osu file format v14

[General]
AudioFilename: audio.mp3
AudioLeadIn: 0
PreviewTime: 11954
Countdown: 0
SampleSet: Soft
StackLeniency: 0.7
Mode: 2
LetterboxInBreaks: 0
WidescreenStoryboard: 1

[Editor]
Bookmarks: 23270,28884,40112,51340,65375,76603
DistanceSpacing: 1
BeatDivisor: 4
GridSize: 32
TimelineZoom: 1.7

[Metadata]
Title:dual existence (TV Size)
TitleUnicode:dual existence (TV Size)
Artist:fripSide
ArtistUnicode:fripSide
Creator:Souvenir
Version:Cup
Source:とある科学の超電磁砲T
Tags:scientific railgun t opening op op2 anime japanese pop jpop j-pop 南條愛乃 Nanjou Nanjo Yoshino 八木沼悟志 Yaginuma Satoshi Volta Ron Toaru Kagaku no
BeatmapID:2977456
BeatmapSetID:1447905

[Difficulty]
HPDrainRate:2
CircleSize:2.8
OverallDifficulty:6
ApproachRate:6
SliderMultiplier:1.32
SliderTickRate:1

[Events]
//Background and Video events
Video,0,"fripSide_dual existence.mp4"
0,0,"dual existence.jpg",0,0
//Break Periods
//Storyboard Layer 0 (Background)
//Storyboard Layer 1 (Fail)
//Storyboard Layer 2 (Pass)
//Storyboard Layer 3 (Foreground)
//Storyboard Layer 4 (Overlay)
//Storyboard Sound Samples

[TimingPoints]
552,631.578947368421,4,2,2,55,1,0
552,-100,4,2,2,55,0,0
10639,350.877192982456,4,2,1,60,1,0
11516,-100,4,2,1,80,0,0
12042,-100,4,2,1,80,0,1
23270,-100,4,2,1,80,0,0
28884,-100,4,2,2,65,0,0
39060,-100,4,2,1,65,0,0
40112,-100,4,2,2,70,0,0
50288,-100,4,2,1,70,0,0
50726,-100,4,2,2,70,0,0
50902,-100,4,2,1,70,0,0
50989,-100,4,2,2,70,0,0
51165,-100,4,2,1,70,0,0
51340,-100,4,2,2,70,0,0
51516,-100,4,2,1,75,0,0
52371,-100,4,2,10,75,0,0
52415,-100,4,2,1,75,0,0
55178,-100,4,2,10,75,0,0
55222,-100,4,2,1,75,0,0
56954,-100,4,2,2,75,0,0
57042,-100,4,2,1,75,0,0
60090,-100,4,2,10,75,0,0
60134,-100,4,2,1,75,0,0
61494,-100,4,2,10,75,0,0
61538,-100,4,2,1,75,0,0
65375,-100,4,2,1,80,0,1
76428,-100,4,2,1,80,0,0
76603,-100,4,2,1,80,0,1
87831,-100,4,2,1,40,0,0

[Colours]
Combo1 : 187,177,174
Combo2 : 241,166,120
Combo3 : 106,215,255
Combo4 : 251,108,108

[HitObjects]
150,271,552,6,0,L|145:126,1,132,2|2,0:0|0:0,0:0:0:0:
343,126,1815,1,10,0:0:0:0:
208,118,2446,6,0,L|204:185,1,66,2|0,0:0|0:0,0:0:0:0:
287,187,3078,2,0,L|430:179,1,132,2|2,0:0|0:0,0:0:0:0:
219,105,4341,1,10,0:0:0:0:
82,107,4973,6,0,L|77:181,1,66,2|0,0:0|0:0,0:0:0:0:
163,208,5604,2,0,L|327:201,1,132,2|2,0:0|0:0,0:0:0:0:
441,306,6867,2,0,L|306:296,1,132,10|2,0:0|0:0,0:0:0:0:
111,288,8130,5,2,0:0:0:0:
256,192,8446,12,0,11165,0:0:0:0:
250,114,11516,5,2,0:0:0:0:
171,112,11691,1,8,0:0:0:0:
343,272,12042,6,0,L|352:138,1,132,6|8,0:0|0:0,0:0:0:0:
221,132,12744,1,2,0:0:0:0:
142,127,12919,1,2,0:0:0:0:
302,205,13270,6,0,L|446:196,1,132,2|2,0:0|0:0,0:0:0:0:
301,118,13972,1,2,0:0:0:0:
435,140,14323,2,0,L|438:66,1,66,2|8,0:0|0:0,0:0:0:0:
280,60,14849,6,0,L|270:212,1,132,2|8,0:0|0:0,0:0:0:0:
402,248,15551,1,2,0:0:0:0:
481,243,15726,1,2,0:0:0:0:
323,197,16077,6,0,L|182:187,1,132,2|2,0:0|0:0,0:0:0:0:
60,171,16779,1,2,0:0:0:0:
191,108,17130,1,2,0:0:0:0:
270,96,17305,1,8,0:0:0:0:
98,288,17656,6,0,P|75:224|119:177,1,132,6|8,0:0|0:0,0:0:0:0:
311,181,18533,1,2,0:0:0:0:
152,134,18884,6,0,L|308:123,2,132,2|2|2,0:0|0:0|0:0,0:0:0:0:
146,182,20112,1,8,0:0:0:0:
304,258,20463,6,0,L|449:246,1,132,2|8,0:0|0:0,0:0:0:0:
356,197,20989,2,0,P|320:143|355:71,1,132,2|2,0:0|0:0,0:0:0:0:
496,79,21691,5,2,0:0:0:0:
363,71,22042,1,2,0:0:0:0:
284,58,22217,2,0,P|192:113|287:207,1,264,10|10,0:0|0:0,0:0:0:0:
112,279,23270,6,0,L|104:137,1,132,6|8,0:0|0:0,0:0:0:0:
238,131,23972,1,2,0:0:0:0:
371,130,24323,6,0,L|228:125,1,132,8|2,0:0|0:0,0:0:0:0:
106,111,25024,1,10,0:0:0:0:
238,227,25375,2,0,L|307:221,2,66,2|2|8,0:0|0:0|0:0,0:0:0:0:
79,314,26077,6,0,L|72:169,1,132,2|8,0:0|0:0,0:0:0:0:
205,170,26779,1,2,0:0:0:0:
337,161,27130,5,8,0:0:0:0:
416,153,27305,2,0,L|425:293,1,132,2|2,0:0|0:0,0:0:0:0:
291,266,28007,2,0,L|155:256,1,132,2|2,0:0|0:0,0:0:0:0:
80,247,28533,2,0,L|220:235,1,132,8|14,0:0|0:0,0:0:0:0:
332,176,29235,6,0,L|338:107,1,66,2|2,0:0|0:0,0:0:0:0:
219,76,29761,2,0,B|158:100|158:100|228:147,1,132,2|0,0:0|0:0,0:0:0:0:
274,177,30288,6,0,P|358:263|267:333,1,264,8|2,0:0|0:0,0:0:0:0:
76,293,31691,5,10,0:0:0:0:
198,251,32042,2,0,L|204:185,1,66,2|2,0:0|0:0,0:0:0:0:
87,174,32568,2,0,L|222:158,1,132,2|0,0:0|0:0,0:0:0:0:
157,93,33095,6,0,P|66:147|170:227,1,264,10|2,0:0|0:0,0:0:0:0:
346,221,34498,5,10,0:0:0:0:
229,200,34849,2,0,L|225:127,1,66,2|2,0:0|0:0,0:0:0:0:
342,80,35375,2,0,B|404:93|404:93|330:122,1,132,2|0,0:0|0:0,0:0:0:0:
280,119,35902,5,10,0:0:0:0:
165,123,36253,1,2,0:0:0:0:
107,134,36428,2,0,B|39:146|39:146|111:171,1,132,2|2,0:0|0:0,0:0:0:0:
277,275,37305,5,10,0:0:0:0:
393,264,37656,1,2,0:0:0:0:
451,249,37831,2,0,P|451:159|356:111,1,198,2|2,0:0|0:0,0:0:0:0:
231,110,38709,6,0,L|223:255,1,132,10|2,0:0|0:0,0:0:0:0:
355,229,39410,2,0,L|369:364,1,132,2|2,0:0|0:0,0:0:0:0:
196,307,40112,6,0,L|59:289,1,132,14|2,0:0|0:0,0:0:0:0:
133,248,40638,1,2,0:0:0:0:
269,214,40989,2,0,L|281:79,1,132,2|0,0:0|0:0,0:0:0:0:
212,50,41516,6,0,P|134:88|216:215,1,264,8|2,0:0|0:0,0:0:0:0:
329,213,42568,1,2,0:0:0:0:
170,292,42919,6,0,L|315:273,1,132,10|2,0:0|0:0,0:0:0:0:
233,244,43446,1,2,0:0:0:0:
102,198,43796,2,0,L|93:49,1,132,2|0,0:0|0:0,0:0:0:0:
161,57,44323,6,0,P|250:125|161:215,1,264,8|2,0:0|0:0,0:0:0:0:
296,239,45375,1,2,0:0:0:0:
456,320,45726,6,0,L|462:179,1,132,10|2,0:0|0:0,0:0:0:0:
327,108,46428,2,0,L|180:99,1,132,2|2,0:0|0:0,0:0:0:0:
352,297,47130,6,0,L|366:157,1,132,10|2,0:0|0:0,0:0:0:0:
231,170,47831,2,0,L|97:161,1,132,2|2,0:0|0:0,0:0:0:0:
255,285,48533,6,0,L|399:271,1,132,10|2,0:0|0:0,0:0:0:0:
249,198,49235,2,0,L|242:48,1,132,10|2,0:0|0:0,0:0:0:0:
378,67,49937,2,0,P|481:118|484:213,1,198,10|0,0:0|0:0,0:0:0:0:
426,228,50638,2,0,P|386:176|384:93,1,132,2|8,0:0|0:0,0:0:0:0:
207,314,51340,6,0,L|206:177,1,132,6|8,0:0|0:0,0:0:0:0:
340,189,52042,2,0,P|410:138|351:56,1,198,2|2,0:0|0:0,0:0:0:0:
295,65,52744,6,0,L|160:97,2,132,2|8|2,0:0|0:0|0:0,0:0:0:0:
426,101,53796,1,8,0:0:0:0:
266,136,54147,6,0,L|259:280,1,132,2|8,0:0|0:0,0:0:0:0:
131,293,54849,2,0,P|72:221|159:152,1,198,2|2,0:0|0:0,0:0:0:0:
196,139,55551,6,0,L|330:96,2,132,2|8|2,0:0|0:0|0:0,0:0:0:0:
67,147,56603,1,8,0:0:0:0:
226,221,56954,6,0,L|233:366,1,132,6|8,0:0|0:0,0:0:0:0:
365,281,57656,2,0,L|220:268,1,132,2|8,0:0|0:0,0:0:0:0:
76,223,58358,6,0,L|65:75,1,132,2|8,0:0|0:0,0:0:0:0:
199,92,59060,2,0,L|350:80,1,132,2|8,0:0|0:0,0:0:0:0:
491,131,59761,6,0,P|465:237|325:303,1,264,2|2,0:0|0:0,0:0:0:0:
66,130,61165,6,0,P|92:236|232:302,1,264,2|2,0:0|0:0,0:0:0:0:
356,271,62217,1,8,0:0:0:0:
196,232,62568,6,0,L|188:88,1,132,2|8,0:0|0:0,0:0:0:0:
321,217,63270,2,0,L|326:70,1,132,2|8,0:0|0:0,0:0:0:0:
167,81,63972,6,0,L|65:74,2,99,2|8|8,0:0|0:0|0:0,0:0:0:0:
416,279,65375,6,0,L|427:133,1,132,6|8,0:0|0:0,0:0:0:0:
281,121,66077,1,2,0:0:0:0:
200,118,66253,1,2,0:0:0:0:
364,242,66603,6,0,L|498:242,1,132,2|2,0:0|0:0,0:0:0:0:
350,139,67305,2,0,P|314:188|356:262,1,132,2|2,0:0|0:0,0:0:0:0:
419,251,67831,1,8,0:0:0:0:
253,315,68182,6,0,L|248:181,1,132,2|8,0:0|0:0,0:0:0:0:
103,93,68884,1,2,0:0:0:0:
187,91,69060,1,2,0:0:0:0:
332,133,69410,6,0,L|491:133,1,132,2|2,0:0|0:0,0:0:0:0:
318,237,70112,1,2,0:0:0:0:
171,225,70463,1,2,0:0:0:0:
87,220,70638,1,8,0:0:0:0:
258,124,70989,6,0,L|264:279,1,132,6|8,0:0|0:0,0:0:0:0:
403,236,71691,1,2,0:0:0:0:
486,230,71867,1,2,0:0:0:0:
340,122,72217,6,0,L|201:121,1,132,2|2,0:0|0:0,0:0:0:0:
62,310,72919,2,0,L|52:171,1,132,2|2,0:0|0:0,0:0:0:0:
136,172,73446,1,8,0:0:0:0:
308,271,73796,6,0,P|371:207|301:161,1,198,2|2,0:0|0:0,0:0:0:0:
154,160,74674,1,2,0:0:0:0:
146,116,75024,6,0,L|368:102,1,198,2|8,0:0|0:0,0:0:0:0:
196,313,75902,2,0,L|196:162,1,132,10|8,0:0|0:0,0:0:0:0:
25,173,76603,6,0,L|39:25,1,132,6|8,0:0|0:0,0:0:0:0:
186,56,77305,1,2,0:0:0:0:
270,53,77481,1,2,0:0:0:0:
415,58,77831,6,0,L|271:59,1,132,2|2,0:0|0:0,0:0:0:0:
135,271,78533,2,0,P|102:210|158:164,1,132,2|2,0:0|0:0,0:0:0:0:
221,165,79060,1,8,0:0:0:0:
385,251,79410,6,0,L|391:107,1,132,2|8,0:0|0:0,0:0:0:0:
244,116,80112,1,2,0:0:0:0:
162,111,80288,1,2,0:0:0:0:
305,309,80638,6,0,P|341:256|291:204,1,132,2|2,0:0|0:0,0:0:0:0:
224,207,81165,1,8,0:0:0:0:
142,211,81340,2,0,P|83:139|156:67,1,198,2|8,0:0|0:0,0:0:0:0:
311,67,82217,6,0,L|315:216,1,132,6|8,0:0|0:0,0:0:0:0:
98,182,83095,1,2,0:0:0:0:
245,259,83446,6,0,L|101:251,2,132,2|2|2,0:0|0:0|0:0,0:0:0:0:
256,215,84674,1,8,0:0:0:0:
428,202,85024,6,0,L|435:56,1,132,2|8,0:0|0:0,0:0:0:0:
348,47,85551,2,0,L|194:47,1,132,2|2,0:0|0:0,0:0:0:0:
55,52,86253,1,2,0:0:0:0:
205,138,86603,5,2,0:0:0:0:
288,134,86779,2,0,P|363:173|287:293,1,264,10|10,0:0|0:0,0:0:0:0:
109,272,87831,5,6,0:0:0:0:
