osu file format v14

[General]
AudioFilename: audio.mp3
AudioLeadIn: 0
PreviewTime: 12050
Countdown: 0
SampleSet: Soft
StackLeniency: 0.7
Mode: 3
LetterboxInBreaks: 0
SpecialStyle: 0
WidescreenStoryboard: 1

[Editor]
DistanceSpacing: 1.4
BeatDivisor: 4
GridSize: 32
TimelineZoom: 1.5

[Metadata]
Title:dual existence (TV Size)
TitleUnicode:dual existence (TV Size)
Artist:fripSide
ArtistUnicode:fripSide
Creator:Nabi-
Version:Sya 0001 [EZ]
Source:とある科学の超電磁砲T
Tags:FAMoss Paran Syadow- Fresh Chicken Aruel to aru kagaku no railgun t A Certain Scientific Anime OP op2 Opening japanese j-pop jpop 八木沼悟志 Yaginuma Satoshi 南條愛乃 nanjo yoshino
BeatmapID:2828937
BeatmapSetID:1225280

[Difficulty]
HPDrainRate:7
CircleSize:4
OverallDifficulty:7
ApproachRate:5
SliderMultiplier:1.4
SliderTickRate:1

[Events]
//Background and Video events
Video,90,"dual existence.mp4"
0,0,"ayaya.jpg",0,0
//Break Periods
//Storyboard Layer 0 (Background)
//Storyboard Layer 1 (Fail)
//Storyboard Layer 2 (Pass)
//Storyboard Layer 3 (Foreground)
//Storyboard Layer 4 (Overlay)
//Storyboard Sound Samples

[TimingPoints]
526,631.578947368421,4,2,1,70,1,0
526,-55.5555555555556,4,2,1,70,0,0
10647,350.877192982456,4,2,1,70,1,0
12050,-100,4,2,1,70,0,1
17664,-100,4,2,1,70,0,0
23278,-100,4,2,1,70,0,1
28892,-100,4,2,1,70,0,0
65383,-100,4,2,1,70,0,1
73804,-100,4,2,1,70,0,0
76611,-100,4,2,1,70,0,1
82225,-100,4,2,1,70,0,0

[HitObjects]
448,192,526,128,0,1157:0:0:0:0:
64,192,1157,128,0,1789:0:0:0:0:
320,192,1789,1,0,0:0:0:0:
192,192,3052,128,0,3683:0:0:0:0:
320,192,3683,128,0,4315:0:0:0:0:
64,192,4315,1,0,0:0:0:0:
448,192,5578,128,0,6841:0:0:0:0:
192,192,6841,128,0,7473:0:0:0:0:
320,192,7473,128,0,8104:0:0:0:0:
64,192,8104,1,0,0:0:0:0:
64,192,11348,1,0,0:0:0:0:
192,192,11524,1,2,0:0:0:0:
320,192,11699,1,8,0:0:0:0:
448,192,11699,1,0,0:0:0:0:
64,192,12050,1,6,0:0:0:0:
448,192,12050,1,0,0:0:0:70:LR_Long Bass.wav
192,192,12401,1,8,0:0:0:0:
320,192,12752,1,2,0:0:0:0:
64,192,13103,1,8,0:0:0:0:
448,192,13278,1,2,0:0:0:0:
320,192,13629,1,2,0:0:0:0:
192,192,13804,1,8,0:0:0:0:
448,192,14155,1,2,0:0:0:0:
320,192,14506,1,8,0:0:0:0:
64,192,14857,1,2,0:0:0:0:
192,192,14857,1,4,0:0:0:0:
448,192,15208,1,8,0:0:0:0:
192,192,15559,1,2,0:0:0:0:
320,192,15910,1,8,0:0:0:0:
64,192,16085,1,2,0:0:0:0:
448,192,16436,1,2,0:0:0:0:
192,192,16611,1,8,0:0:0:0:
64,192,16962,1,2,0:0:0:0:
320,192,17138,1,2,0:0:0:0:
192,192,17313,1,8,0:0:0:0:
448,192,17489,1,0,0:0:0:0:
64,192,17664,1,6,0:0:0:0:
320,192,17664,1,0,0:0:0:70:LR_Long Bass.wav
192,192,18015,1,8,0:0:0:0:
448,192,18190,1,6,0:0:0:0:
64,192,18541,1,6,0:0:0:0:
320,192,18717,1,8,0:0:0:0:
192,192,18892,1,6,0:0:0:0:
448,192,19243,1,6,0:0:0:0:
320,192,19418,1,8,0:0:0:0:
64,192,19594,1,6,0:0:0:0:
320,192,19945,1,2,0:0:0:0:
64,192,20120,1,10,0:0:0:0:
192,192,20296,1,2,0:0:0:0:
320,192,20471,1,2,0:0:0:0:
448,192,20471,1,4,0:0:0:0:
64,192,20822,1,8,0:0:0:0:
448,192,20997,1,6,0:0:0:0:
192,192,21348,1,2,0:0:0:0:
320,192,21524,1,8,0:0:0:0:
64,192,21699,1,6,0:0:0:0:
192,192,22050,1,2,0:0:0:0:
320,192,22225,1,10,0:0:0:0:
448,192,22225,128,4,22576:0:0:0:0:
192,192,22576,128,6,22927:0:0:0:0:
320,192,22927,128,14,23278:0:0:0:0:
64,192,23278,1,6,0:0:0:0:
448,192,23278,1,0,0:0:0:70:LR_Long Bass.wav
192,192,23629,1,8,0:0:0:0:
320,192,23804,1,0,0:0:0:0:
192,192,23980,1,2,0:0:0:0:
64,192,24331,1,8,0:0:0:0:
448,192,24682,1,0,0:0:0:0:
192,192,24857,1,2,0:0:0:0:
448,192,25032,1,8,0:0:0:0:
320,192,25383,1,2,0:0:0:0:
192,192,25559,1,2,0:0:0:0:
64,192,25734,1,8,0:0:0:0:
320,192,25910,1,2,0:0:0:0:
448,192,26085,1,6,0:0:0:0:
64,192,26436,1,8,0:0:0:0:
448,192,26787,1,8,0:0:0:0:
64,192,26962,1,2,0:0:0:0:
192,192,27138,1,8,0:0:0:0:
320,192,27313,1,6,0:0:0:0:
320,192,27664,1,6,0:0:0:0:
192,192,28015,1,6,0:0:0:0:
192,192,28366,1,6,0:0:0:0:
448,192,28541,1,8,0:0:0:0:
320,192,28717,1,2,0:0:0:0:
64,192,28892,1,6,0:0:0:0:
192,192,28892,1,0,0:0:0:70:LR_Long Bass.wav
448,192,29243,1,0,0:0:0:0:
64,192,29418,1,0,0:0:0:0:
320,192,29769,1,0,0:0:0:0:
192,192,30296,1,0,0:0:0:0:
448,192,30822,1,0,0:0:0:0:
64,192,30997,1,0,0:0:0:0:
192,192,31699,1,0,0:0:0:0:
320,192,32050,1,0,0:0:0:0:
64,192,32225,1,0,0:0:0:0:
448,192,32576,1,0,0:0:0:0:
320,192,33103,1,0,0:0:0:0:
64,192,33629,1,0,0:0:0:0:
448,192,33804,1,0,0:0:0:0:
192,192,34506,1,0,0:0:0:0:
320,192,34857,1,0,0:0:0:0:
64,192,35032,1,0,0:0:0:0:
448,192,35383,1,0,0:0:0:0:
320,192,35910,1,0,0:0:0:0:
192,192,36261,1,0,0:0:0:0:
448,192,36436,1,0,0:0:0:0:
64,192,36787,1,0,0:0:0:0:
448,192,37313,1,0,0:0:0:0:
64,192,37664,1,0,0:0:0:0:
320,192,37839,1,0,0:0:0:0:
448,192,38190,1,0,0:0:0:0:
192,192,38366,1,0,0:0:0:0:
320,192,38717,1,2,0:0:0:0:
64,192,39068,1,2,0:0:0:0:
448,192,39418,1,2,0:0:0:0:
320,192,39594,1,2,0:0:0:0:
64,192,39769,1,2,0:0:0:0:
192,192,39945,1,2,0:0:0:0:
320,192,40120,1,6,0:0:0:0:
448,192,40120,1,0,0:0:0:70:LR_Long Bass.wav
64,192,40471,1,2,0:0:0:0:
448,192,40822,1,2,0:0:0:0:
192,192,41173,1,2,0:0:0:0:
320,192,41524,1,2,0:0:0:0:
64,192,41875,1,2,0:0:0:0:
192,192,42225,1,2,0:0:0:0:
448,192,42576,1,2,0:0:0:0:
64,192,42927,1,2,0:0:0:0:
192,192,43278,1,2,0:0:0:0:
320,192,43629,1,2,0:0:0:0:
448,192,43980,1,2,0:0:0:0:
64,192,44331,1,2,0:0:0:0:
320,192,44682,1,2,0:0:0:0:
192,192,45032,1,2,0:0:0:0:
448,192,45383,1,2,0:0:0:0:
320,192,45559,1,2,0:0:0:0:
64,192,45734,1,4,0:0:0:0:
192,192,45734,1,2,0:0:0:0:
448,192,46085,1,2,0:0:0:0:
192,192,46436,1,2,0:0:0:0:
320,192,46787,1,2,0:0:0:0:
64,192,47138,1,2,0:0:0:0:
448,192,47138,1,4,0:0:0:0:
192,192,47489,1,2,0:0:0:0:
320,192,47839,1,2,0:0:0:0:
64,192,48190,1,2,0:0:0:0:
320,192,48366,1,2,0:0:0:0:
64,192,48541,1,4,0:0:0:0:
192,192,48541,1,2,0:0:0:0:
448,192,48892,1,2,0:0:0:0:
64,192,49243,1,4,0:0:0:0:
320,192,49243,1,2,0:0:0:0:
192,192,49594,1,2,0:0:0:0:
320,192,49945,128,2,50296:0:0:0:0:
64,192,50296,1,8,0:0:0:0:
448,192,50646,1,8,0:0:0:0:
192,192,50822,1,2,0:0:0:0:
448,192,50997,1,8,0:0:0:0:
320,192,51173,1,8,0:0:0:0:
64,192,51348,1,4,0:0:0:0:
192,192,51348,1,2,0:0:0:0:
320,192,51699,1,8,0:0:0:0:
64,192,52050,1,2,0:0:0:0:
448,192,52401,1,8,0:0:0:0:
64,192,52576,1,2,0:0:0:0:
320,192,52927,1,2,0:0:0:0:
192,192,53103,1,8,0:0:0:0:
64,192,53454,1,2,0:0:0:0:
448,192,53629,1,2,0:0:0:0:
192,192,53804,1,8,0:0:0:0:
320,192,53980,1,2,0:0:0:0:
64,192,54155,1,4,0:0:0:0:
448,192,54155,1,2,0:0:0:0:
192,192,54506,1,8,0:0:0:0:
320,192,54857,1,2,0:0:0:0:
448,192,55208,1,8,0:0:0:0:
192,192,55383,1,2,0:0:0:0:
64,192,55734,1,2,0:0:0:0:
320,192,55910,1,8,0:0:0:0:
192,192,56085,1,2,0:0:0:0:
448,192,56436,1,2,0:0:0:0:
64,192,56611,1,8,0:0:0:0:
192,192,56787,1,2,0:0:0:0:
320,192,56962,1,6,0:0:0:0:
448,192,56962,1,0,0:0:0:70:LR_Long Bass.wav
192,192,57313,1,8,0:0:0:0:
320,192,57664,1,2,0:0:0:0:
64,192,58015,1,8,0:0:0:0:
448,192,58190,1,2,0:0:0:0:
192,192,58366,1,4,0:0:0:0:
320,192,58541,1,2,0:0:0:0:
64,192,58717,1,8,0:0:0:0:
448,192,59068,1,2,0:0:0:0:
320,192,59243,1,2,0:0:0:0:
64,192,59418,1,8,0:0:0:0:
192,192,59594,1,2,0:0:0:0:
320,192,59769,1,2,0:0:0:0:
448,192,59769,1,4,0:0:0:0:
64,192,60120,1,8,0:0:0:0:
448,192,60471,1,2,0:0:0:0:
320,192,60646,1,2,0:0:0:0:
192,192,60822,1,8,0:0:0:0:
448,192,60997,1,2,0:0:0:0:
192,192,61348,1,2,0:0:0:0:
320,192,61524,1,8,0:0:0:0:
64,192,61699,1,2,0:0:0:0:
448,192,62050,1,2,0:0:0:0:
320,192,62225,1,8,0:0:0:0:
64,192,62401,1,2,0:0:0:0:
192,192,62576,1,2,0:0:0:0:
448,192,62576,128,4,62927:0:0:0:0:
64,192,62927,1,8,0:0:0:0:
320,192,63103,1,2,0:0:0:0:
192,192,63278,128,8,63629:0:0:0:0:
448,192,63629,1,8,0:0:0:0:
320,192,63804,1,2,0:0:0:0:
192,192,63980,1,6,0:0:0:0:
448,192,64243,1,12,0:0:0:0:
192,192,64506,1,6,0:0:0:0:
320,192,64857,1,8,0:0:0:0:
192,192,65032,1,8,0:0:0:0:
64,192,65208,1,8,0:0:0:0:
320,192,65383,1,6,0:0:0:0:
448,192,65383,1,0,0:0:0:70:LR_Long Bass.wav
64,192,65734,1,8,0:0:0:0:
192,192,66085,1,2,0:0:0:0:
320,192,66436,1,8,0:0:0:0:
64,192,66611,128,2,66962:0:0:0:0:
448,192,66962,1,2,0:0:0:0:
192,192,67138,1,8,0:0:0:0:
320,192,67489,1,2,0:0:0:0:
64,192,67839,1,8,0:0:0:0:
320,192,68190,1,2,0:0:0:0:
448,192,68190,1,4,0:0:0:0:
192,192,68541,1,8,0:0:0:0:
320,192,68892,1,2,0:0:0:0:
64,192,69243,1,8,0:0:0:0:
448,192,69418,128,2,69769:0:0:0:0:
192,192,69769,1,2,0:0:0:0:
320,192,69945,1,8,0:0:0:0:
64,192,70296,1,2,0:0:0:0:
192,192,70471,1,2,0:0:0:0:
448,192,70646,1,8,0:0:0:0:
320,192,70822,1,0,0:0:0:0:
64,192,70997,1,4,0:0:0:0:
192,192,70997,1,2,0:0:0:0:
448,192,71348,1,8,0:0:0:0:
320,192,71699,1,2,0:0:0:0:
192,192,72050,1,8,0:0:0:0:
448,192,72225,128,2,72576:0:0:0:0:
64,192,72576,1,2,0:0:0:0:
320,192,72752,1,8,0:0:0:0:
192,192,73103,1,2,0:0:0:0:
448,192,73454,1,8,0:0:0:0:
64,192,73804,128,2,74155:0:0:0:0:
192,192,73804,1,4,0:0:0:0:
448,192,74155,1,8,0:0:0:0:
320,192,74331,1,0,0:0:0:0:
64,192,74682,1,2,0:0:0:0:
448,192,75032,128,6,75383:0:0:0:0:
192,192,75383,1,2,0:0:0:0:
320,192,75559,1,8,0:0:0:0:
64,192,75734,1,2,0:0:0:0:
192,192,75910,128,10,76261:0:0:0:0:
320,192,76261,128,10,76611:0:0:0:0:
64,192,76611,1,6,0:0:0:0:
448,192,76611,1,0,0:0:0:70:LR_Long Bass.wav
192,192,76962,1,8,0:0:0:0:
320,192,77313,1,2,0:0:0:0:
448,192,77664,1,8,0:0:0:0:
64,192,77839,128,2,78190:0:0:0:0:
320,192,78190,1,2,0:0:0:0:
192,192,78366,1,8,0:0:0:0:
448,192,78717,1,2,0:0:0:0:
320,192,79068,1,8,0:0:0:0:
64,192,79418,1,2,0:0:0:0:
192,192,79418,1,4,0:0:0:0:
448,192,79769,1,8,0:0:0:0:
64,192,80120,1,2,0:0:0:0:
320,192,80471,1,8,0:0:0:0:
192,192,80646,128,2,80997:0:0:0:0:
448,192,80997,1,2,0:0:0:0:
64,192,81173,1,8,0:0:0:0:
192,192,81524,1,2,0:0:0:0:
320,192,81699,1,2,0:0:0:0:
64,192,81875,1,8,0:0:0:0:
192,192,82050,1,0,0:0:0:0:
320,192,82225,1,6,0:0:0:0:
448,192,82225,1,0,0:0:0:70:LR_Long Bass.wav
64,192,82576,1,8,0:0:0:0:
448,192,82752,128,6,83103:0:0:0:0:
192,192,83103,1,6,0:0:0:0:
320,192,83278,1,8,0:0:0:0:
64,192,83454,1,6,0:0:0:0:
448,192,83804,1,6,0:0:0:0:
320,192,83980,1,8,0:0:0:0:
64,192,84155,1,6,0:0:0:0:
320,192,84506,1,2,0:0:0:0:
192,192,84682,1,8,0:0:0:0:
448,192,84857,1,0,0:0:0:0:
64,192,85032,1,2,0:0:0:0:
320,192,85032,1,4,0:0:0:0:
192,192,85383,1,8,0:0:0:0:
320,192,85559,1,6,0:0:0:0:
64,192,85910,1,2,0:0:0:0:
448,192,86085,1,8,0:0:0:0:
192,192,86261,1,6,0:0:0:0:
64,192,86611,1,2,0:0:0:0:
320,192,86787,1,6,0:0:0:0:
448,192,86787,128,8,87138:0:0:0:0:
192,192,87138,128,6,87489:0:0:0:0:
320,192,87489,128,14,87839:0:0:0:0:
64,192,87839,1,6,0:0:0:0:
192,192,87839,1,0,0:0:0:70:LR_Long Bass.wav
