osu file format v14

[General]
AudioFilename: audio.mp3
AudioLeadIn: 0
PreviewTime: 12004
Countdown: 0
SampleSet: Normal
StackLeniency: 0.7
Mode: 1
LetterboxInBreaks: 0
WidescreenStoryboard: 1

[Editor]
Bookmarks: 28890,40118,51346,76609
DistanceSpacing: 1.1
BeatDivisor: 8
GridSize: 32
TimelineZoom: 1.7

[Metadata]
Title:dual existence (TV Size)
TitleUnicode:dual existence (TV Size)
Artist:fripSide
ArtistUnicode:fripSide
Creator:BlackBN
Version:Railgun Oni
Source:とある科学の超電磁砲T
Tags:BlackBq anime japanese j-pop jpop pop opening 2 op2 a certain scientific railgun t season 3 three s3 toaru kagaku no rērugan rerugan reerugan 御坂美琴 佐藤利奈 misaka mikoto satō sato satou rina 白井黒子 shirai kuroko 新井里美 arai satomi 初春飾利 uiharu kazari 豊崎愛生 toyosaki aki 佐天涙子 saten ruiko 伊藤かな恵 itō ito itou kanae 食蜂操祈 shokuhou misaki 浅倉杏美 asakura azumi [R] Ron
BeatmapID:3211549
BeatmapSetID:1572891

[Difficulty]
HPDrainRate:6.5
CircleSize:2
OverallDifficulty:6.5
ApproachRate:10
SliderMultiplier:1.4
SliderTickRate:1

[Events]
//Background and Video events
0,0,"bg.jpg",0,45
Video,-10,"dual.mp4"
//Break Periods
//Storyboard Layer 0 (Background)
//Storyboard Layer 1 (Fail)
//Storyboard Layer 2 (Pass)
//Storyboard Layer 3 (Foreground)
//Storyboard Layer 4 (Overlay)
//Storyboard Sound Samples

[TimingPoints]
540,631.578947368421,4,1,0,65,1,0
540,-61.7283950617284,4,1,0,65,0,0
5592,-61.7283950617284,4,1,0,65,0,0
5908,-62.5978090766823,4,1,0,65,0,0
6224,-63.4920634920635,4,1,0,65,0,0
6540,-64.4122383252818,4,1,0,65,0,0
6855,-65.359477124183,4,1,0,65,0,0
7171,-66.334991708126,4,1,0,65,0,0
7487,-67.3400673400673,4,1,0,65,0,0
7803,-68.3760683760684,4,1,0,65,0,0
8118,-69.4444444444444,4,1,0,65,0,0
8197,-69.4444444444444,4,1,0,45,0,0
10645,350.877192982456,4,1,0,45,1,0
10645,-100,4,1,0,45,0,0
11434,-100,4,1,0,80,0,0
11522,-105.263157894737,4,1,0,80,0,0
11609,-100,4,1,0,85,0,0
11697,-100,4,1,0,85,0,0
11785,-97.5609756097561,4,1,0,85,0,0
11873,-95.2380952380952,4,1,0,85,0,0
11960,-93.0232558139535,4,1,0,85,0,0
12004,-93.0232558139535,4,1,0,90,0,0
12048,-90.9090909090909,4,1,0,90,0,1
17136,-90.9090909090909,4,1,0,90,0,1
17223,-90.4977375565611,4,1,0,90,0,1
17311,-90.0900900900901,4,1,0,90,0,1
17399,-89.6860986547085,4,1,0,90,0,1
17487,-89.2857142857143,4,1,0,90,0,1
17574,-88.8888888888889,4,1,0,90,0,1
17662,-88.4955752212389,4,1,0,90,0,1
17837,-90.9090909090909,4,1,0,90,0,1
18188,-86.2068965517241,4,1,0,90,0,1
18539,-81.9672131147541,4,1,0,90,0,1
18890,-78.125,4,1,0,90,0,1
19066,-76.3358778625954,4,1,0,90,0,1
19241,-74.6268656716418,4,1,0,90,0,1
19592,-71.4285714285714,4,1,0,90,0,1
19943,-90.9090909090909,4,1,0,90,0,1
20118,-90.0900900900901,4,1,0,90,0,1
20206,-89.6860986547085,4,1,0,90,0,1
20294,-89.2857142857143,4,1,0,90,0,1
20381,-88.8888888888889,4,1,0,90,0,1
20469,-88.4955752212389,4,1,0,90,0,1
20644,-90.9090909090909,4,1,0,90,0,1
21697,-90.9090909090909,4,1,0,90,0,1
21785,-91.3684248997232,4,1,0,90,0,1
21873,-91.8324241923338,4,1,0,90,0,1
21960,-92.301160225584,4,1,0,90,0,1
22048,-92.7747059041823,4,1,0,90,0,1
22136,-93.2531356366858,4,1,0,90,0,1
22223,-93.7365253744774,4,1,0,90,0,1
22311,-94.2249526519613,4,1,0,90,0,1
22399,-94.7184966280215,4,1,0,90,0,1
22487,-95.2172381287908,4,1,0,90,0,1
22574,-95.7212596917775,4,1,0,90,0,1
22633,-96.0601874710619,4,1,0,90,0,1
22691,-96.4016168479178,4,1,0,90,0,1
22750,-96.745388389199,4,1,0,90,0,1
22837,-97.2657621599224,4,1,0,90,0,1
22925,-97.7917641732049,4,1,0,90,0,1
23013,-98.3234862361868,4,1,0,90,0,1
23101,-98.8610221636526,4,1,0,90,0,1
23188,-99.4044678332112,4,1,0,90,0,1
23276,-100,4,1,0,90,0,0
27311,-91.743119266055,4,1,0,90,0,0
27662,-97.0873786407767,4,1,0,90,0,0
28013,-103.092783505155,4,1,0,90,0,0
28364,-109.89010989011,4,1,0,90,0,0
28539,-117.647058823529,4,1,0,90,0,0
28598,-118.787841351711,4,1,0,90,0,0
28656,-119.951107928408,4,1,0,90,0,0
28685,-119.947223221782,4,1,0,85,0,0
28715,-121.137236375089,4,1,0,85,0,0
28773,-122.347057002717,4,1,0,85,0,0
28832,-123.581286827223,4,1,0,85,0,0
28861,-125,4,1,0,75,0,0
28890,-124.840827944371,4,1,0,75,0,0
28978,-125,4,1,0,65,0,0
38627,-125,4,1,0,70,0,0
38715,-125,4,1,0,70,0,0
38890,-123.076923076923,4,1,0,70,0,0
39066,-121.212121212121,4,1,0,70,0,0
39241,-119.402985074627,4,1,0,70,0,0
39329,-118.518518518519,4,1,0,70,0,0
39416,-117.647058823529,4,1,0,70,0,0
39504,-100,4,1,0,75,0,0
39592,-115.942028985507,4,1,0,75,0,0
39767,-114.285714285714,4,1,0,75,0,0
39855,-113.475177304965,4,1,0,75,0,0
39943,-112.676056338028,4,1,0,75,0,0
40030,-111.888111888112,4,1,0,75,0,0
40068,-111.894371713103,4,1,0,80,0,0
45381,-111.111111111111,4,1,0,80,0,0
45469,-108.695652173913,4,1,0,80,0,0
45557,-106.382978723404,4,1,0,80,0,0
45644,-104.166666666667,4,1,0,80,0,0
45732,-102.040816326531,4,1,0,80,0,0
46083,-111.111111111111,4,1,0,80,0,0
46785,-111.111111111111,4,1,0,80,0,0
46873,-108.695652173913,4,1,0,80,0,0
46960,-106.382978723404,4,1,0,80,0,0
47136,-102.040816326531,4,1,0,80,0,0
47487,-111.111111111111,4,1,0,80,0,0
48013,-111.111111111111,4,1,0,80,0,0
48101,-109.489091054413,4,1,0,80,0,0
48188,-107.913630246896,4,1,0,80,0,0
48276,-106.382978723404,4,1,0,80,0,0
48364,-104.895141571728,4,1,0,80,0,0
48539,-102.040816326531,4,1,0,80,0,0
48890,-111.111111111111,4,1,0,80,0,0
49066,-106.382978723404,4,1,0,80,0,0
49241,-102.040816326531,4,1,0,80,0,0
49504,-111.111111111111,4,1,0,80,0,0
50557,-111.111111111111,4,1,0,82,0,0
50644,-111.111111111111,4,1,0,82,0,0
50732,-109.604535874113,4,1,0,82,0,0
50820,-108.138269917447,4,1,0,82,0,0
50908,-106.710716850583,4,1,0,82,0,0
50995,-105.320252557966,4,1,0,82,0,0
51083,-103.965666378335,4,1,0,82,0,0
51171,-102.645482007787,4,1,0,82,0,0
51259,-101.35840534848,4,1,0,82,0,0
51302,-100,4,1,0,85,0,0
51346,-100.103206405804,4,1,0,85,0,0
63978,-83.3333333333333,4,1,0,85,0,0
64767,-105.263157894737,4,1,0,80,0,0
64943,-100,4,1,0,85,0,0
65030,-100,4,1,0,85,0,0
65118,-97.5609756097561,4,1,0,85,0,0
65206,-95.2380952380952,4,1,0,85,0,0
65293,-93.0232558139535,4,1,0,85,0,0
65337,-100,4,1,0,90,0,0
65381,-90.9090909090909,4,1,0,90,0,1
70469,-90.9090909090909,4,1,0,90,0,1
70556,-90.4977375565611,4,1,0,90,0,1
70644,-90.0900900900901,4,1,0,90,0,1
70732,-89.6860986547085,4,1,0,90,0,1
70820,-89.2857142857143,4,1,0,90,0,1
70907,-88.8888888888889,4,1,0,90,0,1
70995,-88.4955752212389,4,1,0,90,0,1
71083,-90.9090909090909,4,1,0,90,0,1
75206,-90.9090909090909,4,1,0,90,0,1
75294,-90.1408450704225,4,1,0,90,0,1
75381,-89.3854748603352,4,1,0,90,0,1
75469,-88.6426592797784,4,1,0,90,0,1
75557,-87.9120879120879,4,1,0,90,0,1
75644,-87.1934604904632,4,1,0,90,0,1
75732,-86.4864864864865,4,1,0,90,0,1
75820,-85.7908847184987,4,1,0,90,0,1
75908,-85.1063829787234,4,1,0,90,0,1
75966,-84.6560846560847,4,1,0,90,0,1
76025,-84.2105263157895,4,1,0,90,0,1
76083,-83.7696335078534,4,1,0,90,0,1
76171,-83.1168831168831,4,1,0,90,0,1
76259,-82.4742268041237,4,1,0,90,0,1
76346,-81.8414322250639,4,1,0,90,0,1
76434,-81.2182741116751,4,1,0,90,0,1
76522,-80.6045340050378,4,1,0,90,0,1
76609,-80,4,1,0,90,0,1
76785,-90.9090909090909,4,1,0,90,0,1
81697,-90.9090909090909,4,1,0,90,0,1
81784,-90.4977375565611,4,1,0,90,0,1
81872,-90.0900900900901,4,1,0,90,0,1
81960,-89.6860986547085,4,1,0,90,0,1
82048,-89.2857142857143,4,1,0,90,0,1
82135,-88.8888888888889,4,1,0,90,0,1
82223,-88.4955752212389,4,1,0,90,0,1
82398,-90.9090909090909,4,1,0,90,0,1
82749,-86.2068965517241,4,1,0,90,0,1
83100,-81.9672131147541,4,1,0,90,0,1
83451,-78.125,4,1,0,90,0,1
83627,-76.3358778625954,4,1,0,90,0,1
83802,-74.6268656716418,4,1,0,90,0,1
84153,-71.4285714285714,4,1,0,90,0,1
84504,-90.9090909090909,4,1,0,90,0,1
84679,-90.0900900900901,4,1,0,90,0,1
84767,-89.6860986547085,4,1,0,90,0,1
84855,-89.2857142857143,4,1,0,90,0,1
84942,-88.8888888888889,4,1,0,90,0,1
85030,-88.4955752212389,4,1,0,90,0,1
85205,-90.9090909090909,4,1,0,90,0,1
86259,-90.9090909090909,4,1,0,90,0,1
86346,-90.2255910452905,4,1,0,90,0,1
86434,-89.5522120739665,4,1,0,90,0,1
86522,-88.8888888888889,4,1,0,90,0,1
86609,-88.2353200692118,4,1,0,90,0,1
86697,-87.591215301835,4,1,0,90,0,1
86785,-86.9565217391304,4,1,0,90,0,1
86873,-86.3309600952403,4,1,0,90,0,1
86960,-85.7142612244968,4,1,0,90,0,1
87048,-85.1063829787234,4,1,0,90,0,1
87136,-84.5070660583285,4,1,0,90,0,1
87194,-84.1121416717625,4,1,0,90,0,1
87253,-83.7209613845438,4,1,0,90,0,1
87311,-83.3333333333333,4,1,0,90,0,1
87399,-82.7586435196258,4,1,0,90,0,1
87487,-82.1917583036279,4,1,0,90,0,1
87574,-81.6326530612245,4,1,0,90,0,1
87662,-81.0811029948927,4,1,0,90,0,1
87750,-80.5368911310359,4,1,0,90,0,1
87794,-76.9230769230769,4,1,0,85,0,1
87837,-74.0740740740741,4,1,0,85,0,0

[HitObjects]
256,192,540,5,8,0:0:0:0:
256,192,855,1,8,0:0:0:0:
256,192,1171,1,0,0:0:0:0:
256,192,1487,1,0,0:0:0:0:
256,192,1803,1,8,0:0:0:0:
256,192,2118,1,0,0:0:0:0:
256,192,2434,1,8,0:0:0:0:
256,192,2750,1,8,0:0:0:0:
256,192,3066,1,0,0:0:0:0:
256,192,3382,1,0,0:0:0:0:
256,192,3697,1,8,0:0:0:0:
256,192,4013,1,0,0:0:0:0:
256,192,4329,1,8,0:0:0:0:
256,192,4645,1,0,0:0:0:0:
256,192,4961,1,8,0:0:0:0:
256,192,5276,1,8,0:0:0:0:
256,192,5592,1,0,0:0:0:0:
256,192,5908,1,0,0:0:0:0:
256,192,6224,1,8,0:0:0:0:
256,192,6540,1,0,0:0:0:0:
256,192,6855,1,0,0:0:0:0:
256,192,7171,1,0,0:0:0:0:
256,192,7487,1,8,0:0:0:0:
256,192,7803,1,8,0:0:0:0:
256,192,8118,1,0,0:0:0:0:
256,192,8276,12,0,10645,0:0:0:0:
256,192,11522,5,0,0:0:0:0:
256,192,11697,1,8,0:0:0:0:
256,192,11785,1,8,0:0:0:0:
256,192,11873,1,8,0:0:0:0:
256,192,11960,1,8,0:0:0:0:
352,96,12048,1,4,0:0:0:0:
256,192,12223,1,8,0:0:0:0:
256,192,12399,1,0,0:0:0:0:
256,192,12487,1,0,0:0:0:0:
256,192,12574,1,8,0:0:0:0:
256,192,12750,1,0,0:0:0:0:
256,192,12925,1,8,0:0:0:0:
256,192,13013,1,8,0:0:0:0:
256,192,13101,1,0,0:0:0:0:
256,192,13276,1,8,0:0:0:0:
256,192,13627,1,8,0:0:0:0:
256,192,13802,1,0,0:0:0:0:
256,192,13890,1,0,0:0:0:0:
256,192,13978,1,8,0:0:0:0:
256,192,14066,1,8,0:0:0:0:
256,192,14153,1,0,0:0:0:0:
256,192,14329,1,0,0:0:0:0:
256,192,14504,1,8,0:0:0:0:
256,192,14592,1,0,0:0:0:0:
256,192,14680,1,0,0:0:0:0:
256,192,14855,1,0,0:0:0:0:
256,192,15030,1,8,0:0:0:0:
256,192,15118,1,0,0:0:0:0:
256,192,15206,1,8,0:0:0:0:
256,192,15381,1,0,0:0:0:0:
256,192,15557,1,0,0:0:0:0:
256,192,15644,1,0,0:0:0:0:
256,192,15732,1,8,0:0:0:0:
256,192,15820,1,0,0:0:0:0:
256,192,15908,1,8,0:0:0:0:
256,192,16083,1,8,0:0:0:0:
256,192,16171,1,0,0:0:0:0:
256,192,16259,1,0,0:0:0:0:
256,192,16434,1,0,0:0:0:0:
256,192,16609,1,8,0:0:0:0:
256,192,16697,1,8,0:0:0:0:
256,192,16785,1,0,0:0:0:0:
256,192,16960,1,8,0:0:0:0:
256,192,17136,1,0,0:0:0:0:
256,192,17223,1,0,0:0:0:0:
256,192,17311,1,8,0:0:0:0:
256,192,17399,1,8,0:0:0:0:
256,192,17487,1,8,0:0:0:0:
256,192,17574,1,8,0:0:0:0:
384,96,17662,1,4,0:0:0:0:
256,192,17837,1,0,0:0:0:0:
256,192,17925,1,0,0:0:0:0:
256,192,18013,1,8,0:0:0:0:
384,96,18188,1,4,0:0:0:0:
384,96,18539,1,4,0:0:0:0:
384,96,18890,1,4,0:0:0:0:
384,96,19241,1,12,0:0:0:0:
384,96,19592,1,12,0:0:0:0:
256,192,19943,1,0,0:0:0:0:
256,192,20118,1,0,0:0:0:0:
256,192,20206,1,8,0:0:0:0:
256,192,20294,1,0,0:0:0:0:
256,192,20381,1,0,0:0:0:0:
384,96,20469,1,12,0:0:0:0:
256,192,20644,1,0,0:0:0:0:
256,192,20732,1,0,0:0:0:0:
256,192,20820,1,8,0:0:0:0:
256,192,20995,1,8,0:0:0:0:
256,192,21083,1,8,0:0:0:0:
256,192,21171,1,0,0:0:0:0:
256,192,21346,1,8,0:0:0:0:
256,192,21522,1,0,0:0:0:0:
256,192,21697,1,8,0:0:0:0:
256,192,21785,1,8,0:0:0:0:
256,192,21873,1,0,0:0:0:0:
256,192,21960,1,0,0:0:0:0:
256,192,22048,1,8,0:0:0:0:
256,192,22136,1,0,0:0:0:0:
256,192,22223,1,8,0:0:0:0:
256,192,22311,1,8,0:0:0:0:
256,192,22399,1,0,0:0:0:0:
256,192,22487,1,0,0:0:0:0:
256,192,22574,1,8,0:0:0:0:
256,192,22633,1,8,0:0:0:0:
256,192,22691,1,8,0:0:0:0:
256,192,22750,1,0,0:0:0:0:
256,192,22837,1,0,0:0:0:0:
256,192,22925,1,8,0:0:0:0:
256,192,23013,1,0,0:0:0:0:
256,192,23101,1,8,0:0:0:0:
256,192,23188,1,8,0:0:0:0:
384,96,23276,1,4,0:0:0:0:
256,192,23452,1,0,0:0:0:0:
256,192,23539,1,0,0:0:0:0:
256,192,23627,1,8,0:0:0:0:
256,192,23802,1,0,0:0:0:0:
256,192,23978,1,8,0:0:0:0:
256,192,24066,1,8,0:0:0:0:
256,192,24153,1,0,0:0:0:0:
256,192,24241,1,0,0:0:0:0:
256,192,24329,1,0,0:0:0:0:
256,192,24504,1,8,0:0:0:0:
256,192,24680,1,8,0:0:0:0:
256,192,24767,1,0,0:0:0:0:
256,192,24855,1,0,0:0:0:0:
256,192,25030,1,8,0:0:0:0:
256,192,25381,1,0,0:0:0:0:
256,192,25557,1,8,0:0:0:0:
256,192,25644,1,0,0:0:0:0:
256,192,25732,1,8,0:0:0:0:
256,192,25908,1,0,0:0:0:0:
256,192,26083,1,0,0:0:0:0:
256,192,26171,1,0,0:0:0:0:
256,192,26259,1,8,0:0:0:0:
256,192,26346,1,0,0:0:0:0:
256,192,26434,1,8,0:0:0:0:
256,192,26522,1,8,0:0:0:0:
256,192,26609,1,0,0:0:0:0:
256,192,26785,1,8,0:0:0:0:
256,192,26960,1,8,0:0:0:0:
256,192,27136,1,0,0:0:0:0:
384,96,27311,1,12,0:0:0:0:
384,96,27662,1,12,0:0:0:0:
384,96,28013,1,4,0:0:0:0:
384,96,28364,1,4,0:0:0:0:
256,192,28539,1,8,0:0:0:0:
256,192,28598,1,8,0:0:0:0:
256,192,28656,1,8,0:0:0:0:
256,192,28715,1,0,0:0:0:0:
256,192,28773,1,0,0:0:0:0:
256,192,28832,1,0,0:0:0:0:
256,192,28890,1,8,0:0:0:0:
256,192,29241,1,0,0:0:0:0:
256,192,29416,1,0,0:0:0:0:
256,192,29767,1,8,0:0:0:0:
256,192,30294,1,8,0:0:0:0:
256,192,30820,1,0,0:0:0:0:
256,192,30995,1,8,0:0:0:0:
256,192,31697,1,8,0:0:0:0:
256,192,32048,1,8,0:0:0:0:
256,192,32223,1,0,0:0:0:0:
256,192,32574,1,0,0:0:0:0:
256,192,33101,1,8,0:0:0:0:
256,192,33627,1,0,0:0:0:0:
256,192,33802,1,0,0:0:0:0:
256,192,34504,1,8,0:0:0:0:
256,192,34855,1,0,0:0:0:0:
256,192,35030,1,8,0:0:0:0:
256,192,35381,1,0,0:0:0:0:
256,192,35908,1,8,0:0:0:0:
256,192,36259,1,8,0:0:0:0:
256,192,36434,1,0,0:0:0:0:
256,192,36785,1,8,0:0:0:0:
256,192,37311,1,8,0:0:0:0:
256,192,37662,1,0,0:0:0:0:
256,192,37837,1,8,0:0:0:0:
256,192,38188,1,8,0:0:0:0:
256,192,38364,1,0,0:0:0:0:
256,192,38715,1,0,0:0:0:0:
256,192,38890,1,8,0:0:0:0:
256,192,39066,1,0,0:0:0:0:
256,192,39241,1,8,0:0:0:0:
256,192,39329,1,0,0:0:0:0:
256,192,39416,1,0,0:0:0:0:
256,192,39592,1,8,0:0:0:0:
256,192,39767,1,0,0:0:0:0:
256,192,39855,1,0,0:0:0:0:
256,192,39943,1,8,0:0:0:0:
256,192,40030,1,8,0:0:0:0:
384,96,40118,1,4,0:0:0:0:
256,192,40469,1,0,0:0:0:0:
256,192,40644,1,8,0:0:0:0:
256,192,40732,1,0,0:0:0:0:
256,192,40820,1,0,0:0:0:0:
256,192,40995,1,8,0:0:0:0:
256,192,41083,1,8,0:0:0:0:
256,192,41171,1,0,0:0:0:0:
256,192,41346,1,0,0:0:0:0:
256,192,41522,1,8,0:0:0:0:
256,192,41609,1,0,0:0:0:0:
256,192,41697,1,0,0:0:0:0:
256,192,41785,1,0,0:0:0:0:
256,192,41873,1,8,0:0:0:0:
256,192,42048,1,0,0:0:0:0:
256,192,42223,1,8,0:0:0:0:
256,192,42399,1,0,0:0:0:0:
256,192,42487,1,0,0:0:0:0:
256,192,42574,1,8,0:0:0:0:
256,192,42925,1,8,0:0:0:0:
256,192,43276,1,0,0:0:0:0:
256,192,43452,1,8,0:0:0:0:
256,192,43539,1,0,0:0:0:0:
256,192,43627,1,0,0:0:0:0:
256,192,43802,1,8,0:0:0:0:
256,192,43890,1,0,0:0:0:0:
256,192,43978,1,8,0:0:0:0:
256,192,44153,1,0,0:0:0:0:
256,192,44329,1,8,0:0:0:0:
256,192,44416,1,8,0:0:0:0:
256,192,44504,1,0,0:0:0:0:
256,192,44592,1,0,0:0:0:0:
256,192,44680,1,8,0:0:0:0:
256,192,44855,1,0,0:0:0:0:
256,192,45030,1,8,0:0:0:0:
256,192,45118,1,8,0:0:0:0:
256,192,45206,1,0,0:0:0:0:
256,192,45381,1,0,0:0:0:0:
256,192,45469,1,0,0:0:0:0:
256,192,45557,1,0,0:0:0:0:
256,192,45644,1,0,0:0:0:0:
384,96,45732,1,12,0:0:0:0:
256,192,46083,1,0,0:0:0:0:
256,192,46259,1,8,0:0:0:0:
256,192,46346,1,8,0:0:0:0:
256,192,46434,1,0,0:0:0:0:
256,192,46609,1,8,0:0:0:0:
256,192,46785,1,0,0:0:0:0:
256,192,46873,1,8,0:0:0:0:
256,192,46960,1,0,0:0:0:0:
416,32,47136,1,4,0:0:0:0:
256,192,47487,1,0,0:0:0:0:
256,192,47662,1,0,0:0:0:0:
256,192,47750,1,0,0:0:0:0:
256,192,47837,1,8,0:0:0:0:
256,192,48013,1,8,0:0:0:0:
256,192,48101,1,8,0:0:0:0:
256,192,48188,1,0,0:0:0:0:
256,192,48276,1,8,0:0:0:0:
256,192,48364,1,0,0:0:0:0:
448,64,48539,1,4,0:0:0:0:
256,192,48890,1,0,0:0:0:0:
256,192,49066,1,0,0:0:0:0:
384,96,49241,1,12,0:0:0:0:
256,192,49504,1,0,0:0:0:0:
256,192,49592,1,8,0:0:0:0:
256,192,49767,1,0,0:0:0:0:
256,192,49943,1,0,0:0:0:0:
256,192,50030,1,8,0:0:0:0:
256,192,50118,1,0,0:0:0:0:
256,192,50206,1,0,0:0:0:0:
256,192,50294,1,8,0:0:0:0:
256,192,50469,1,0,0:0:0:0:
256,192,50644,1,8,0:0:0:0:
256,192,50732,1,8,0:0:0:0:
256,192,50820,1,0,0:0:0:0:
256,192,50908,1,8,0:0:0:0:
256,192,50995,1,0,0:0:0:0:
256,192,51083,1,8,0:0:0:0:
256,192,51171,1,0,0:0:0:0:
256,192,51259,1,0,0:0:0:0:
416,64,51346,1,12,0:0:0:0:
256,192,51697,1,8,0:0:0:0:
256,192,51873,1,0,0:0:0:0:
256,192,51960,1,8,0:0:0:0:
256,192,52048,1,0,0:0:0:0:
256,192,52136,1,0,0:0:0:0:
256,192,52311,1,0,0:0:0:0:
256,192,52399,1,8,0:0:0:0:
256,192,52574,1,0,0:0:0:0:
256,192,52662,1,8,0:0:0:0:
256,192,52750,1,0,0:0:0:0:
256,192,52925,1,0,0:0:0:0:
256,192,53101,1,8,0:0:0:0:
256,192,53188,1,8,0:0:0:0:
256,192,53276,1,0,0:0:0:0:
256,192,53452,1,0,0:0:0:0:
256,192,53627,1,0,0:0:0:0:
256,192,53715,1,0,0:0:0:0:
256,192,53802,1,8,0:0:0:0:
256,192,53978,1,0,0:0:0:0:
384,64,54153,1,4,0:0:0:0:
256,192,54504,1,8,0:0:0:0:
256,192,54680,1,0,0:0:0:0:
256,192,54767,1,0,0:0:0:0:
256,192,54855,1,8,0:0:0:0:
256,192,54943,1,0,0:0:0:0:
256,192,55118,1,0,0:0:0:0:
256,192,55206,1,8,0:0:0:0:
256,192,55381,1,0,0:0:0:0:
256,192,55469,1,8,0:0:0:0:
256,192,55557,1,8,0:0:0:0:
256,192,55732,1,0,0:0:0:0:
256,192,55908,1,8,0:0:0:0:
256,192,55995,1,0,0:0:0:0:
256,192,56083,1,8,0:0:0:0:
256,192,56259,1,0,0:0:0:0:
256,192,56434,1,0,0:0:0:0:
256,192,56522,1,0,0:0:0:0:
256,192,56609,1,8,0:0:0:0:
256,192,56785,1,8,0:0:0:0:
384,96,56960,1,4,0:0:0:0:
256,192,57311,1,0,0:0:0:0:
256,192,57487,1,0,0:0:0:0:
256,192,57574,1,8,0:0:0:0:
256,192,57662,1,8,0:0:0:0:
256,192,57750,1,0,0:0:0:0:
256,192,57925,1,0,0:0:0:0:
256,192,58013,1,8,0:0:0:0:
256,192,58188,1,0,0:0:0:0:
256,192,58364,1,8,0:0:0:0:
256,192,58452,1,0,0:0:0:0:
256,192,58627,1,0,0:0:0:0:
256,192,58715,1,8,0:0:0:0:
256,192,58890,1,0,0:0:0:0:
256,192,58978,1,8,0:0:0:0:
256,192,59066,1,0,0:0:0:0:
256,192,59153,1,0,0:0:0:0:
256,192,59329,1,0,0:0:0:0:
256,192,59416,1,8,0:0:0:0:
256,192,59592,1,0,0:0:0:0:
256,192,59767,1,8,0:0:0:0:
256,192,59855,1,8,0:0:0:0:
256,192,59943,1,0,0:0:0:0:
256,192,60030,1,0,0:0:0:0:
256,192,60118,1,8,0:0:0:0:
256,192,60294,1,0,0:0:0:0:
256,192,60381,1,8,0:0:0:0:
256,192,60469,1,0,0:0:0:0:
256,192,60644,1,0,0:0:0:0:
256,192,60820,1,8,0:0:0:0:
256,192,60995,1,0,0:0:0:0:
256,192,61083,1,8,0:0:0:0:
256,192,61171,1,0,0:0:0:0:
256,192,61259,1,0,0:0:0:0:
256,192,61346,1,0,0:0:0:0:
256,192,61522,1,8,0:0:0:0:
256,192,61697,1,0,0:0:0:0:
256,192,62048,1,0,0:0:0:0:
256,192,62223,1,8,0:0:0:0:
256,192,62399,1,0,0:0:0:0:
256,192,62487,1,8,0:0:0:0:
256,192,62574,1,0,0:0:0:0:
256,192,62750,1,0,0:0:0:0:
256,192,62925,1,8,0:0:0:0:
256,192,63013,1,8,0:0:0:0:
256,192,63101,1,0,0:0:0:0:
256,192,63276,1,8,0:0:0:0:
256,192,63452,1,0,0:0:0:0:
256,192,63539,1,0,0:0:0:0:
256,192,63627,1,8,0:0:0:0:
256,192,63715,1,8,0:0:0:0:
256,192,63802,1,8,0:0:0:0:
256,192,63890,1,8,0:0:0:0:
384,96,63978,1,4,0:0:0:0:
384,96,64241,1,12,0:0:0:0:
384,96,64504,1,12,0:0:0:0:
256,192,64855,1,0,0:0:0:0:
256,192,65030,1,8,0:0:0:0:
256,192,65118,1,8,0:0:0:0:
256,192,65206,1,8,0:0:0:0:
256,192,65294,1,8,0:0:0:0:
384,64,65381,1,4,0:0:0:0:
256,192,65557,1,0,0:0:0:0:
256,192,65732,1,0,0:0:0:0:
256,192,65820,1,0,0:0:0:0:
256,192,65908,1,8,0:0:0:0:
256,192,66083,1,0,0:0:0:0:
256,192,66259,1,8,0:0:0:0:
256,192,66346,1,0,0:0:0:0:
256,192,66434,1,8,0:0:0:0:
256,192,66609,1,0,0:0:0:0:
256,192,66960,1,8,0:0:0:0:
256,192,67136,1,0,0:0:0:0:
256,192,67223,1,0,0:0:0:0:
256,192,67311,1,8,0:0:0:0:
256,192,67399,1,8,0:0:0:0:
256,192,67487,1,0,0:0:0:0:
256,192,67662,1,8,0:0:0:0:
256,192,67837,1,8,0:0:0:0:
256,192,67925,1,0,0:0:0:0:
256,192,68013,1,0,0:0:0:0:
256,192,68188,1,0,0:0:0:0:
256,192,68364,1,8,0:0:0:0:
256,192,68452,1,0,0:0:0:0:
256,192,68539,1,8,0:0:0:0:
256,192,68715,1,0,0:0:0:0:
256,192,68890,1,0,0:0:0:0:
256,192,68978,1,8,0:0:0:0:
256,192,69066,1,0,0:0:0:0:
256,192,69153,1,0,0:0:0:0:
256,192,69241,1,8,0:0:0:0:
256,192,69416,1,8,0:0:0:0:
256,192,69504,1,0,0:0:0:0:
256,192,69592,1,0,0:0:0:0:
256,192,69767,1,0,0:0:0:0:
256,192,69943,1,8,0:0:0:0:
256,192,70030,1,8,0:0:0:0:
256,192,70118,1,0,0:0:0:0:
256,192,70294,1,8,0:0:0:0:
256,192,70469,1,0,0:0:0:0:
256,192,70557,1,0,0:0:0:0:
256,192,70644,1,8,0:0:0:0:
256,192,70732,1,8,0:0:0:0:
256,192,70820,1,8,0:0:0:0:
256,192,70908,1,8,0:0:0:0:
384,96,70995,1,4,0:0:0:0:
256,192,71171,1,0,0:0:0:0:
256,192,71346,1,8,0:0:0:0:
256,192,71434,1,8,0:0:0:0:
256,192,71522,1,0,0:0:0:0:
256,192,71697,1,0,0:0:0:0:
256,192,71873,1,8,0:0:0:0:
256,192,71960,1,0,0:0:0:0:
256,192,72048,1,8,0:0:0:0:
256,192,72223,1,0,0:0:0:0:
256,192,72574,1,8,0:0:0:0:
256,192,72750,1,0,0:0:0:0:
256,192,72837,1,0,0:0:0:0:
256,192,72925,1,8,0:0:0:0:
256,192,73013,1,0,0:0:0:0:
256,192,73101,1,0,0:0:0:0:
256,192,73276,1,8,0:0:0:0:
256,192,73452,1,0,0:0:0:0:
256,192,73539,1,0,0:0:0:0:
256,192,73627,1,8,0:0:0:0:
256,192,73715,1,0,0:0:0:0:
256,192,73802,1,8,0:0:0:0:
256,192,73978,1,0,0:0:0:0:
256,192,74153,1,8,0:0:0:0:
256,192,74329,1,0,0:0:0:0:
256,192,74416,1,8,0:0:0:0:
256,192,74504,1,0,0:0:0:0:
256,192,74680,1,8,0:0:0:0:
256,192,74767,1,0,0:0:0:0:
256,192,74855,1,8,0:0:0:0:
256,192,75030,1,8,0:0:0:0:
256,192,75206,1,0,0:0:0:0:
256,192,75294,1,0,0:0:0:0:
256,192,75381,1,8,0:0:0:0:
256,192,75469,1,8,0:0:0:0:
256,192,75557,1,0,0:0:0:0:
256,192,75644,1,8,0:0:0:0:
256,192,75732,1,0,0:0:0:0:
256,192,75820,1,8,0:0:0:0:
256,192,75908,1,0,0:0:0:0:
256,192,75966,1,0,0:0:0:0:
256,192,76025,1,0,0:0:0:0:
256,192,76083,1,8,0:0:0:0:
256,192,76171,1,8,0:0:0:0:
256,192,76259,1,0,0:0:0:0:
256,192,76346,1,0,0:0:0:0:
256,192,76434,1,8,0:0:0:0:
256,192,76522,1,8,0:0:0:0:
384,96,76609,1,4,0:0:0:0:
256,192,76785,1,8,0:0:0:0:
256,192,76960,1,0,0:0:0:0:
256,192,77048,1,8,0:0:0:0:
256,192,77136,1,0,0:0:0:0:
256,192,77311,1,0,0:0:0:0:
256,192,77487,1,8,0:0:0:0:
256,192,77574,1,0,0:0:0:0:
256,192,77662,1,8,0:0:0:0:
256,192,77837,1,0,0:0:0:0:
256,192,78188,1,8,0:0:0:0:
256,192,78364,1,0,0:0:0:0:
256,192,78452,1,8,0:0:0:0:
256,192,78539,1,8,0:0:0:0:
256,192,78627,1,0,0:0:0:0:
256,192,78715,1,0,0:0:0:0:
256,192,78890,1,8,0:0:0:0:
256,192,79066,1,8,0:0:0:0:
256,192,79153,1,0,0:0:0:0:
256,192,79241,1,0,0:0:0:0:
256,192,79416,1,8,0:0:0:0:
256,192,79592,1,0,0:0:0:0:
256,192,79680,1,0,0:0:0:0:
256,192,79767,1,8,0:0:0:0:
256,192,79943,1,0,0:0:0:0:
256,192,80118,1,0,0:0:0:0:
256,192,80206,1,0,0:0:0:0:
256,192,80294,1,8,0:0:0:0:
256,192,80381,1,0,0:0:0:0:
256,192,80469,1,8,0:0:0:0:
256,192,80644,1,0,0:0:0:0:
256,192,80732,1,8,0:0:0:0:
256,192,80820,1,0,0:0:0:0:
256,192,80995,1,0,0:0:0:0:
256,192,81171,1,8,0:0:0:0:
256,192,81259,1,8,0:0:0:0:
256,192,81346,1,0,0:0:0:0:
256,192,81522,1,8,0:0:0:0:
256,192,81697,1,0,0:0:0:0:
256,192,81785,1,0,0:0:0:0:
256,192,81873,1,8,0:0:0:0:
256,192,81960,1,8,0:0:0:0:
256,192,82048,1,0,0:0:0:0:
256,192,82136,1,0,0:0:0:0:
384,96,82223,1,12,0:0:0:0:
256,192,82399,1,0,0:0:0:0:
256,192,82487,1,8,0:0:0:0:
256,192,82574,1,8,0:0:0:0:
384,96,82750,1,4,0:0:0:0:
384,96,83101,1,4,0:0:0:0:
384,96,83452,1,4,0:0:0:0:
384,96,83802,1,12,0:0:0:0:
384,96,84153,1,12,0:0:0:0:
256,192,84504,1,0,0:0:0:0:
256,192,84680,1,8,0:0:0:0:
256,192,84767,1,0,0:0:0:0:
256,192,84855,1,0,0:0:0:0:
256,192,84943,1,0,0:0:0:0:
384,96,85030,1,12,0:0:0:0:
256,192,85206,1,0,0:0:0:0:
256,192,85294,1,0,0:0:0:0:
256,192,85381,1,8,0:0:0:0:
256,192,85557,1,8,0:0:0:0:
256,192,85644,1,0,0:0:0:0:
256,192,85732,1,0,0:0:0:0:
256,192,85908,1,8,0:0:0:0:
256,192,86083,1,0,0:0:0:0:
256,192,86259,1,8,0:0:0:0:
256,192,86346,1,8,0:0:0:0:
256,192,86434,1,0,0:0:0:0:
256,192,86522,1,0,0:0:0:0:
256,192,86609,1,8,0:0:0:0:
256,192,86697,1,0,0:0:0:0:
256,192,86785,1,8,0:0:0:0:
256,192,86873,1,8,0:0:0:0:
256,192,86960,1,0,0:0:0:0:
256,192,87048,1,0,0:0:0:0:
256,192,87136,1,8,0:0:0:0:
256,192,87194,1,8,0:0:0:0:
256,192,87253,1,8,0:0:0:0:
256,192,87311,1,0,0:0:0:0:
256,192,87399,1,0,0:0:0:0:
256,192,87487,1,8,0:0:0:0:
256,192,87574,1,0,0:0:0:0:
256,192,87662,1,8,0:0:0:0:
256,192,87750,1,8,0:0:0:0:
384,96,87837,1,4,0:0:0:0:
