osu file format v14

[General]
AudioFilename: audio.mp3
AudioLeadIn: 0
PreviewTime: 12004
Countdown: 0
SampleSet: Normal
StackLeniency: 0.7
Mode: 1
LetterboxInBreaks: 0
WidescreenStoryboard: 1

[Editor]
Bookmarks: 28890,40118,51346,76609
DistanceSpacing: 1.1
BeatDivisor: 4
GridSize: 32
TimelineZoom: 0.9999999

[Metadata]
Title:dual existence (TV Size)
TitleUnicode:dual existence (TV Size)
Artist:fripSide
ArtistUnicode:fripSide
Creator:BlackBN
Version:Kantan
Source:とある科学の超電磁砲T
Tags:BlackBq anime japanese j-pop jpop pop opening 2 op2 a certain scientific railgun t season 3 three s3 toaru kagaku no rērugan rerugan reerugan 御坂美琴 佐藤利奈 misaka mikoto satō sato satou rina 白井黒子 shirai kuroko 新井里美 arai satomi 初春飾利 uiharu kazari 豊崎愛生 toyosaki aki 佐天涙子 saten ruiko 伊藤かな恵 itō ito itou kanae 食蜂操祈 shokuhou misaki 浅倉杏美 asakura azumi [R] Ron
BeatmapID:3240930
BeatmapSetID:1572891

[Difficulty]
HPDrainRate:8
CircleSize:2
OverallDifficulty:3
ApproachRate:10
SliderMultiplier:1.4
SliderTickRate:1

[Events]
//Background and Video events
0,0,"bg.jpg",0,45
Video,-10,"dual.mp4"
//Break Periods
//Storyboard Layer 0 (Background)
//Storyboard Layer 1 (Fail)
//Storyboard Layer 2 (Pass)
//Storyboard Layer 3 (Foreground)
//Storyboard Layer 4 (Overlay)
//Storyboard Sound Samples

[TimingPoints]
540,631.578947368421,4,1,0,65,1,0
540,-61.7283950617284,4,1,0,65,0,0
8197,-61.7283950617284,4,1,0,45,0,0
10645,350.877192982456,4,1,0,45,1,0
10645,-100,4,1,0,45,0,0
11434,-100,4,1,0,80,0,0
11609,-100,4,1,0,85,0,0
12004,-100,4,1,0,90,0,0
12048,-100,4,1,0,90,0,1
23276,-100,4,1,0,90,0,0
28685,-100,4,1,0,85,0,0
28861,-100,4,1,0,75,0,0
28978,-100,4,1,0,65,0,0
38627,-100,4,1,0,70,0,0
39504,-100,4,1,0,75,0,0
40068,-100,4,1,0,80,0,0
50557,-100,4,1,0,82,0,0
51302,-100,4,1,0,85,0,0
64767,-100,4,1,0,80,0,0
64943,-100,4,1,0,85,0,0
65337,-100,4,1,0,90,0,0
65381,-100,4,1,0,90,0,1
87794,-100,4,1,0,85,0,1
87837,-100,4,1,0,85,0,0

[HitObjects]
256,192,540,5,8,0:0:0:0:
256,192,1803,1,8,0:0:0:0:
256,192,3066,1,0,0:0:0:0:
256,192,3697,1,0,0:0:0:0:
256,192,4329,1,8,0:0:0:0:
256,192,5592,1,0,0:0:0:0:
256,192,6855,1,0,0:0:0:0:
256,192,7487,1,8,0:0:0:0:
256,192,8118,1,0,0:0:0:0:
256,192,8434,8,0,10645,0:0:0:0:
256,192,11697,5,8,0:0:0:0:
352,96,12048,1,4,0:0:0:0:
256,192,12750,1,8,0:0:0:0:
256,192,13276,1,0,0:0:0:0:
256,192,13978,1,0,0:0:0:0:
256,192,14504,1,8,0:0:0:0:
256,192,14855,1,0,0:0:0:0:
256,192,15557,1,0,0:0:0:0:
256,192,16083,1,8,0:0:0:0:
256,192,16785,1,0,0:0:0:0:
384,96,17662,1,4,0:0:0:0:
256,192,18188,1,8,0:0:0:0:
256,192,18890,1,0,0:0:0:0:
256,192,19592,1,8,0:0:0:0:
384,96,20469,1,12,0:0:0:0:
256,192,20995,1,8,0:0:0:0:
256,192,21697,1,0,0:0:0:0:
256,192,22223,1,8,0:0:0:0:
384,96,23276,1,4,0:0:0:0:
256,192,23978,1,8,0:0:0:0:
256,192,24680,1,8,0:0:0:0:
256,192,25030,1,8,0:0:0:0:
256,192,25381,1,0,0:0:0:0:
256,192,26083,1,0,0:0:0:0:
256,192,26434,1,8,0:0:0:0:
256,192,26785,1,0,0:0:0:0:
256,192,27311,1,8,0:0:0:0:
256,192,28013,1,8,0:0:0:0:
256,192,28890,1,0,0:0:0:0:
256,192,30294,1,8,0:0:0:0:
256,192,30995,1,8,0:0:0:0:
256,192,31697,1,0,0:0:0:0:
256,192,33101,1,8,0:0:0:0:
256,192,33802,1,0,0:0:0:0:
256,192,34504,1,8,0:0:0:0:
256,192,35908,1,0,0:0:0:0:
256,192,37311,1,8,0:0:0:0:
256,192,38715,1,0,0:0:0:0:
256,192,39416,1,8,0:0:0:0:
256,192,39767,1,8,0:0:0:0:
384,96,40118,1,4,0:0:0:0:
256,192,41522,1,8,0:0:0:0:
256,192,42223,1,0,0:0:0:0:
256,192,42925,1,8,0:0:0:0:
256,192,44329,1,0,0:0:0:0:
256,192,45030,1,8,0:0:0:0:
384,96,45732,1,12,0:0:0:0:
256,192,46434,1,8,0:0:0:0:
256,192,46785,1,8,0:0:0:0:
416,32,47136,1,4,0:0:0:0:
256,192,47837,1,0,0:0:0:0:
448,64,48539,1,4,0:0:0:0:
384,96,49241,1,12,0:0:0:0:
256,192,49943,1,0,0:0:0:0:
416,64,51346,1,12,0:0:0:0:
256,192,52048,1,0,0:0:0:0:
256,192,52750,1,0,0:0:0:0:
256,192,53101,1,8,0:0:0:0:
256,192,53452,1,0,0:0:0:0:
384,64,54153,1,4,0:0:0:0:
256,192,54855,1,0,0:0:0:0:
256,192,55557,1,8,0:0:0:0:
256,192,55908,1,8,0:0:0:0:
256,192,56259,1,0,0:0:0:0:
384,96,56960,1,4,0:0:0:0:
256,192,57662,1,8,0:0:0:0:
256,192,58364,1,0,0:0:0:0:
256,192,59066,1,0,0:0:0:0:
256,192,59767,1,8,0:0:0:0:
256,192,61171,1,0,0:0:0:0:
256,192,61522,1,8,0:0:0:0:
256,192,62223,1,8,0:0:0:0:
256,192,62574,1,0,0:0:0:0:
256,192,63276,1,8,0:0:0:0:
256,192,63627,1,8,0:0:0:0:
256,192,63978,1,0,0:0:0:0:
352,96,65381,1,4,0:0:0:0:
256,192,66083,1,0,0:0:0:0:
256,192,66609,1,8,0:0:0:0:
256,192,67311,1,0,0:0:0:0:
256,192,67837,1,8,0:0:0:0:
256,192,68188,1,0,0:0:0:0:
256,192,68890,1,0,0:0:0:0:
256,192,69416,1,8,0:0:0:0:
256,192,70118,1,0,0:0:0:0:
384,96,70995,5,4,0:0:0:0:
256,192,71697,1,8,0:0:0:0:
256,192,72223,1,8,0:0:0:0:
256,192,72925,1,0,0:0:0:0:
256,192,73802,1,8,0:0:0:0:
256,192,74329,1,0,0:0:0:0:
256,192,75030,1,8,0:0:0:0:
256,192,75732,1,8,0:0:0:0:
384,96,76609,1,4,0:0:0:0:
256,192,77311,1,8,0:0:0:0:
256,192,77837,1,0,0:0:0:0:
256,192,78539,1,8,0:0:0:0:
256,192,79066,1,8,0:0:0:0:
256,192,79416,1,0,0:0:0:0:
256,192,80118,1,0,0:0:0:0:
256,192,80644,1,8,0:0:0:0:
256,192,81346,1,0,0:0:0:0:
384,96,82223,1,4,0:0:0:0:
256,192,82750,1,8,0:0:0:0:
256,192,83452,1,0,0:0:0:0:
256,192,84153,1,8,0:0:0:0:
384,96,85030,1,12,0:0:0:0:
256,192,85557,1,0,0:0:0:0:
256,192,86259,1,0,0:0:0:0:
256,192,86785,1,8,0:0:0:0:
384,96,87837,1,4,0:0:0:0:
