osu file format v14

[General]
AudioFilename: audio.mp3
AudioLeadIn: 0
PreviewTime: 152304
Countdown: 0
SampleSet: Normal
StackLeniency: 0.7
Mode: 1
LetterboxInBreaks: 0
WidescreenStoryboard: 0

[Editor]
Bookmarks: 534,12040,23270,34498,45726,56954,68182,82217,93445,104673,115901,127129,138357,152392,163620,174848,180462,186076,200111,211339,222567,233795,245023,256251
DistanceSpacing: 1.4
BeatDivisor: 4
GridSize: 32
TimelineZoom: 2.5

[Metadata]
Title:dual existence
TitleUnicode:dual existence
Artist:fripSide
ArtistUnicode:fripSide
Creator:Roger
Version:Volger's dual oni
Source:とある科学の超電磁砲T
Tags:taiko op op2 opening anime japanese pop jpop j-pop to aru toaru kagaku no a certain scientific Railgun T 南條愛乃 Nanjou Yoshino 八木沼悟志 Yaginuma Satoshi Volta Ron [R] ][ -GH- ][ full version ver
BeatmapID:2545719
BeatmapSetID:1223928

[Difficulty]
HPDrainRate:5
CircleSize:2
OverallDifficulty:6.7
ApproachRate:0
SliderMultiplier:1.4
SliderTickRate:1

[Events]
//Background and Video events
0,0,"bg.jpg",0,-80
//Break Periods
//Storyboard Layer 0 (Background)
//Storyboard Layer 1 (Fail)
//Storyboard Layer 2 (Pass)
//Storyboard Layer 3 (Foreground)
//Storyboard Layer 4 (Overlay)
//Storyboard Sound Samples

[TimingPoints]
534,631.578947368421,4,1,0,70,1,0
8270,-100,4,1,0,30,0,0
10639,350.877192982456,4,1,0,80,1,0
11340,-100,4,1,0,90,0,0
11691,-98.0392156862745,4,1,0,90,0,0
11779,-97.0873786407767,4,1,0,90,0,0
11867,-96.1538461538461,4,1,0,90,0,0
11954,-95.2380952380952,4,1,0,90,0,0
12042,350.877192982456,4,1,0,100,1,1
12042,-94.3396226415094,4,1,0,100,0,1
33503,-94.6378210588079,4,1,0,100,0,1
33562,-94.9370092943332,4,1,0,100,0,1
33620,-95.2380952380952,4,1,0,100,0,1
33679,-95.5420098217186,4,1,0,100,0,1
33737,-95.8469515877048,4,1,0,100,0,1
33796,-96.1538461538461,4,1,0,100,0,1
33854,-96.4636428530087,4,1,0,100,0,1
33913,-96.774505724212,4,1,0,100,0,1
33971,-97.0873786407767,4,1,0,100,0,1
34059,-97.5609756097561,4,1,0,100,0,1
34147,-98.0392156862745,4,1,0,100,0,1
34205,-98.3613007298408,4,1,0,100,0,1
34264,-98.6845351464972,4,1,0,100,0,1
34322,-99.009900990099,4,1,0,100,0,1
34381,-99.3384062146107,4,1,0,100,0,1
34439,-99.6681052096519,4,1,0,100,0,1
34498,-100,4,1,0,90,0,0
45433,-101.698362656361,4,1,0,90,0,0
45492,-103.455410717981,4,1,0,90,0,0
45550,-105.263157894737,4,1,0,90,0,0
45609,-107.146683810136,4,1,0,90,0,0
45667,-109.091702485109,4,1,0,90,0,0
45726,-111.111111111111,4,1,0,80,0,0
45813,-111.111111111111,4,1,0,70,0,0
55550,-111.111111111111,4,1,0,75,0,0
56954,-105.263157894737,4,1,0,80,0,0
67480,-105.263157894737,4,1,0,85,0,0
67568,-104.575163398693,4,1,0,85,0,0
67656,-103.896103896104,4,1,0,85,0,0
67743,-103.225806451613,4,1,0,85,0,0
67831,-102.564102564103,4,1,0,85,0,0
67919,-101.910828025478,4,1,0,85,0,0
68006,-101.26582278481,4,1,0,85,0,0
68094,-100.62893081761,4,1,0,85,0,0
68182,-100,4,1,0,90,0,0
81778,-99.009900990099,4,1,0,90,0,0
81866,-98.0392156862745,4,1,0,90,0,0
81954,-97.0873786407767,4,1,0,90,0,0
82041,-96.1538461538461,4,1,0,90,0,0
82129,-95.2380952380952,4,1,0,90,0,0
82217,350.877192982456,4,1,0,100,1,1
82217,-94.3396226415094,4,1,0,100,0,1
103678,-94.6431951542684,4,1,0,100,0,1
103737,-94.9370092943332,4,1,0,100,0,1
103795,-95.2380952380952,4,1,0,100,0,1
103883,-95.6937799043062,4,1,0,100,0,1
103971,-96.1538461538461,4,1,0,100,0,1
104029,-96.4636428530087,4,1,0,100,0,1
104088,-96.7773153972709,4,1,0,100,0,1
104146,-97.0873786407767,4,1,0,100,0,1
104205,-97.4032298911032,4,1,0,100,0,1
104263,-97.7201880136417,4,1,0,100,0,1
104322,-98.0392156862745,4,1,0,100,0,1
104380,-98.3613007298408,4,1,0,100,0,1
104439,-98.6845351464972,4,1,0,100,0,1
104497,-99.009900990099,4,1,0,100,0,1
104556,-99.3443274389032,4,1,0,100,0,1
104614,-99.6710854181202,4,1,0,100,0,1
104673,-100,4,1,0,90,0,0
115608,-101.698362656361,4,1,0,90,0,0
115667,-103.455410717981,4,1,0,90,0,0
115725,-105.263157894737,4,1,0,90,0,0
115784,-107.146683810136,4,1,0,90,0,0
115842,-109.091702485109,4,1,0,90,0,0
115901,-111.111111111111,4,1,0,80,0,0
115988,-111.111111111111,4,1,0,70,0,0
125725,-111.111111111111,4,1,0,75,0,0
127129,-105.263157894737,4,1,0,80,0,0
137655,-105.263157894737,4,1,0,85,0,0
137743,-104.575163398693,4,1,0,85,0,0
137831,-103.896103896104,4,1,0,85,0,0
137918,-103.225806451613,4,1,0,85,0,0
138006,-102.564102564103,4,1,0,85,0,0
138094,-101.910828025478,4,1,0,85,0,0
138181,-101.26582278481,4,1,0,85,0,0
138269,-100.62893081761,4,1,0,85,0,0
138357,-100,4,1,0,90,0,0
151953,-99.009900990099,4,1,0,90,0,0
152041,-98.0392156862745,4,1,0,90,0,0
152129,-97.0873786407767,4,1,0,90,0,0
152216,-96.1538461538461,4,1,0,90,0,0
152304,-95.2380952380952,4,1,0,90,0,0
152392,350.877192982456,4,1,0,100,1,1
152392,-94.3396226415094,4,1,0,100,0,1
173853,-94.9370092943332,4,1,0,100,0,1
173912,-95.5420098217186,4,1,0,100,0,1
173970,-96.1538461538461,4,1,0,100,0,1
174029,-96.7773153972709,4,1,0,100,0,1
174087,-97.4032298911032,4,1,0,100,0,1
174146,-98.0392156862745,4,1,0,100,0,1
174204,-98.6845351464972,4,1,0,100,0,1
174263,-99.3384062146107,4,1,0,100,0,1
174321,-100,4,1,0,100,0,1
174409,-101.010101010101,4,1,0,100,0,1
174497,-102.040816326531,4,1,0,100,0,1
174555,-102.740077876979,4,1,0,100,0,1
174614,-103.455410717981,4,1,0,100,0,1
174672,-104.166666666667,4,1,0,100,0,1
174731,-104.895471662488,4,1,0,100,0,1
174789,-105.63454672216,4,1,0,100,0,1
174848,-106.382978723404,4,1,0,90,0,0
174935,-106.382978723404,4,1,0,65,0,0
177655,-106.382978723404,4,1,0,70,0,0
180462,-100,4,1,0,75,0,0
181865,-100,4,1,0,80,0,0
183269,-100,4,1,0,85,0,0
184672,-100,4,1,0,90,0,0
186076,-94.3396226415094,4,1,0,95,0,1
199760,-96.1538461538461,4,1,0,95,0,1
199848,-97.0873786407767,4,1,0,95,0,1
199935,-98.0392156862745,4,1,0,95,0,1
200023,-99.009900990099,4,1,0,95,0,1
200111,350.877192982456,4,1,0,85,1,0
200198,-100,4,1,0,80,0,0
208532,-100,4,1,0,85,0,0
209935,-100,4,1,0,90,0,0
210695,-99.502487562189,4,1,0,90,0,0
210754,-99.009900990099,4,1,0,90,0,0
210812,-98.5221674876847,4,1,0,90,0,0
210871,-98.0392156862745,4,1,0,90,0,0
210929,-97.5609756097561,4,1,0,90,0,0
210988,-97.0873786407767,4,1,0,90,0,0
211046,-96.6183574879227,4,1,0,90,0,0
211105,-96.1538461538461,4,1,0,90,0,0
211163,-95.6937799043062,4,1,0,90,0,0
211222,-95.2380952380952,4,1,0,90,0,0
211280,-94.7867298578199,4,1,0,90,0,0
211339,-94.3396226415094,4,1,0,100,0,1
221572,-94.0441819566832,4,1,0,100,0,1
221631,-93.7558597412338,4,1,0,100,0,1
221689,-93.4579439252336,4,1,0,100,0,1
221748,-93.1705953601043,4,1,0,100,0,1
221806,-92.8850083596508,4,1,0,100,0,1
221865,-92.5925925925926,4,1,0,100,0,1
221923,-92.3105326317733,4,1,0,100,0,1
221982,-92.0301859009755,4,1,0,100,0,1
222040,-91.743119266055,4,1,0,100,0,1
222128,-91.324200913242,4,1,0,100,0,1
222216,-90.9090909090909,4,1,0,100,0,1
222274,-90.637179370978,4,1,0,100,0,1
222333,-90.3668895716609,4,1,0,100,0,1
222391,-90.0900900900901,4,1,0,100,0,1
222450,-89.8230485942693,4,1,0,100,0,1
222508,-89.5575855274942,4,1,0,100,0,1
222567,-89.2857142857143,4,1,0,100,0,1
244029,-89.5527734493937,4,1,0,100,0,1
244087,-89.8206282054737,4,1,0,100,0,1
244146,-90.0900900900901,4,1,0,100,0,1
244233,-90.4977375565611,4,1,0,100,0,1
244321,-90.0900900900901,4,1,0,100,0,1
244380,-91.1909538573773,4,1,0,100,0,1
244438,-91.4662032379036,4,1,0,100,0,1
244496,-91.743119266055,4,1,0,100,0,1
244555,-92.0301859009755,4,1,0,100,0,1
244613,-92.3105326317733,4,1,0,100,0,1
244672,-92.5925925925926,4,1,0,100,0,1
244730,-92.8850083596508,4,1,0,100,0,1
244789,-93.1705953601043,4,1,0,100,0,1
244847,-93.4579439252336,4,1,0,100,0,1
244906,-93.7558597412338,4,1,0,100,0,1
244964,-94.0441819566832,4,1,0,100,0,1
245023,-94.3396226415094,4,1,0,90,0,0

[HitObjects]
256,192,534,5,0,0:0:0:0:
318,162,849,1,8,0:0:0:0:
318,162,1165,1,0,0:0:0:0:
307,155,1481,1,8,0:0:0:0:
306,149,1797,1,8,0:0:0:0:
306,149,2112,1,0,0:0:0:0:
105,156,2428,1,8,0:0:0:0:
105,156,2744,1,8,0:0:0:0:
105,156,3060,1,0,0:0:0:0:
105,156,3376,1,8,0:0:0:0:
105,156,3691,1,0,0:0:0:0:
105,156,4007,1,0,0:0:0:0:
240,133,4323,1,8,0:0:0:0:
132,158,4639,1,0,0:0:0:0:
132,158,4955,1,8,0:0:0:0:
132,158,5270,1,8,0:0:0:0:
132,158,5586,1,0,0:0:0:0:
132,158,5902,1,8,0:0:0:0:
132,158,6218,1,8,0:0:0:0:
132,158,6534,1,0,0:0:0:0:
132,158,6849,1,8,0:0:0:0:
132,158,7165,1,0,0:0:0:0:
132,158,7481,1,8,0:0:0:0:
132,158,7797,1,8,0:0:0:0:
240,133,8112,1,0,0:0:0:0:
256,192,8428,8,0,10639,0:0:0:0:
336,117,10989,5,0,0:0:0:0:
336,117,11077,1,0,0:0:0:0:
203,113,11165,1,0,0:0:0:0:
157,143,11253,1,0,0:0:0:0:
145,153,11340,1,8,0:0:0:0:
133,149,11428,1,8,0:0:0:0:
194,166,11516,1,0,0:0:0:0:
305,133,11691,1,8,0:0:0:0:
317,102,11779,1,8,0:0:0:0:
305,133,11867,1,8,0:0:0:0:
216,117,11954,1,8,0:0:0:0:
317,102,12042,1,4,0:0:0:0:
145,153,12217,1,0,0:0:0:0:
192,128,12305,1,0,0:0:0:0:
145,153,12392,1,8,0:0:0:0:
145,153,12568,1,8,0:0:0:0:
79,137,12656,1,8,0:0:0:0:
79,137,12743,1,0,0:0:0:0:
208,103,12831,1,0,0:0:0:0:
79,137,12919,1,8,0:0:0:0:
79,137,13094,1,8,0:0:0:0:
145,153,13270,1,0,0:0:0:0:
23,147,13620,1,0,0:0:0:0:
279,98,13796,1,8,0:0:0:0:
279,98,13971,1,0,0:0:0:0:
110,145,14059,1,8,0:0:0:0:
113,145,14147,1,0,0:0:0:0:
132,130,14322,1,0,0:0:0:0:
128,128,14410,1,0,0:0:0:0:
135,131,14498,1,8,0:0:0:0:
132,130,14673,1,0,0:0:0:0:
235,217,14849,1,8,0:0:0:0:
235,217,15024,1,8,0:0:0:0:
286,168,15112,1,0,0:0:0:0:
235,217,15199,1,8,0:0:0:0:
208,135,15375,1,0,0:0:0:0:
162,137,15463,1,0,0:0:0:0:
208,135,15550,1,8,0:0:0:0:
228,153,15638,1,8,0:0:0:0:
208,135,15726,1,0,0:0:0:0:
208,135,15901,1,8,0:0:0:0:
294,127,16077,1,0,0:0:0:0:
125,153,16427,1,0,0:0:0:0:
125,153,16603,1,8,0:0:0:0:
167,151,16778,1,8,0:0:0:0:
125,153,16866,1,8,0:0:0:0:
125,153,16954,1,0,0:0:0:0:
125,153,17129,1,0,0:0:0:0:
125,153,17305,1,8,0:0:0:0:
170,87,17392,1,8,0:0:0:0:
170,108,17480,1,8,0:0:0:0:
192,160,17568,1,8,0:0:0:0:
291,124,17656,1,0,0:0:0:0:
199,138,17831,1,0,0:0:0:0:
127,141,17919,1,0,0:0:0:0:
199,138,18006,1,8,0:0:0:0:
237,103,18182,1,0,0:0:0:0:
234,89,18270,1,8,0:0:0:0:
234,89,18357,1,0,0:0:0:0:
162,53,18445,1,0,0:0:0:0:
234,89,18533,1,8,0:0:0:0:
234,89,18708,1,8,0:0:0:0:
177,32,18884,1,0,0:0:0:0:
228,72,19234,1,0,0:0:0:0:
228,72,19410,1,8,0:0:0:0:
215,89,19585,1,8,0:0:0:0:
221,79,19673,1,8,0:0:0:0:
221,79,19761,1,0,0:0:0:0:
221,79,19936,1,0,0:0:0:0:
312,169,20112,1,8,0:0:0:0:
96,128,20199,1,0,0:0:0:0:
330,181,20287,1,8,0:0:0:0:
74,128,20375,1,8,0:0:0:0:
330,181,20463,1,0,0:0:0:0:
259,150,20638,1,0,0:0:0:0:
259,150,20813,1,8,0:0:0:0:
259,150,20989,1,8,0:0:0:0:
277,117,21077,1,8,0:0:0:0:
277,117,21164,1,0,0:0:0:0:
277,117,21340,1,0,0:0:0:0:
277,117,21427,1,0,0:0:0:0:
280,138,21515,1,8,0:0:0:0:
280,138,21691,1,8,0:0:0:0:
221,138,21778,1,0,0:0:0:0:
221,138,21866,1,0,0:0:0:0:
244,138,21954,1,0,0:0:0:0:
362,138,22041,1,8,0:0:0:0:
362,138,22100,1,0,0:0:0:0:
194,133,22158,1,0,0:0:0:0:
362,138,22217,1,8,0:0:0:0:
161,171,22305,1,8,0:0:0:0:
437,160,22392,1,0,0:0:0:0:
170,171,22480,1,8,0:0:0:0:
345,117,22568,1,0,0:0:0:0:
103,134,22626,1,8,0:0:0:0:
103,134,22685,1,8,0:0:0:0:
118,137,22743,1,0,0:0:0:0:
103,134,22802,1,8,0:0:0:0:
183,88,22860,1,8,0:0:0:0:
183,88,22919,1,0,0:0:0:0:
183,88,22977,1,8,0:0:0:0:
183,88,23036,1,8,0:0:0:0:
183,88,23094,1,0,0:0:0:0:
183,88,23153,1,8,0:0:0:0:
183,88,23211,1,8,0:0:0:0:
70,144,23270,1,0,0:0:0:0:
288,192,23445,1,0,0:0:0:0:
128,128,23533,1,0,0:0:0:0:
32,320,23620,1,8,0:0:0:0:
192,128,23796,1,0,0:0:0:0:
192,128,23884,1,8,0:0:0:0:
192,128,23971,1,0,0:0:0:0:
143,139,24059,1,0,0:0:0:0:
192,128,24147,1,8,0:0:0:0:
192,128,24322,1,8,0:0:0:0:
192,128,24498,1,0,0:0:0:0:
96,160,24849,1,0,0:0:0:0:
256,128,25024,1,8,0:0:0:0:
160,160,25199,1,8,0:0:0:0:
160,160,25287,1,8,0:0:0:0:
160,160,25375,1,0,0:0:0:0:
160,160,25550,1,8,0:0:0:0:
224,128,25638,1,0,0:0:0:0:
192,160,25726,1,8,0:0:0:0:
192,160,25901,1,0,0:0:0:0:
96,160,26077,1,8,0:0:0:0:
256,160,26252,1,0,0:0:0:0:
256,160,26340,1,0,0:0:0:0:
256,160,26427,1,8,0:0:0:0:
256,160,26603,1,8,0:0:0:0:
256,160,26691,1,0,0:0:0:0:
256,160,26778,1,8,0:0:0:0:
256,160,26866,1,8,0:0:0:0:
256,160,26954,1,0,0:0:0:0:
256,160,27129,1,8,0:0:0:0:
160,96,27305,1,0,0:0:0:0:
256,128,27656,1,0,0:0:0:0:
256,128,27831,1,8,0:0:0:0:
128,128,28006,1,8,0:0:0:0:
128,128,28094,1,8,0:0:0:0:
128,128,28182,1,0,0:0:0:0:
128,128,28357,1,0,0:0:0:0:
320,160,28533,1,8,0:0:0:0:
384,192,28620,1,8,0:0:0:0:
320,160,28708,1,8,0:0:0:0:
384,192,28796,1,8,0:0:0:0:
384,192,28884,1,0,0:0:0:0:
384,192,29059,1,0,0:0:0:0:
384,192,29234,1,8,0:0:0:0:
228,121,29410,1,8,0:0:0:0:
213,171,29498,1,8,0:0:0:0:
228,113,29585,1,0,0:0:0:0:
156,143,29673,1,0,0:0:0:0:
228,121,29761,1,8,0:0:0:0:
250,83,29936,1,8,0:0:0:0:
250,83,30112,1,4,0:0:0:0:
250,83,30463,1,4,0:0:0:0:
250,83,30638,1,8,0:0:0:0:
114,157,30813,1,12,0:0:0:0:
176,143,31164,1,0,0:0:0:0:
166,146,31340,1,8,0:0:0:0:
160,96,31427,1,0,0:0:0:0:
217,131,31515,1,8,0:0:0:0:
217,131,31603,1,8,0:0:0:0:
217,131,31691,1,0,0:0:0:0:
244,149,31866,1,0,0:0:0:0:
244,149,32041,1,8,0:0:0:0:
291,104,32217,1,8,0:0:0:0:
256,128,32305,1,8,0:0:0:0:
291,104,32392,1,0,0:0:0:0:
330,64,32568,1,0,0:0:0:0:
132,117,32656,1,0,0:0:0:0:
330,64,32743,1,8,0:0:0:0:
303,38,32919,1,8,0:0:0:0:
303,38,33006,1,0,0:0:0:0:
303,38,33094,1,0,0:0:0:0:
14,99,33182,1,0,0:0:0:0:
303,38,33270,1,8,0:0:0:0:
303,38,33357,1,8,0:0:0:0:
316,120,33445,1,0,0:0:0:0:
61,121,33503,1,8,0:0:0:0:
179,124,33562,1,8,0:0:0:0:
179,124,33620,1,0,0:0:0:0:
179,124,33679,1,8,0:0:0:0:
194,139,33737,1,8,0:0:0:0:
160,160,33796,1,0,0:0:0:0:
128,160,33854,1,8,0:0:0:0:
64,160,33913,1,8,0:0:0:0:
163,138,33971,1,0,0:0:0:0:
64,160,34059,1,8,0:0:0:0:
224,64,34147,1,0,0:0:0:0:
288,64,34205,1,0,0:0:0:0:
288,64,34264,1,0,0:0:0:0:
288,64,34322,1,8,0:0:0:0:
288,64,34381,1,8,0:0:0:0:
235,144,34439,1,8,0:0:0:0:
256,192,34498,1,0,0:0:0:0:
256,192,34673,1,8,0:0:0:0:
256,192,34761,1,0,0:0:0:0:
256,192,34849,1,8,0:0:0:0:
256,192,35024,1,0,0:0:0:0:
256,192,35112,1,0,0:0:0:0:
256,192,35199,1,8,0:0:0:0:
256,192,35375,1,8,0:0:0:0:
256,192,35550,1,0,0:0:0:0:
256,192,35638,1,0,0:0:0:0:
256,192,35726,1,8,0:0:0:0:
256,192,35813,1,8,0:0:0:0:
256,192,35901,1,0,0:0:0:0:
256,192,36077,1,0,0:0:0:0:
256,192,36252,1,8,0:0:0:0:
256,192,36603,1,0,0:0:0:0:
256,192,36691,1,0,0:0:0:0:
256,192,36778,1,8,0:0:0:0:
256,192,36866,1,0,0:0:0:0:
256,192,36954,1,8,0:0:0:0:
256,192,37041,1,8,0:0:0:0:
256,192,37129,1,0,0:0:0:0:
256,192,37305,1,4,0:0:0:0:
256,192,37480,1,8,0:0:0:0:
256,192,37656,1,8,0:0:0:0:
256,192,37743,1,8,0:0:0:0:
256,192,37831,1,0,0:0:0:0:
256,192,37919,1,0,0:0:0:0:
256,192,38006,1,8,0:0:0:0:
256,192,38182,1,0,0:0:0:0:
256,192,38270,1,0,0:0:0:0:
256,192,38357,1,8,0:0:0:0:
256,192,38533,1,4,0:0:0:0:
256,192,38884,1,4,0:0:0:0:
256,192,39059,1,8,0:0:0:0:
256,192,39234,1,12,0:0:0:0:
256,192,39585,1,12,0:0:0:0:
256,192,39761,1,0,0:0:0:0:
256,192,39819,1,8,0:0:0:0:
256,192,39878,1,8,0:0:0:0:
256,192,39936,1,0,0:0:0:0:
256,192,39995,1,8,0:0:0:0:
256,192,40053,1,8,0:0:0:0:
256,192,40112,1,0,0:0:0:0:
256,192,40287,1,8,0:0:0:0:
256,192,40375,1,0,0:0:0:0:
256,192,40463,1,8,0:0:0:0:
256,192,40638,1,0,0:0:0:0:
256,192,40726,1,0,0:0:0:0:
256,192,40813,1,8,0:0:0:0:
256,192,40989,1,8,0:0:0:0:
256,192,41164,1,0,0:0:0:0:
256,192,41252,1,0,0:0:0:0:
256,192,41340,1,8,0:0:0:0:
256,192,41427,1,8,0:0:0:0:
256,192,41515,1,0,0:0:0:0:
256,192,41691,1,0,0:0:0:0:
256,192,41866,1,8,0:0:0:0:
256,192,42217,1,0,0:0:0:0:
256,192,42305,1,0,0:0:0:0:
256,192,42392,1,8,0:0:0:0:
256,192,42480,1,0,0:0:0:0:
256,192,42568,1,8,0:0:0:0:
256,192,42656,1,8,0:0:0:0:
256,192,42743,1,0,0:0:0:0:
256,192,42919,1,4,0:0:0:0:
256,192,43094,1,8,0:0:0:0:
256,192,43182,1,0,0:0:0:0:
256,192,43270,1,8,0:0:0:0:
256,192,43445,1,0,0:0:0:0:
256,192,43620,1,8,0:0:0:0:
256,192,43708,1,8,0:0:0:0:
256,192,43796,1,0,0:0:0:0:
256,192,43884,1,0,0:0:0:0:
256,192,43971,1,8,0:0:0:0:
256,192,44147,1,4,0:0:0:0:
256,192,44498,1,4,0:0:0:0:
256,192,44849,1,12,0:0:0:0:
256,192,45199,1,12,0:0:0:0:
256,192,45375,1,0,0:0:0:0:
256,192,45433,1,8,0:0:0:0:
256,192,45492,1,8,0:0:0:0:
256,192,45550,1,0,0:0:0:0:
256,192,45609,1,8,0:0:0:0:
256,192,45667,1,8,0:0:0:0:
256,192,45726,1,0,0:0:0:0:
256,192,46077,1,8,0:0:0:0:
256,192,46252,1,8,0:0:0:0:
256,192,46603,1,0,0:0:0:0:
256,192,47129,1,8,0:0:0:0:
256,192,47656,1,0,0:0:0:0:
256,192,47831,1,8,0:0:0:0:
256,192,48533,1,8,0:0:0:0:
256,192,48884,1,0,0:0:0:0:
256,192,49059,1,0,0:0:0:0:
256,192,49410,1,8,0:0:0:0:
256,192,49936,1,0,0:0:0:0:
256,192,50463,1,8,0:0:0:0:
256,192,50638,1,0,0:0:0:0:
256,192,51340,1,8,0:0:0:0:
256,192,51691,1,0,0:0:0:0:
256,192,51866,1,8,0:0:0:0:
256,192,52217,1,0,0:0:0:0:
256,192,52743,1,0,0:0:0:0:
256,192,53094,1,8,0:0:0:0:
256,192,53270,1,0,0:0:0:0:
256,192,53620,1,8,0:0:0:0:
256,192,54147,1,8,0:0:0:0:
256,192,54498,1,0,0:0:0:0:
256,192,54673,1,0,0:0:0:0:
256,192,55024,1,0,0:0:0:0:
256,192,55199,1,8,0:0:0:0:
256,192,55550,1,0,0:0:0:0:
256,192,55901,1,0,0:0:0:0:
256,192,56077,1,8,0:0:0:0:
256,192,56164,1,0,0:0:0:0:
256,192,56252,1,8,0:0:0:0:
256,192,56427,1,8,0:0:0:0:
256,192,56603,1,0,0:0:0:0:
256,192,56778,1,0,0:0:0:0:
256,192,56954,1,12,0:0:0:0:
256,192,57305,1,0,0:0:0:0:
256,192,57480,1,8,0:0:0:0:
256,192,57831,1,8,0:0:0:0:
256,192,58006,1,0,0:0:0:0:
256,192,58182,1,0,0:0:0:0:
256,192,58357,1,8,0:0:0:0:
256,192,58708,1,0,0:0:0:0:
256,192,58884,1,8,0:0:0:0:
256,192,59059,1,0,0:0:0:0:
256,192,59410,1,0,0:0:0:0:
256,192,59761,1,8,0:0:0:0:
256,192,60112,1,0,0:0:0:0:
256,192,60287,1,8,0:0:0:0:
256,192,60638,1,8,0:0:0:0:
256,192,60813,1,0,0:0:0:0:
256,192,60989,1,8,0:0:0:0:
256,192,61164,1,0,0:0:0:0:
256,192,61515,1,0,0:0:0:0:
256,192,61691,1,8,0:0:0:0:
256,192,61866,1,8,0:0:0:0:
256,192,62041,1,0,0:0:0:0:
256,192,62217,1,0,0:0:0:0:
256,192,62392,1,0,0:0:0:0:
256,192,62568,1,12,0:0:0:0:
256,192,62919,1,8,0:0:0:0:
256,192,63094,1,8,0:0:0:0:
256,192,63182,1,8,0:0:0:0:
256,192,63270,1,0,0:0:0:0:
256,192,63445,1,0,0:0:0:0:
256,192,63620,1,8,0:0:0:0:
256,192,63796,1,0,0:0:0:0:
256,192,63971,1,12,0:0:0:0:
256,192,64322,1,0,0:0:0:0:
256,192,64498,1,0,0:0:0:0:
256,192,64585,1,0,0:0:0:0:
256,192,64673,1,8,0:0:0:0:
256,192,64849,1,0,0:0:0:0:
256,192,65024,1,8,0:0:0:0:
256,192,65199,1,8,0:0:0:0:
256,192,65375,1,4,0:0:0:0:
256,192,65726,1,0,0:0:0:0:
256,192,66077,1,12,0:0:0:0:
256,192,66340,1,8,0:0:0:0:
256,192,66603,1,8,0:0:0:0:
256,192,66778,1,0,0:0:0:0:
256,192,66866,1,0,0:0:0:0:
256,192,66954,1,0,0:0:0:0:
256,192,67129,1,8,0:0:0:0:
256,192,67480,1,8,0:0:0:0:
256,192,67568,1,8,0:0:0:0:
256,192,67656,1,0,0:0:0:0:
256,192,67743,1,0,0:0:0:0:
256,192,67831,1,8,0:0:0:0:
256,192,67919,1,8,0:0:0:0:
256,192,68006,1,8,0:0:0:0:
256,192,68094,1,8,0:0:0:0:
256,192,68182,1,4,0:0:0:0:
256,192,68357,1,0,0:0:0:0:
256,192,68533,1,8,0:0:0:0:
256,192,68708,1,0,0:0:0:0:
256,192,68796,1,0,0:0:0:0:
256,192,68884,1,8,0:0:0:0:
256,192,68971,1,0,0:0:0:0:
256,192,69147,1,0,0:0:0:0:
256,192,69234,1,8,0:0:0:0:
256,192,69410,1,8,0:0:0:0:
256,192,69498,1,8,0:0:0:0:
256,192,69585,1,0,0:0:0:0:
256,192,69761,1,0,0:0:0:0:
256,192,69936,1,8,0:0:0:0:
256,192,70024,1,8,0:0:0:0:
256,192,70112,1,0,0:0:0:0:
256,192,70199,1,0,0:0:0:0:
256,192,70287,1,8,0:0:0:0:
256,192,70463,1,0,0:0:0:0:
256,192,70638,1,8,0:0:0:0:
256,192,70726,1,0,0:0:0:0:
256,192,70813,1,0,0:0:0:0:
256,192,70989,1,12,0:0:0:0:
256,192,71340,1,8,0:0:0:0:
256,192,71515,1,8,0:0:0:0:
256,192,71603,1,8,0:0:0:0:
256,192,71691,1,0,0:0:0:0:
256,192,71778,1,0,0:0:0:0:
256,192,71954,1,0,0:0:0:0:
256,192,72041,1,8,0:0:0:0:
256,192,72217,1,8,0:0:0:0:
256,192,72305,1,8,0:0:0:0:
256,192,72392,1,0,0:0:0:0:
256,192,72568,1,0,0:0:0:0:
256,192,72743,1,8,0:0:0:0:
256,192,72919,1,0,0:0:0:0:
256,192,73006,1,0,0:0:0:0:
256,192,73094,1,8,0:0:0:0:
256,192,73182,1,8,0:0:0:0:
256,192,73270,1,0,0:0:0:0:
256,192,73445,1,8,0:0:0:0:
256,192,73620,1,0,0:0:0:0:
256,192,73708,1,8,0:0:0:0:
256,192,73796,1,4,0:0:0:0:
256,192,74147,1,8,0:0:0:0:
256,192,74322,1,0,0:0:0:0:
256,192,74410,1,0,0:0:0:0:
256,192,74498,1,8,0:0:0:0:
256,192,74585,1,0,0:0:0:0:
256,192,74761,1,0,0:0:0:0:
256,192,74849,1,8,0:0:0:0:
256,192,75024,1,0,0:0:0:0:
256,192,75199,1,12,0:0:0:0:
256,192,75550,1,8,0:0:0:0:
256,192,75726,1,8,0:0:0:0:
256,192,75813,1,8,0:0:0:0:
256,192,75901,1,0,0:0:0:0:
256,192,75989,1,0,0:0:0:0:
256,192,76164,1,0,0:0:0:0:
256,192,76252,1,8,0:0:0:0:
256,192,76427,1,0,0:0:0:0:
256,192,76603,1,4,0:0:0:0:
256,192,76954,1,8,0:0:0:0:
256,192,77129,1,0,0:0:0:0:
256,192,77305,1,0,0:0:0:0:
256,192,77392,1,0,0:0:0:0:
256,192,77480,1,0,0:0:0:0:
256,192,77656,1,8,0:0:0:0:
256,192,77831,1,8,0:0:0:0:
256,192,77919,1,8,0:0:0:0:
256,192,78006,1,0,0:0:0:0:
256,192,78182,1,0,0:0:0:0:
256,192,78357,1,8,0:0:0:0:
256,192,78533,1,8,0:0:0:0:
256,192,78620,1,0,0:0:0:0:
256,192,78708,1,8,0:0:0:0:
256,192,78796,1,8,0:0:0:0:
256,192,78884,1,0,0:0:0:0:
256,192,79059,1,8,0:0:0:0:
256,192,79234,1,0,0:0:0:0:
256,192,79322,1,8,0:0:0:0:
256,192,79410,1,4,0:0:0:0:
256,192,79761,1,8,0:0:0:0:
256,192,79936,1,0,0:0:0:0:
256,192,80024,1,0,0:0:0:0:
256,192,80112,1,8,0:0:0:0:
256,192,80287,1,0,0:0:0:0:
256,192,80375,1,8,0:0:0:0:
256,192,80463,1,0,0:0:0:0:
256,192,80550,1,0,0:0:0:0:
256,192,80638,1,8,0:0:0:0:
256,192,80726,1,8,0:0:0:0:
256,192,80813,1,4,0:0:0:0:
256,192,81077,1,12,0:0:0:0:
256,192,81340,1,12,0:0:0:0:
256,192,81691,1,8,0:0:0:0:
256,192,81778,1,0,0:0:0:0:
256,192,81866,1,8,0:0:0:0:
256,192,81954,1,8,0:0:0:0:
256,192,82041,1,8,0:0:0:0:
256,192,82129,1,8,0:0:0:0:
256,192,82217,1,4,0:0:0:0:
256,192,82392,1,0,0:0:0:0:
256,192,82567,1,8,0:0:0:0:
256,192,82655,1,0,0:0:0:0:
256,192,82743,1,8,0:0:0:0:
256,192,82831,1,8,0:0:0:0:
256,192,82918,1,0,0:0:0:0:
256,192,83094,1,0,0:0:0:0:
256,192,83181,1,0,0:0:0:0:
256,192,83269,1,8,0:0:0:0:
256,192,83445,1,0,0:0:0:0:
256,192,83795,1,0,0:0:0:0:
256,192,83971,1,8,0:0:0:0:
256,192,84146,1,8,0:0:0:0:
256,192,84234,1,0,0:0:0:0:
256,192,84322,1,8,0:0:0:0:
256,192,84497,1,0,0:0:0:0:
256,192,84585,1,0,0:0:0:0:
256,192,84673,1,8,0:0:0:0:
256,192,84760,1,0,0:0:0:0:
256,192,84848,1,8,0:0:0:0:
256,192,84936,1,8,0:0:0:0:
256,192,85024,1,0,0:0:0:0:
256,192,85199,1,0,0:0:0:0:
256,192,85374,1,8,0:0:0:0:
256,192,85550,1,0,0:0:0:0:
256,192,85638,1,0,0:0:0:0:
256,192,85725,1,8,0:0:0:0:
256,192,85813,1,8,0:0:0:0:
256,192,85901,1,0,0:0:0:0:
256,192,86076,1,8,0:0:0:0:
256,192,86252,1,0,0:0:0:0:
256,192,86339,1,0,0:0:0:0:
256,192,86427,1,0,0:0:0:0:
256,192,86602,1,0,0:0:0:0:
256,192,86778,1,8,0:0:0:0:
256,192,86866,1,8,0:0:0:0:
256,192,86953,1,0,0:0:0:0:
256,192,87041,1,8,0:0:0:0:
256,192,87129,1,0,0:0:0:0:
256,192,87304,1,0,0:0:0:0:
256,192,87480,1,8,0:0:0:0:
256,192,87743,1,8,0:0:0:0:
256,192,87831,1,0,0:0:0:0:
256,192,88006,1,0,0:0:0:0:
256,192,88094,1,0,0:0:0:0:
256,192,88181,1,8,0:0:0:0:
256,192,88357,1,0,0:0:0:0:
256,192,88532,1,8,0:0:0:0:
256,192,88620,1,8,0:0:0:0:
256,192,88708,1,0,0:0:0:0:
256,192,88795,1,0,0:0:0:0:
256,192,88883,1,8,0:0:0:0:
256,192,89059,1,0,0:0:0:0:
256,192,89409,1,0,0:0:0:0:
256,192,89585,1,8,0:0:0:0:
256,192,89760,1,8,0:0:0:0:
256,192,89848,1,8,0:0:0:0:
256,192,89936,1,0,0:0:0:0:
256,192,90024,1,8,0:0:0:0:
256,192,90111,1,0,0:0:0:0:
256,192,90199,1,0,0:0:0:0:
256,192,90287,1,8,0:0:0:0:
256,192,90462,1,8,0:0:0:0:
256,192,90550,1,8,0:0:0:0:
256,192,90638,1,0,0:0:0:0:
256,192,90813,1,0,0:0:0:0:
256,192,90901,1,0,0:0:0:0:
256,192,90988,1,8,0:0:0:0:
256,192,91076,1,0,0:0:0:0:
256,192,91164,1,8,0:0:0:0:
256,192,91339,1,0,0:0:0:0:
256,192,91515,1,8,0:0:0:0:
256,192,91602,1,0,0:0:0:0:
256,192,91690,1,8,0:0:0:0:
256,192,91866,1,0,0:0:0:0:
256,192,91953,1,0,0:0:0:0:
256,192,92041,1,8,0:0:0:0:
256,192,92100,1,0,0:0:0:0:
256,192,92158,1,0,0:0:0:0:
256,192,92217,1,8,0:0:0:0:
256,192,92304,1,0,0:0:0:0:
256,192,92392,1,8,0:0:0:0:
256,192,92450,1,8,0:0:0:0:
256,192,92509,1,8,0:0:0:0:
256,192,92567,1,0,0:0:0:0:
256,192,92655,1,0,0:0:0:0:
256,192,92743,1,8,0:0:0:0:
256,192,92801,1,0,0:0:0:0:
256,192,92860,1,0,0:0:0:0:
256,192,92918,1,8,0:0:0:0:
256,192,92977,1,0,0:0:0:0:
256,192,93035,1,0,0:0:0:0:
256,192,93094,1,8,0:0:0:0:
256,192,93152,1,0,0:0:0:0:
256,192,93211,1,0,0:0:0:0:
256,192,93269,1,8,0:0:0:0:
256,192,93328,1,8,0:0:0:0:
256,192,93386,1,8,0:0:0:0:
256,192,93445,1,0,0:0:0:0:
256,192,93620,1,0,0:0:0:0:
256,192,93795,1,8,0:0:0:0:
256,192,93883,1,0,0:0:0:0:
256,192,93971,1,8,0:0:0:0:
256,192,94059,1,8,0:0:0:0:
256,192,94146,1,0,0:0:0:0:
256,192,94322,1,0,0:0:0:0:
256,192,94409,1,0,0:0:0:0:
256,192,94497,1,8,0:0:0:0:
256,192,94673,1,0,0:0:0:0:
256,192,95024,1,0,0:0:0:0:
256,192,95199,1,8,0:0:0:0:
256,192,95374,1,0,0:0:0:0:
256,192,95462,1,8,0:0:0:0:
256,192,95550,1,0,0:0:0:0:
256,192,95638,1,0,0:0:0:0:
256,192,95725,1,8,0:0:0:0:
256,192,95813,1,0,0:0:0:0:
256,192,95901,1,8,0:0:0:0:
256,192,96076,1,8,0:0:0:0:
256,192,96164,1,8,0:0:0:0:
256,192,96252,1,0,0:0:0:0:
256,192,96427,1,0,0:0:0:0:
256,192,96602,1,8,0:0:0:0:
256,192,96778,1,8,0:0:0:0:
256,192,96866,1,8,0:0:0:0:
256,192,96953,1,0,0:0:0:0:
256,192,97041,1,0,0:0:0:0:
256,192,97129,1,0,0:0:0:0:
256,192,97304,1,8,0:0:0:0:
256,192,97480,1,8,0:0:0:0:
256,192,97567,1,8,0:0:0:0:
256,192,97655,1,8,0:0:0:0:
256,192,97831,1,0,0:0:0:0:
256,192,98006,1,8,0:0:0:0:
256,192,98181,1,8,0:0:0:0:
256,192,98269,1,0,0:0:0:0:
256,192,98357,1,8,0:0:0:0:
256,192,98532,1,0,0:0:0:0:
256,192,98620,1,0,0:0:0:0:
256,192,98708,1,8,0:0:0:0:
256,192,98795,1,8,0:0:0:0:
256,192,98883,1,8,0:0:0:0:
256,192,98971,1,8,0:0:0:0:
256,192,99059,1,4,0:0:0:0:
256,192,99234,1,0,0:0:0:0:
256,192,99409,1,8,0:0:0:0:
256,192,99585,1,4,0:0:0:0:
256,192,99936,1,4,0:0:0:0:
256,192,100111,1,8,0:0:0:0:
256,192,100287,1,4,0:0:0:0:
256,192,100638,1,4,0:0:0:0:
256,192,100813,1,8,0:0:0:0:
256,192,100988,1,12,0:0:0:0:
256,192,101339,1,0,0:0:0:0:
256,192,101515,1,8,0:0:0:0:
256,192,101602,1,0,0:0:0:0:
256,192,101690,1,8,0:0:0:0:
256,192,101778,1,8,0:0:0:0:
256,192,101866,1,0,0:0:0:0:
256,192,102041,1,0,0:0:0:0:
256,192,102217,1,8,0:0:0:0:
256,192,102304,1,8,0:0:0:0:
256,192,102392,1,0,0:0:0:0:
256,192,102480,1,8,0:0:0:0:
256,192,102655,1,8,0:0:0:0:
256,192,102743,1,0,0:0:0:0:
256,192,102831,1,0,0:0:0:0:
256,192,102918,1,8,0:0:0:0:
256,192,103094,1,8,0:0:0:0:
256,192,103181,1,8,0:0:0:0:
256,192,103269,1,0,0:0:0:0:
256,192,103357,1,8,0:0:0:0:
256,192,103445,1,0,0:0:0:0:
256,192,103532,1,0,0:0:0:0:
256,192,103620,1,8,0:0:0:0:
256,192,103678,1,0,0:0:0:0:
256,192,103737,1,0,0:0:0:0:
256,192,103795,1,8,0:0:0:0:
256,192,103883,1,8,0:0:0:0:
256,192,103971,1,0,0:0:0:0:
256,192,104029,1,8,0:0:0:0:
256,192,104088,1,8,0:0:0:0:
256,192,104146,1,0,0:0:0:0:
256,192,104205,1,8,0:0:0:0:
256,192,104263,1,8,0:0:0:0:
256,192,104322,1,0,0:0:0:0:
256,192,104380,1,8,0:0:0:0:
256,192,104439,1,8,0:0:0:0:
256,192,104497,1,0,0:0:0:0:
256,192,104556,1,8,0:0:0:0:
256,192,104614,1,8,0:0:0:0:
256,192,104673,1,0,0:0:0:0:
266,134,104848,1,8,0:0:0:0:
266,134,105024,1,8,0:0:0:0:
270,95,105111,1,8,0:0:0:0:
270,95,105199,1,0,0:0:0:0:
270,95,105374,1,8,0:0:0:0:
225,142,105550,1,0,0:0:0:0:
110,136,105638,1,0,0:0:0:0:
225,142,105725,1,8,0:0:0:0:
125,128,105813,1,0,0:0:0:0:
61,170,105901,1,8,0:0:0:0:
61,170,106076,1,8,0:0:0:0:
61,170,106164,1,8,0:0:0:0:
61,170,106252,1,0,0:0:0:0:
61,170,106427,1,8,0:0:0:0:
317,57,106778,1,0,0:0:0:0:
131,143,106866,1,8,0:0:0:0:
317,57,106953,1,0,0:0:0:0:
223,109,107041,1,0,0:0:0:0:
374,155,107129,1,8,0:0:0:0:
223,109,107216,1,8,0:0:0:0:
223,109,107304,1,0,0:0:0:0:
223,109,107480,1,4,0:0:0:0:
272,69,107655,1,8,0:0:0:0:
272,69,107831,1,8,0:0:0:0:
272,69,107918,1,8,0:0:0:0:
272,69,108006,1,0,0:0:0:0:
150,137,108094,1,0,0:0:0:0:
272,69,108181,1,8,0:0:0:0:
201,105,108357,1,0,0:0:0:0:
201,105,108445,1,0,0:0:0:0:
201,105,108532,1,8,0:0:0:0:
150,137,108708,1,4,0:0:0:0:
114,142,109059,1,4,0:0:0:0:
135,146,109234,1,8,0:0:0:0:
135,146,109409,1,12,0:0:0:0:
135,146,109760,1,12,0:0:0:0:
135,146,109936,1,0,0:0:0:0:
261,93,109994,1,8,0:0:0:0:
261,93,110053,1,8,0:0:0:0:
256,60,110111,1,0,0:0:0:0:
256,60,110170,1,8,0:0:0:0:
20,129,110228,1,8,0:0:0:0:
197,69,110287,1,0,0:0:0:0:
266,134,110462,1,8,0:0:0:0:
266,134,110638,1,8,0:0:0:0:
270,95,110725,1,8,0:0:0:0:
270,95,110813,1,0,0:0:0:0:
270,95,110988,1,8,0:0:0:0:
225,142,111164,1,0,0:0:0:0:
110,136,111252,1,0,0:0:0:0:
225,142,111339,1,8,0:0:0:0:
125,128,111427,1,0,0:0:0:0:
61,170,111515,1,8,0:0:0:0:
61,170,111690,1,8,0:0:0:0:
61,170,111778,1,8,0:0:0:0:
61,170,111866,1,0,0:0:0:0:
61,170,112041,1,8,0:0:0:0:
317,57,112392,1,0,0:0:0:0:
131,143,112480,1,8,0:0:0:0:
317,57,112567,1,0,0:0:0:0:
223,109,112655,1,0,0:0:0:0:
374,155,112743,1,8,0:0:0:0:
223,109,112830,1,8,0:0:0:0:
223,109,112918,1,0,0:0:0:0:
223,109,113094,1,4,0:0:0:0:
272,69,113269,1,8,0:0:0:0:
272,69,113445,1,8,0:0:0:0:
272,69,113532,1,8,0:0:0:0:
272,69,113620,1,0,0:0:0:0:
272,69,113795,1,8,0:0:0:0:
151,100,113883,1,0,0:0:0:0:
151,100,113971,1,8,0:0:0:0:
171,83,114059,1,0,0:0:0:0:
214,147,114146,1,8,0:0:0:0:
171,83,114322,1,4,0:0:0:0:
223,129,114673,1,4,0:0:0:0:
223,129,115024,1,12,0:0:0:0:
223,129,115374,1,12,0:0:0:0:
246,91,115550,1,0,0:0:0:0:
319,88,115608,1,8,0:0:0:0:
319,88,115667,1,8,0:0:0:0:
319,88,115725,1,0,0:0:0:0:
319,88,115784,1,8,0:0:0:0:
319,88,115842,1,8,0:0:0:0:
186,71,115901,1,0,0:0:0:0:
259,115,117129,1,0,0:0:0:0:
259,115,117304,1,0,0:0:0:0:
217,103,118006,1,8,0:0:0:0:
259,117,118708,1,0,0:0:0:0:
259,117,119936,1,0,0:0:0:0:
259,117,120111,1,0,0:0:0:0:
205,114,120813,1,8,0:0:0:0:
259,117,121515,1,0,0:0:0:0:
294,126,122743,1,0,0:0:0:0:
294,126,122918,1,0,0:0:0:0:
172,168,123620,1,8,0:0:0:0:
294,126,124322,1,0,0:0:0:0:
301,126,125550,1,0,0:0:0:0:
301,126,125725,1,0,0:0:0:0:
301,126,126076,1,0,0:0:0:0:
340,164,126339,1,0,0:0:0:0:
340,164,126427,1,0,0:0:0:0:
340,164,126602,1,0,0:0:0:0:
340,164,126778,1,8,0:0:0:0:
272,111,126866,1,0,0:0:0:0:
340,164,126953,1,0,0:0:0:0:
340,164,127129,1,4,0:0:0:0:
278,131,127480,1,0,0:0:0:0:
182,96,127655,1,8,0:0:0:0:
75,133,127831,1,0,0:0:0:0:
340,164,128006,1,8,0:0:0:0:
65,122,128181,1,0,0:0:0:0:
75,133,128532,1,0,0:0:0:0:
75,133,128883,1,0,0:0:0:0:
264,104,129059,1,8,0:0:0:0:
257,80,129234,1,0,0:0:0:0:
167,123,129585,1,0,0:0:0:0:
167,123,129936,1,0,0:0:0:0:
168,114,130287,1,0,0:0:0:0:
178,95,130462,1,8,0:0:0:0:
178,100,130638,1,0,0:0:0:0:
204,146,130813,1,8,0:0:0:0:
129,118,130988,1,0,0:0:0:0:
186,112,131164,1,0,0:0:0:0:
167,123,131339,1,0,0:0:0:0:
167,123,131690,1,0,0:0:0:0:
236,144,131866,1,8,0:0:0:0:
208,168,132041,1,0,0:0:0:0:
268,111,132216,1,0,0:0:0:0:
201,133,132392,1,8,0:0:0:0:
200,133,132567,1,0,0:0:0:0:
255,76,132743,1,12,0:0:0:0:
210,146,133094,1,0,0:0:0:0:
268,111,133269,1,8,0:0:0:0:
210,146,133445,1,0,0:0:0:0:
184,119,133532,1,0,0:0:0:0:
189,101,133620,1,0,0:0:0:0:
210,146,133795,1,8,0:0:0:0:
301,136,133971,1,8,0:0:0:0:
261,75,134146,1,4,0:0:0:0:
210,146,134497,1,0,0:0:0:0:
147,228,134673,1,8,0:0:0:0:
210,146,134848,1,0,0:0:0:0:
301,136,135024,1,8,0:0:0:0:
186,148,135111,1,8,0:0:0:0:
210,146,135199,1,8,0:0:0:0:
301,136,135374,1,0,0:0:0:0:
88,131,135550,1,4,0:0:0:0:
210,146,135901,1,8,0:0:0:0:
88,131,136252,1,4,0:0:0:0:
268,89,136515,1,8,0:0:0:0:
251,142,136602,1,0,0:0:0:0:
88,131,136778,1,8,0:0:0:0:
210,146,136953,1,0,0:0:0:0:
175,121,137041,1,0,0:0:0:0:
206,158,137129,1,0,0:0:0:0:
239,118,137304,1,8,0:0:0:0:
304,180,137655,1,8,0:0:0:0:
78,161,137743,1,8,0:0:0:0:
78,161,137831,1,0,0:0:0:0:
78,161,137918,1,0,0:0:0:0:
304,180,138006,1,8,0:0:0:0:
252,110,138094,1,8,0:0:0:0:
252,110,138181,1,8,0:0:0:0:
252,110,138269,1,8,0:0:0:0:
261,75,138357,1,4,0:0:0:0:
72,149,138708,1,8,0:0:0:0:
112,131,138883,1,0,0:0:0:0:
190,157,138971,1,8,0:0:0:0:
190,157,139059,1,0,0:0:0:0:
190,157,139234,1,0,0:0:0:0:
190,157,139409,1,8,0:0:0:0:
190,157,139585,1,8,0:0:0:0:
177,15,139673,1,8,0:0:0:0:
190,157,139760,1,0,0:0:0:0:
210,60,139848,1,0,0:0:0:0:
108,143,139936,1,0,0:0:0:0:
236,109,140111,1,8,0:0:0:0:
177,84,140287,1,0,0:0:0:0:
177,84,140462,1,8,0:0:0:0:
177,84,140550,1,8,0:0:0:0:
113,120,140638,1,0,0:0:0:0:
236,109,140813,1,8,0:0:0:0:
253,73,140988,1,0,0:0:0:0:
236,109,141164,1,4,0:0:0:0:
209,57,141515,1,8,0:0:0:0:
194,108,141690,1,8,0:0:0:0:
194,108,141778,1,8,0:0:0:0:
194,108,141866,1,0,0:0:0:0:
200,109,142041,1,0,0:0:0:0:
247,117,142216,1,8,0:0:0:0:
281,108,142392,1,0,0:0:0:0:
281,108,142480,1,0,0:0:0:0:
281,108,142567,1,8,0:0:0:0:
281,108,142655,1,8,0:0:0:0:
177,100,142743,1,0,0:0:0:0:
177,100,142918,1,8,0:0:0:0:
208,93,143094,1,0,0:0:0:0:
208,93,143269,1,0,0:0:0:0:
48,103,143357,1,8,0:0:0:0:
208,93,143445,1,0,0:0:0:0:
236,109,143620,1,8,0:0:0:0:
236,109,143795,1,8,0:0:0:0:
81,139,143883,1,8,0:0:0:0:
236,109,143971,1,4,0:0:0:0:
152,87,144322,1,8,0:0:0:0:
255,80,144497,1,0,0:0:0:0:
255,80,144585,1,8,0:0:0:0:
149,71,144673,1,0,0:0:0:0:
149,71,144848,1,0,0:0:0:0:
50,162,144936,1,0,0:0:0:0:
149,71,145024,1,8,0:0:0:0:
149,71,145199,1,8,0:0:0:0:
36,155,145374,1,4,0:0:0:0:
103,60,145725,1,8,0:0:0:0:
103,60,145901,1,8,0:0:0:0:
81,148,145988,1,8,0:0:0:0:
141,117,146076,1,0,0:0:0:0:
141,117,146252,1,0,0:0:0:0:
188,98,146339,1,0,0:0:0:0:
285,163,146427,1,8,0:0:0:0:
188,98,146602,1,8,0:0:0:0:
243,149,146778,1,4,0:0:0:0:
174,157,147129,1,8,0:0:0:0:
91,124,147304,1,0,0:0:0:0:
256,192,147480,1,0,0:0:0:0:
119,150,147567,1,8,0:0:0:0:
237,166,147655,1,0,0:0:0:0:
119,150,147743,1,0,0:0:0:0:
256,192,147831,1,8,0:0:0:0:
256,192,148006,1,8,0:0:0:0:
256,192,148094,1,8,0:0:0:0:
256,192,148181,1,0,0:0:0:0:
256,192,148357,1,0,0:0:0:0:
256,192,148532,1,8,0:0:0:0:
256,192,148708,1,8,0:0:0:0:
256,192,148795,1,0,0:0:0:0:
256,192,148883,1,8,0:0:0:0:
217,120,148971,1,8,0:0:0:0:
256,192,149059,1,0,0:0:0:0:
256,192,149234,1,8,0:0:0:0:
198,121,149409,1,0,0:0:0:0:
214,106,149497,1,8,0:0:0:0:
314,180,149585,1,4,0:0:0:0:
170,131,149936,1,8,0:0:0:0:
199,122,150111,1,8,0:0:0:0:
199,122,150199,1,8,0:0:0:0:
12,166,150287,1,0,0:0:0:0:
55,161,150462,1,0,0:0:0:0:
190,158,150550,1,0,0:0:0:0:
310,107,150638,1,8,0:0:0:0:
310,107,150725,1,0,0:0:0:0:
310,107,150813,1,8,0:0:0:0:
310,107,150901,1,8,0:0:0:0:
324,145,150988,1,4,0:0:0:0:
324,145,151252,1,4,0:0:0:0:
92,146,151515,1,12,0:0:0:0:
274,77,151866,1,0,0:0:0:0:
145,153,151953,1,0,0:0:0:0:
274,77,152041,1,8,0:0:0:0:
274,77,152129,1,8,0:0:0:0:
274,77,152216,1,8,0:0:0:0:
274,77,152304,1,8,0:0:0:0:
317,102,152392,1,4,0:0:0:0:
145,153,152567,1,0,0:0:0:0:
192,128,152655,1,0,0:0:0:0:
145,153,152742,1,8,0:0:0:0:
145,153,152918,1,8,0:0:0:0:
79,137,153006,1,8,0:0:0:0:
79,137,153093,1,0,0:0:0:0:
208,103,153181,1,0,0:0:0:0:
79,137,153269,1,8,0:0:0:0:
79,137,153444,1,8,0:0:0:0:
145,153,153620,1,0,0:0:0:0:
23,147,153970,1,0,0:0:0:0:
279,98,154146,1,8,0:0:0:0:
279,98,154321,1,0,0:0:0:0:
110,145,154409,1,8,0:0:0:0:
113,145,154497,1,0,0:0:0:0:
132,130,154672,1,0,0:0:0:0:
128,128,154760,1,0,0:0:0:0:
135,131,154848,1,8,0:0:0:0:
132,130,155023,1,0,0:0:0:0:
235,217,155199,1,8,0:0:0:0:
235,217,155374,1,8,0:0:0:0:
286,168,155462,1,0,0:0:0:0:
235,217,155549,1,8,0:0:0:0:
208,135,155725,1,0,0:0:0:0:
162,137,155813,1,0,0:0:0:0:
208,135,155900,1,8,0:0:0:0:
228,153,155988,1,8,0:0:0:0:
208,135,156076,1,0,0:0:0:0:
208,135,156251,1,8,0:0:0:0:
294,127,156427,1,0,0:0:0:0:
125,153,156777,1,0,0:0:0:0:
125,153,156953,1,8,0:0:0:0:
167,151,157128,1,8,0:0:0:0:
125,153,157216,1,8,0:0:0:0:
125,153,157304,1,0,0:0:0:0:
125,153,157479,1,0,0:0:0:0:
125,153,157655,1,8,0:0:0:0:
170,87,157742,1,8,0:0:0:0:
170,108,157830,1,8,0:0:0:0:
192,160,157918,1,8,0:0:0:0:
291,124,158006,1,0,0:0:0:0:
199,138,158181,1,0,0:0:0:0:
127,141,158269,1,0,0:0:0:0:
199,138,158356,1,8,0:0:0:0:
237,103,158532,1,0,0:0:0:0:
234,89,158620,1,8,0:0:0:0:
234,89,158707,1,0,0:0:0:0:
162,53,158795,1,0,0:0:0:0:
234,89,158883,1,8,0:0:0:0:
234,89,159058,1,8,0:0:0:0:
177,32,159234,1,0,0:0:0:0:
228,72,159584,1,0,0:0:0:0:
228,72,159760,1,8,0:0:0:0:
215,89,159935,1,8,0:0:0:0:
221,79,160023,1,8,0:0:0:0:
221,79,160111,1,0,0:0:0:0:
221,79,160286,1,0,0:0:0:0:
205,130,160374,1,0,0:0:0:0:
312,169,160462,1,8,0:0:0:0:
96,128,160549,1,0,0:0:0:0:
330,181,160637,1,8,0:0:0:0:
177,134,160725,1,8,0:0:0:0:
330,181,160813,1,0,0:0:0:0:
259,150,160988,1,0,0:0:0:0:
259,150,161163,1,8,0:0:0:0:
259,150,161339,1,0,0:0:0:0:
277,117,161427,1,8,0:0:0:0:
277,117,161514,1,0,0:0:0:0:
277,117,161690,1,0,0:0:0:0:
277,117,161777,1,0,0:0:0:0:
280,138,161865,1,8,0:0:0:0:
280,138,162041,1,8,0:0:0:0:
221,138,162128,1,0,0:0:0:0:
221,138,162216,1,0,0:0:0:0:
244,138,162304,1,0,0:0:0:0:
362,138,162391,1,8,0:0:0:0:
362,138,162450,1,0,0:0:0:0:
194,133,162508,1,0,0:0:0:0:
362,138,162567,1,8,0:0:0:0:
161,171,162655,1,8,0:0:0:0:
437,160,162742,1,0,0:0:0:0:
170,171,162830,1,8,0:0:0:0:
345,117,162918,1,0,0:0:0:0:
103,134,162976,1,8,0:0:0:0:
103,134,163035,1,8,0:0:0:0:
118,137,163093,1,0,0:0:0:0:
103,134,163152,1,8,0:0:0:0:
183,88,163210,1,8,0:0:0:0:
183,88,163269,1,0,0:0:0:0:
183,88,163327,1,8,0:0:0:0:
183,88,163386,1,8,0:0:0:0:
183,88,163444,1,0,0:0:0:0:
183,88,163503,1,8,0:0:0:0:
183,88,163561,1,8,0:0:0:0:
70,144,163620,1,0,0:0:0:0:
288,192,163795,1,0,0:0:0:0:
128,128,163883,1,0,0:0:0:0:
32,320,163970,1,8,0:0:0:0:
192,128,164146,1,0,0:0:0:0:
192,128,164234,1,8,0:0:0:0:
192,128,164321,1,0,0:0:0:0:
143,139,164409,1,0,0:0:0:0:
192,128,164497,1,8,0:0:0:0:
192,128,164672,1,8,0:0:0:0:
192,128,164848,1,0,0:0:0:0:
96,160,165199,1,0,0:0:0:0:
256,128,165374,1,8,0:0:0:0:
160,160,165549,1,8,0:0:0:0:
160,160,165637,1,8,0:0:0:0:
160,160,165725,1,0,0:0:0:0:
160,160,165900,1,8,0:0:0:0:
224,128,165988,1,0,0:0:0:0:
192,160,166076,1,8,0:0:0:0:
192,160,166251,1,0,0:0:0:0:
96,160,166427,1,8,0:0:0:0:
256,160,166602,1,0,0:0:0:0:
256,160,166690,1,0,0:0:0:0:
256,160,166777,1,8,0:0:0:0:
256,160,166953,1,8,0:0:0:0:
256,160,167041,1,0,0:0:0:0:
256,160,167128,1,8,0:0:0:0:
256,160,167216,1,8,0:0:0:0:
256,160,167304,1,0,0:0:0:0:
205,155,167392,1,0,0:0:0:0:
256,160,167479,1,8,0:0:0:0:
160,96,167655,1,0,0:0:0:0:
256,128,168006,1,0,0:0:0:0:
256,128,168181,1,8,0:0:0:0:
128,128,168356,1,8,0:0:0:0:
128,128,168444,1,8,0:0:0:0:
128,128,168532,1,0,0:0:0:0:
128,128,168707,1,0,0:0:0:0:
320,160,168883,1,8,0:0:0:0:
384,192,168970,1,8,0:0:0:0:
320,160,169058,1,8,0:0:0:0:
384,192,169146,1,8,0:0:0:0:
384,192,169234,1,0,0:0:0:0:
384,192,169409,1,0,0:0:0:0:
384,192,169584,1,8,0:0:0:0:
384,192,169760,1,8,0:0:0:0:
96,160,169848,1,8,0:0:0:0:
96,160,169935,1,0,0:0:0:0:
75,149,170023,1,0,0:0:0:0:
416,128,170111,1,8,0:0:0:0:
416,128,170286,1,8,0:0:0:0:
228,168,170462,1,4,0:0:0:0:
228,168,170813,1,4,0:0:0:0:
160,96,170988,1,8,0:0:0:0:
256,96,171163,1,12,0:0:0:0:
176,143,171514,1,0,0:0:0:0:
174,122,171602,1,0,0:0:0:0:
166,146,171690,1,8,0:0:0:0:
160,96,171777,1,0,0:0:0:0:
217,131,171865,1,8,0:0:0:0:
217,131,171953,1,8,0:0:0:0:
217,131,172041,1,0,0:0:0:0:
244,149,172216,1,0,0:0:0:0:
244,149,172391,1,8,0:0:0:0:
291,104,172567,1,8,0:0:0:0:
256,128,172655,1,8,0:0:0:0:
291,104,172742,1,0,0:0:0:0:
330,64,172918,1,0,0:0:0:0:
179,124,173006,1,0,0:0:0:0:
330,64,173093,1,8,0:0:0:0:
303,38,173269,1,8,0:0:0:0:
303,38,173356,1,0,0:0:0:0:
303,38,173444,1,0,0:0:0:0:
303,38,173532,1,0,0:0:0:0:
303,38,173620,1,8,0:0:0:0:
303,38,173707,1,8,0:0:0:0:
316,120,173795,1,0,0:0:0:0:
61,121,173853,1,8,0:0:0:0:
179,124,173912,1,8,0:0:0:0:
179,124,173970,1,0,0:0:0:0:
179,124,174029,1,8,0:0:0:0:
194,139,174087,1,8,0:0:0:0:
160,160,174146,1,0,0:0:0:0:
128,160,174204,1,8,0:0:0:0:
64,160,174263,1,8,0:0:0:0:
163,138,174321,1,0,0:0:0:0:
64,160,174409,1,8,0:0:0:0:
224,64,174497,1,0,0:0:0:0:
288,64,174555,1,0,0:0:0:0:
288,64,174614,1,0,0:0:0:0:
288,64,174672,1,8,0:0:0:0:
288,64,174731,1,8,0:0:0:0:
70,144,174789,1,8,0:0:0:0:
256,192,174848,1,0,0:0:0:0:
256,192,175111,1,0,0:0:0:0:
256,192,175374,1,0,0:0:0:0:
256,192,175549,1,0,0:0:0:0:
256,192,175813,1,0,0:0:0:0:
256,192,176076,1,0,0:0:0:0:
256,192,176251,1,0,0:0:0:0:
256,192,176514,1,0,0:0:0:0:
256,192,176777,1,0,0:0:0:0:
256,192,176953,1,8,0:0:0:0:
256,192,177041,1,8,0:0:0:0:
256,192,177128,1,8,0:0:0:0:
256,192,177304,1,0,0:0:0:0:
256,192,177392,1,0,0:0:0:0:
256,192,177479,1,0,0:0:0:0:
256,192,177655,1,12,0:0:0:0:
256,192,177918,1,8,0:0:0:0:
256,192,178181,1,0,0:0:0:0:
256,192,178356,1,8,0:0:0:0:
256,192,178620,1,8,0:0:0:0:
256,192,178883,1,0,0:0:0:0:
256,192,179058,1,8,0:0:0:0:
256,192,179321,1,8,0:0:0:0:
256,192,179584,1,0,0:0:0:0:
256,192,179760,1,8,0:0:0:0:
256,192,180023,1,8,0:0:0:0:
256,192,180286,1,0,0:0:0:0:
256,192,180462,1,0,0:0:0:0:
256,192,180549,1,0,0:0:0:0:
256,192,180637,1,0,0:0:0:0:
256,192,180725,1,0,0:0:0:0:
256,192,180813,1,0,0:0:0:0:
256,192,180900,1,0,0:0:0:0:
256,192,180988,1,0,0:0:0:0:
256,192,181076,1,0,0:0:0:0:
256,192,181163,1,0,0:0:0:0:
256,192,181251,1,0,0:0:0:0:
256,192,181339,1,0,0:0:0:0:
256,192,181427,1,0,0:0:0:0:
256,192,181514,1,0,0:0:0:0:
256,192,181602,1,0,0:0:0:0:
256,192,181690,1,0,0:0:0:0:
256,192,181777,1,0,0:0:0:0:
256,192,181865,1,0,0:0:0:0:
256,192,181953,1,0,0:0:0:0:
256,192,182041,1,0,0:0:0:0:
256,192,182128,1,0,0:0:0:0:
256,192,182216,1,0,0:0:0:0:
256,192,182304,1,0,0:0:0:0:
256,192,182392,1,0,0:0:0:0:
256,192,182479,1,0,0:0:0:0:
256,192,182567,1,8,0:0:0:0:
256,192,182655,1,8,0:0:0:0:
256,192,182742,1,8,0:0:0:0:
256,192,182830,1,8,0:0:0:0:
256,192,182918,1,0,0:0:0:0:
256,192,183006,1,0,0:0:0:0:
256,192,183093,1,0,0:0:0:0:
256,192,183181,1,0,0:0:0:0:
256,192,183269,1,8,0:0:0:0:
256,192,183356,1,0,0:0:0:0:
256,192,183444,1,0,0:0:0:0:
256,192,183532,1,8,0:0:0:0:
256,192,183620,1,0,0:0:0:0:
256,192,183707,1,0,0:0:0:0:
256,192,183795,1,8,0:0:0:0:
256,192,183883,1,0,0:0:0:0:
256,192,183970,1,8,0:0:0:0:
256,192,184058,1,0,0:0:0:0:
256,192,184146,1,0,0:0:0:0:
256,192,184234,1,8,0:0:0:0:
256,192,184321,1,0,0:0:0:0:
256,192,184409,1,0,0:0:0:0:
256,192,184497,1,8,0:0:0:0:
256,192,184584,1,8,0:0:0:0:
256,192,184672,1,0,0:0:0:0:
256,192,184760,1,0,0:0:0:0:
256,192,184848,1,8,0:0:0:0:
256,192,184935,1,0,0:0:0:0:
256,192,185023,1,8,0:0:0:0:
256,192,185111,1,8,0:0:0:0:
256,192,185199,1,0,0:0:0:0:
256,192,185286,1,0,0:0:0:0:
256,192,185374,1,8,0:0:0:0:
256,192,185432,1,8,0:0:0:0:
256,192,185491,1,8,0:0:0:0:
256,192,185549,1,0,0:0:0:0:
256,192,185637,1,0,0:0:0:0:
256,192,185725,1,8,0:0:0:0:
256,192,185783,1,0,0:0:0:0:
256,192,185842,1,0,0:0:0:0:
256,192,185900,1,8,0:0:0:0:
256,192,185988,1,8,0:0:0:0:
256,192,186076,1,4,0:0:0:0:
256,192,186427,1,8,0:0:0:0:
256,192,186777,1,0,0:0:0:0:
256,192,186953,1,0,0:0:0:0:
256,192,187041,1,0,0:0:0:0:
256,192,187128,1,8,0:0:0:0:
256,192,187304,1,0,0:0:0:0:
256,192,187655,1,0,0:0:0:0:
256,192,187830,1,8,0:0:0:0:
256,192,188006,1,8,0:0:0:0:
256,192,188093,1,0,0:0:0:0:
256,192,188181,1,8,0:0:0:0:
256,192,188356,1,0,0:0:0:0:
256,192,188444,1,0,0:0:0:0:
256,192,188532,1,8,0:0:0:0:
256,192,188620,1,0,0:0:0:0:
256,192,188707,1,8,0:0:0:0:
256,192,188795,1,8,0:0:0:0:
256,192,188883,1,0,0:0:0:0:
256,192,189058,1,0,0:0:0:0:
256,192,189234,1,8,0:0:0:0:
256,192,189321,1,0,0:0:0:0:
256,192,189409,1,8,0:0:0:0:
256,192,189584,1,0,0:0:0:0:
256,192,189760,1,8,0:0:0:0:
256,192,189848,1,8,0:0:0:0:
256,192,189935,1,0,0:0:0:0:
256,192,190111,1,8,0:0:0:0:
256,192,190286,1,0,0:0:0:0:
256,192,190374,1,8,0:0:0:0:
256,192,190462,1,0,0:0:0:0:
256,192,190549,1,0,0:0:0:0:
256,192,190637,1,8,0:0:0:0:
256,192,190813,1,8,0:0:0:0:
256,192,190900,1,8,0:0:0:0:
256,192,190988,1,0,0:0:0:0:
256,192,191076,1,0,0:0:0:0:
256,192,191163,1,0,0:0:0:0:
256,192,191339,1,8,0:0:0:0:
256,192,191514,1,0,0:0:0:0:
256,192,191602,1,8,0:0:0:0:
256,192,191690,1,0,0:0:0:0:
256,192,191865,1,0,0:0:0:0:
256,192,192041,1,8,0:0:0:0:
256,192,192216,1,0,0:0:0:0:
256,192,192304,1,0,0:0:0:0:
256,192,192392,1,0,0:0:0:0:
256,192,192567,1,0,0:0:0:0:
256,192,192655,1,0,0:0:0:0:
256,192,192742,1,8,0:0:0:0:
256,192,192918,1,0,0:0:0:0:
256,192,193269,1,0,0:0:0:0:
256,192,193444,1,8,0:0:0:0:
256,192,193620,1,0,0:0:0:0:
256,192,193707,1,0,0:0:0:0:
256,192,193795,1,8,0:0:0:0:
256,192,193970,1,8,0:0:0:0:
256,192,194058,1,0,0:0:0:0:
256,192,194146,1,8,0:0:0:0:
256,192,194234,1,8,0:0:0:0:
256,192,194321,1,0,0:0:0:0:
256,192,194409,1,8,0:0:0:0:
256,192,194497,1,0,0:0:0:0:
256,192,194672,1,0,0:0:0:0:
256,192,194848,1,8,0:0:0:0:
256,192,194935,1,0,0:0:0:0:
256,192,195023,1,8,0:0:0:0:
256,192,195199,1,0,0:0:0:0:
256,192,195286,1,0,0:0:0:0:
256,192,195374,1,8,0:0:0:0:
256,192,195462,1,8,0:0:0:0:
256,192,195549,1,0,0:0:0:0:
256,192,195725,1,8,0:0:0:0:
256,192,195900,1,0,0:0:0:0:
256,192,196076,1,8,0:0:0:0:
256,192,196163,1,0,0:0:0:0:
256,192,196251,1,8,0:0:0:0:
256,192,196339,1,8,0:0:0:0:
256,192,196427,1,0,0:0:0:0:
256,192,196514,1,0,0:0:0:0:
256,192,196602,1,8,0:0:0:0:
256,192,196690,1,0,0:0:0:0:
256,192,196777,1,8,0:0:0:0:
256,192,196865,1,8,0:0:0:0:
256,192,196953,1,0,0:0:0:0:
256,192,197041,1,8,0:0:0:0:
256,192,197128,1,8,0:0:0:0:
256,192,197216,1,8,0:0:0:0:
256,192,197304,1,0,0:0:0:0:
256,192,197655,1,8,0:0:0:0:
256,192,197830,1,0,0:0:0:0:
256,192,197918,1,0,0:0:0:0:
256,192,198006,1,8,0:0:0:0:
256,192,198181,1,0,0:0:0:0:
256,192,198269,1,0,0:0:0:0:
256,192,198356,1,8,0:0:0:0:
256,192,198444,1,0,0:0:0:0:
256,192,198532,1,8,0:0:0:0:
256,192,198620,1,8,0:0:0:0:
256,192,198707,1,4,0:0:0:0:
256,192,198970,1,4,0:0:0:0:
256,192,199234,1,4,0:0:0:0:
256,192,199584,1,8,0:0:0:0:
256,192,199760,1,8,0:0:0:0:
256,192,199848,1,8,0:0:0:0:
256,192,199935,1,8,0:0:0:0:
256,192,200023,1,8,0:0:0:0:
209,120,200111,1,4,0:0:0:0:
209,120,200286,1,8,0:0:0:0:
209,120,200637,1,8,0:0:0:0:
209,120,200988,1,8,0:0:0:0:
209,120,201339,1,8,0:0:0:0:
154,117,201689,1,8,0:0:0:0:
142,121,201865,1,0,0:0:0:0:
154,117,202040,1,8,0:0:0:0:
154,117,202391,1,8,0:0:0:0:
237,133,202567,1,8,0:0:0:0:
154,117,202742,1,0,0:0:0:0:
221,117,202918,1,4,0:0:0:0:
221,117,203093,1,8,0:0:0:0:
246,59,203444,1,8,0:0:0:0:
221,77,203795,1,8,0:0:0:0:
228,72,203970,1,0,0:0:0:0:
174,114,204146,1,8,0:0:0:0:
174,114,204496,1,8,0:0:0:0:
221,77,204672,1,0,0:0:0:0:
174,114,204847,1,8,0:0:0:0:
174,114,205023,1,8,0:0:0:0:
174,114,205198,1,0,0:0:0:0:
174,114,205374,1,8,0:0:0:0:
231,118,205725,1,4,0:0:0:0:
199,82,205900,1,8,0:0:0:0:
51,142,206251,1,8,0:0:0:0:
134,83,206602,1,8,0:0:0:0:
134,83,206953,1,8,0:0:0:0:
235,124,207303,1,8,0:0:0:0:
65,114,207479,1,0,0:0:0:0:
235,124,207654,1,8,0:0:0:0:
235,124,208005,1,8,0:0:0:0:
135,117,208181,1,8,0:0:0:0:
235,124,208356,1,0,0:0:0:0:
300,183,208532,1,0,0:0:0:0:
300,183,208619,1,0,0:0:0:0:
300,183,208707,1,0,0:0:0:0:
300,183,208795,1,0,0:0:0:0:
300,183,208882,1,0,0:0:0:0:
300,183,208970,1,0,0:0:0:0:
300,183,209058,1,0,0:0:0:0:
300,183,209146,1,0,0:0:0:0:
300,183,209233,1,0,0:0:0:0:
300,183,209321,1,0,0:0:0:0:
300,183,209409,1,0,0:0:0:0:
300,183,209496,1,0,0:0:0:0:
300,183,209584,1,0,0:0:0:0:
300,183,209672,1,0,0:0:0:0:
300,183,209760,1,8,0:0:0:0:
300,183,209847,1,8,0:0:0:0:
300,183,209935,1,0,0:0:0:0:
124,132,210023,1,0,0:0:0:0:
69,123,210111,1,8,0:0:0:0:
99,150,210169,1,0,0:0:0:0:
215,146,210227,1,0,0:0:0:0:
326,188,210286,1,8,0:0:0:0:
326,188,210374,1,8,0:0:0:0:
326,188,210461,1,0,0:0:0:0:
318,222,210549,1,8,0:0:0:0:
345,117,210637,1,0,0:0:0:0:
103,134,210695,1,8,0:0:0:0:
103,134,210754,1,8,0:0:0:0:
118,137,210812,1,0,0:0:0:0:
103,134,210871,1,8,0:0:0:0:
183,88,210929,1,8,0:0:0:0:
183,88,210988,1,0,0:0:0:0:
183,88,211046,1,8,0:0:0:0:
183,88,211105,1,8,0:0:0:0:
183,88,211163,1,0,0:0:0:0:
183,88,211222,1,8,0:0:0:0:
183,88,211280,1,8,0:0:0:0:
70,144,211339,1,0,0:0:0:0:
288,192,211514,1,0,0:0:0:0:
128,128,211602,1,0,0:0:0:0:
32,320,211689,1,8,0:0:0:0:
192,128,211865,1,0,0:0:0:0:
192,128,211953,1,8,0:0:0:0:
192,128,212040,1,0,0:0:0:0:
143,139,212128,1,0,0:0:0:0:
192,128,212216,1,8,0:0:0:0:
192,128,212391,1,8,0:0:0:0:
192,128,212567,1,0,0:0:0:0:
96,160,212918,1,0,0:0:0:0:
256,128,213093,1,8,0:0:0:0:
160,160,213268,1,8,0:0:0:0:
160,160,213356,1,8,0:0:0:0:
160,160,213444,1,0,0:0:0:0:
160,160,213619,1,8,0:0:0:0:
224,128,213707,1,0,0:0:0:0:
192,160,213795,1,8,0:0:0:0:
192,160,213970,1,0,0:0:0:0:
96,160,214146,1,8,0:0:0:0:
256,160,214321,1,0,0:0:0:0:
256,160,214409,1,0,0:0:0:0:
256,160,214496,1,8,0:0:0:0:
256,160,214672,1,8,0:0:0:0:
256,160,214760,1,0,0:0:0:0:
256,160,214847,1,8,0:0:0:0:
256,160,214935,1,8,0:0:0:0:
256,160,215023,1,0,0:0:0:0:
141,126,215111,1,0,0:0:0:0:
256,160,215198,1,8,0:0:0:0:
160,96,215374,1,8,0:0:0:0:
261,188,215461,1,8,0:0:0:0:
261,189,215549,1,0,0:0:0:0:
256,128,215725,1,0,0:0:0:0:
256,128,215900,1,8,0:0:0:0:
128,128,216075,1,0,0:0:0:0:
128,128,216163,1,8,0:0:0:0:
128,128,216251,1,0,0:0:0:0:
128,128,216426,1,0,0:0:0:0:
320,160,216602,1,8,0:0:0:0:
384,192,216689,1,8,0:0:0:0:
320,160,216777,1,8,0:0:0:0:
384,192,216865,1,8,0:0:0:0:
384,192,216953,1,0,0:0:0:0:
384,192,217128,1,0,0:0:0:0:
241,146,217216,1,0,0:0:0:0:
384,192,217303,1,8,0:0:0:0:
384,192,217479,1,8,0:0:0:0:
96,160,217567,1,8,0:0:0:0:
96,160,217654,1,0,0:0:0:0:
279,129,217742,1,0,0:0:0:0:
416,128,217830,1,8,0:0:0:0:
416,128,218005,1,8,0:0:0:0:
228,168,218181,1,4,0:0:0:0:
228,168,218532,1,4,0:0:0:0:
160,96,218707,1,8,0:0:0:0:
256,96,218882,1,12,0:0:0:0:
176,143,219233,1,0,0:0:0:0:
207,155,219321,1,0,0:0:0:0:
166,146,219409,1,8,0:0:0:0:
160,96,219496,1,0,0:0:0:0:
217,131,219584,1,8,0:0:0:0:
217,131,219672,1,8,0:0:0:0:
217,131,219760,1,0,0:0:0:0:
244,149,219935,1,0,0:0:0:0:
244,149,220110,1,8,0:0:0:0:
27,120,220198,1,0,0:0:0:0:
291,104,220286,1,8,0:0:0:0:
256,128,220374,1,8,0:0:0:0:
291,104,220461,1,0,0:0:0:0:
330,64,220637,1,0,0:0:0:0:
132,117,220725,1,0,0:0:0:0:
330,64,220812,1,8,0:0:0:0:
303,38,220988,1,8,0:0:0:0:
303,38,221075,1,0,0:0:0:0:
303,38,221163,1,0,0:0:0:0:
14,99,221251,1,0,0:0:0:0:
303,38,221339,1,8,0:0:0:0:
303,38,221426,1,8,0:0:0:0:
316,120,221514,1,0,0:0:0:0:
61,121,221572,1,8,0:0:0:0:
179,124,221631,1,8,0:0:0:0:
179,124,221689,1,0,0:0:0:0:
179,124,221748,1,8,0:0:0:0:
194,139,221806,1,8,0:0:0:0:
160,160,221865,1,0,0:0:0:0:
128,160,221923,1,8,0:0:0:0:
64,160,221982,1,8,0:0:0:0:
163,138,222040,1,0,0:0:0:0:
64,160,222128,1,8,0:0:0:0:
224,64,222216,1,0,0:0:0:0:
288,64,222274,1,0,0:0:0:0:
288,64,222333,1,0,0:0:0:0:
288,64,222391,1,8,0:0:0:0:
288,64,222450,1,8,0:0:0:0:
187,146,222508,1,8,0:0:0:0:
256,192,222567,1,0,0:0:0:0:
256,192,222742,1,0,0:0:0:0:
256,192,222917,1,8,0:0:0:0:
256,192,223005,1,0,0:0:0:0:
256,192,223093,1,8,0:0:0:0:
256,192,223181,1,8,0:0:0:0:
256,192,223268,1,0,0:0:0:0:
256,192,223444,1,0,0:0:0:0:
256,192,223531,1,0,0:0:0:0:
256,192,223619,1,8,0:0:0:0:
256,192,223795,1,0,0:0:0:0:
256,192,224145,1,0,0:0:0:0:
256,192,224321,1,8,0:0:0:0:
256,192,224496,1,8,0:0:0:0:
256,192,224584,1,0,0:0:0:0:
256,192,224672,1,8,0:0:0:0:
256,192,224847,1,0,0:0:0:0:
256,192,224935,1,0,0:0:0:0:
256,192,225023,1,8,0:0:0:0:
256,192,225111,1,0,0:0:0:0:
256,192,225198,1,8,0:0:0:0:
256,192,225286,1,8,0:0:0:0:
256,192,225374,1,0,0:0:0:0:
256,192,225549,1,0,0:0:0:0:
256,192,225724,1,8,0:0:0:0:
256,192,225900,1,0,0:0:0:0:
256,192,225988,1,0,0:0:0:0:
256,192,226075,1,8,0:0:0:0:
256,192,226163,1,8,0:0:0:0:
256,192,226251,1,0,0:0:0:0:
256,192,226426,1,8,0:0:0:0:
256,192,226602,1,0,0:0:0:0:
256,192,226689,1,0,0:0:0:0:
256,192,226777,1,0,0:0:0:0:
256,192,226952,1,0,0:0:0:0:
256,192,227128,1,8,0:0:0:0:
256,192,227216,1,0,0:0:0:0:
256,192,227303,1,8,0:0:0:0:
256,192,227391,1,8,0:0:0:0:
256,192,227479,1,0,0:0:0:0:
256,192,227654,1,0,0:0:0:0:
256,192,227830,1,8,0:0:0:0:
256,192,228093,1,8,0:0:0:0:
256,192,228181,1,0,0:0:0:0:
256,192,228356,1,0,0:0:0:0:
256,192,228444,1,0,0:0:0:0:
256,192,228531,1,8,0:0:0:0:
256,192,228707,1,0,0:0:0:0:
256,192,228882,1,8,0:0:0:0:
256,192,228970,1,8,0:0:0:0:
256,192,229058,1,0,0:0:0:0:
256,192,229145,1,0,0:0:0:0:
256,192,229233,1,8,0:0:0:0:
256,192,229409,1,0,0:0:0:0:
256,192,229759,1,0,0:0:0:0:
256,192,229935,1,8,0:0:0:0:
256,192,230110,1,8,0:0:0:0:
256,192,230198,1,8,0:0:0:0:
256,192,230286,1,0,0:0:0:0:
256,192,230374,1,8,0:0:0:0:
256,192,230461,1,0,0:0:0:0:
256,192,230549,1,0,0:0:0:0:
256,192,230637,1,8,0:0:0:0:
256,192,230812,1,8,0:0:0:0:
256,192,230900,1,8,0:0:0:0:
256,192,230988,1,0,0:0:0:0:
256,192,231163,1,0,0:0:0:0:
256,192,231251,1,0,0:0:0:0:
256,192,231338,1,8,0:0:0:0:
256,192,231426,1,0,0:0:0:0:
256,192,231514,1,8,0:0:0:0:
256,192,231689,1,0,0:0:0:0:
256,192,231865,1,8,0:0:0:0:
256,192,231952,1,0,0:0:0:0:
256,192,232040,1,8,0:0:0:0:
256,192,232216,1,0,0:0:0:0:
256,192,232303,1,0,0:0:0:0:
256,192,232391,1,8,0:0:0:0:
256,192,232450,1,0,0:0:0:0:
256,192,232508,1,0,0:0:0:0:
256,192,232567,1,8,0:0:0:0:
256,192,232654,1,0,0:0:0:0:
256,192,232742,1,8,0:0:0:0:
256,192,232801,1,8,0:0:0:0:
256,192,232859,1,8,0:0:0:0:
256,192,232917,1,0,0:0:0:0:
256,192,233005,1,0,0:0:0:0:
256,192,233093,1,8,0:0:0:0:
256,192,233151,1,0,0:0:0:0:
256,192,233210,1,0,0:0:0:0:
256,192,233268,1,8,0:0:0:0:
256,192,233327,1,0,0:0:0:0:
256,192,233385,1,0,0:0:0:0:
256,192,233444,1,8,0:0:0:0:
256,192,233502,1,0,0:0:0:0:
256,192,233561,1,0,0:0:0:0:
256,192,233619,1,8,0:0:0:0:
256,192,233678,1,8,0:0:0:0:
256,192,233736,1,8,0:0:0:0:
256,192,233795,1,0,0:0:0:0:
256,192,233970,1,0,0:0:0:0:
256,192,234145,1,8,0:0:0:0:
256,192,234233,1,8,0:0:0:0:
256,192,234321,1,0,0:0:0:0:
256,192,234409,1,8,0:0:0:0:
256,192,234496,1,0,0:0:0:0:
256,192,234672,1,0,0:0:0:0:
256,192,234759,1,0,0:0:0:0:
256,192,234847,1,8,0:0:0:0:
256,192,235023,1,0,0:0:0:0:
256,192,235374,1,0,0:0:0:0:
256,192,235549,1,8,0:0:0:0:
256,192,235724,1,8,0:0:0:0:
256,192,235812,1,0,0:0:0:0:
256,192,235900,1,8,0:0:0:0:
256,192,235988,1,8,0:0:0:0:
256,192,236075,1,0,0:0:0:0:
256,192,236163,1,0,0:0:0:0:
256,192,236251,1,8,0:0:0:0:
256,192,236426,1,8,0:0:0:0:
256,192,236514,1,8,0:0:0:0:
256,192,236602,1,0,0:0:0:0:
256,192,236777,1,0,0:0:0:0:
256,192,236952,1,8,0:0:0:0:
256,192,237128,1,8,0:0:0:0:
256,192,237216,1,8,0:0:0:0:
256,192,237303,1,0,0:0:0:0:
256,192,237391,1,0,0:0:0:0:
256,192,237479,1,0,0:0:0:0:
256,192,237654,1,8,0:0:0:0:
256,192,237830,1,8,0:0:0:0:
256,192,237917,1,8,0:0:0:0:
256,192,238005,1,8,0:0:0:0:
256,192,238181,1,0,0:0:0:0:
256,192,238356,1,8,0:0:0:0:
256,192,238531,1,8,0:0:0:0:
256,192,238619,1,0,0:0:0:0:
256,192,238707,1,8,0:0:0:0:
256,192,238882,1,0,0:0:0:0:
256,192,238970,1,0,0:0:0:0:
256,192,239058,1,8,0:0:0:0:
256,192,239145,1,8,0:0:0:0:
256,192,239233,1,8,0:0:0:0:
256,192,239321,1,8,0:0:0:0:
256,192,239409,1,4,0:0:0:0:
256,192,239584,1,0,0:0:0:0:
256,192,239759,1,8,0:0:0:0:
256,192,239935,1,4,0:0:0:0:
256,192,240286,1,4,0:0:0:0:
256,192,240461,1,8,0:0:0:0:
256,192,240637,1,4,0:0:0:0:
256,192,240988,1,12,0:0:0:0:
256,192,241163,1,8,0:0:0:0:
256,192,241338,1,4,0:0:0:0:
256,192,241689,1,0,0:0:0:0:
256,192,241777,1,0,0:0:0:0:
256,192,241865,1,8,0:0:0:0:
256,192,241952,1,8,0:0:0:0:
256,192,242040,1,0,0:0:0:0:
256,192,242128,1,8,0:0:0:0:
256,192,242216,1,0,0:0:0:0:
256,192,242391,1,0,0:0:0:0:
256,192,242567,1,8,0:0:0:0:
256,192,242654,1,0,0:0:0:0:
256,192,242742,1,8,0:0:0:0:
256,192,242830,1,8,0:0:0:0:
256,192,243005,1,8,0:0:0:0:
256,192,243093,1,0,0:0:0:0:
256,192,243181,1,0,0:0:0:0:
256,192,243268,1,8,0:0:0:0:
256,192,243444,1,8,0:0:0:0:
256,192,243531,1,8,0:0:0:0:
256,192,243619,1,0,0:0:0:0:
256,192,243707,1,8,0:0:0:0:
256,192,243795,1,0,0:0:0:0:
256,192,243882,1,0,0:0:0:0:
256,192,243970,1,8,0:0:0:0:
256,192,244029,1,0,0:0:0:0:
256,192,244087,1,0,0:0:0:0:
256,192,244145,1,8,0:0:0:0:
256,192,244233,1,8,0:0:0:0:
256,192,244321,1,0,0:0:0:0:
256,192,244380,1,8,0:0:0:0:
256,192,244438,1,8,0:0:0:0:
256,192,244496,1,0,0:0:0:0:
256,192,244555,1,8,0:0:0:0:
256,192,244613,1,8,0:0:0:0:
256,192,244672,1,0,0:0:0:0:
256,192,244730,1,8,0:0:0:0:
256,192,244789,1,8,0:0:0:0:
256,192,244847,1,0,0:0:0:0:
256,192,244906,1,8,0:0:0:0:
256,192,244964,1,8,0:0:0:0:
256,192,245023,1,0,0:0:0:0:
266,134,245198,1,8,0:0:0:0:
266,134,245374,1,8,0:0:0:0:
270,95,245461,1,8,0:0:0:0:
270,95,245549,1,0,0:0:0:0:
270,95,245724,1,8,0:0:0:0:
225,142,245900,1,0,0:0:0:0:
110,136,245988,1,0,0:0:0:0:
225,142,246075,1,8,0:0:0:0:
125,128,246163,1,0,0:0:0:0:
61,170,246251,1,8,0:0:0:0:
61,170,246426,1,8,0:0:0:0:
61,170,246514,1,8,0:0:0:0:
61,170,246602,1,0,0:0:0:0:
61,170,246777,1,8,0:0:0:0:
317,57,247128,1,0,0:0:0:0:
131,143,247216,1,8,0:0:0:0:
317,57,247303,1,0,0:0:0:0:
223,109,247391,1,0,0:0:0:0:
374,155,247479,1,8,0:0:0:0:
223,109,247566,1,8,0:0:0:0:
223,109,247654,1,0,0:0:0:0:
223,109,247830,1,4,0:0:0:0:
272,69,248005,1,8,0:0:0:0:
272,69,248181,1,8,0:0:0:0:
272,69,248268,1,8,0:0:0:0:
272,69,248356,1,0,0:0:0:0:
150,137,248444,1,0,0:0:0:0:
272,69,248532,1,8,0:0:0:0:
201,105,248707,1,0,0:0:0:0:
201,105,248795,1,0,0:0:0:0:
201,105,248882,1,8,0:0:0:0:
150,137,249058,1,4,0:0:0:0:
114,142,249409,1,4,0:0:0:0:
135,146,249584,1,8,0:0:0:0:
135,146,249759,1,12,0:0:0:0:
135,146,250110,1,12,0:0:0:0:
135,146,250286,1,0,0:0:0:0:
261,93,250344,1,8,0:0:0:0:
261,93,250403,1,8,0:0:0:0:
256,60,250461,1,0,0:0:0:0:
256,60,250520,1,8,0:0:0:0:
20,129,250578,1,8,0:0:0:0:
197,69,250637,1,0,0:0:0:0:
266,134,250812,1,8,0:0:0:0:
266,134,250988,1,8,0:0:0:0:
270,95,251075,1,8,0:0:0:0:
270,95,251163,1,0,0:0:0:0:
270,95,251338,1,8,0:0:0:0:
225,142,251514,1,0,0:0:0:0:
110,136,251602,1,0,0:0:0:0:
225,142,251689,1,8,0:0:0:0:
125,128,251777,1,0,0:0:0:0:
61,170,251865,1,8,0:0:0:0:
61,170,252040,1,8,0:0:0:0:
61,170,252128,1,8,0:0:0:0:
61,170,252216,1,0,0:0:0:0:
61,170,252391,1,8,0:0:0:0:
317,57,252742,1,0,0:0:0:0:
131,143,252830,1,8,0:0:0:0:
317,57,252917,1,0,0:0:0:0:
223,109,253005,1,0,0:0:0:0:
374,155,253093,1,8,0:0:0:0:
223,109,253180,1,8,0:0:0:0:
223,109,253268,1,0,0:0:0:0:
223,109,253444,1,4,0:0:0:0:
272,69,253619,1,8,0:0:0:0:
272,69,253795,1,8,0:0:0:0:
272,69,253882,1,8,0:0:0:0:
272,69,253970,1,0,0:0:0:0:
272,69,254145,1,8,0:0:0:0:
151,100,254233,1,0,0:0:0:0:
151,100,254321,1,8,0:0:0:0:
171,83,254409,1,0,0:0:0:0:
214,147,254496,1,8,0:0:0:0:
171,83,254672,1,4,0:0:0:0:
223,129,255023,1,4,0:0:0:0:
223,129,255374,1,12,0:0:0:0:
223,129,255724,1,12,0:0:0:0:
246,91,255900,1,0,0:0:0:0:
319,88,255958,1,8,0:0:0:0:
319,88,256017,1,8,0:0:0:0:
319,88,256075,1,0,0:0:0:0:
319,88,256134,1,8,0:0:0:0:
319,88,256192,1,8,0:0:0:0:
186,71,256251,1,0,0:0:0:0:
