osu file format v14

[General]
AudioFilename: audio.mp3
AudioLeadIn: 0
PreviewTime: 152304
Countdown: 0
SampleSet: Normal
StackLeniency: 0.7
Mode: 1
LetterboxInBreaks: 0
WidescreenStoryboard: 0

[Editor]
Bookmarks: 534,12040,23270,34498,45726,56954,68182,82217,93445,104673,115901,127129,138357,152392,163620,174848,180462,186076,200111,211339,222567,233795,245023,256251
DistanceSpacing: 1.4
BeatDivisor: 4
GridSize: 32
TimelineZoom: 1.7

[Metadata]
Title:dual existence
TitleUnicode:dual existence
Artist:fripSide
ArtistUnicode:fripSide
Creator:Roger
Version:[R]oger's Oni
Source:とある科学の超電磁砲T
Tags:taiko op op2 opening anime japanese pop jpop j-pop to aru toaru kagaku no a certain scientific Railgun T 南條愛乃 Nanjou Yoshino 八木沼悟志 Yaginuma Satoshi Volta Ron [R] ][ -GH- ][ full version ver
BeatmapID:2545718
BeatmapSetID:1223928

[Difficulty]
HPDrainRate:5
CircleSize:2
OverallDifficulty:5.7
ApproachRate:0
SliderMultiplier:1.4
SliderTickRate:1

[Events]
//Background and Video events
0,0,"bg.jpg",0,-80
//Break Periods
//Storyboard Layer 0 (Background)
//Storyboard Layer 1 (Fail)
//Storyboard Layer 2 (Pass)
//Storyboard Layer 3 (Foreground)
//Storyboard Layer 4 (Overlay)
//Storyboard Sound Samples

[TimingPoints]
534,631.578947368421,4,1,0,70,1,0
8270,-100,4,1,0,30,0,0
10639,350.877192982456,4,1,0,80,1,0
11340,-100,4,1,0,90,0,0
11691,-98.0392156862745,4,1,0,90,0,0
11779,-97.0873786407767,4,1,0,90,0,0
11867,-96.1538461538461,4,1,0,90,0,0
11954,-95.2380952380952,4,1,0,90,0,0
12042,350.877192982456,4,1,0,100,1,1
12042,-94.3396226415094,4,1,0,100,0,1
33884,-95.0118764845606,4,1,0,100,0,1
33971,-95.6937799043062,4,1,0,100,0,1
34059,-96.3855421686747,4,1,0,100,0,1
34147,-97.0873786407767,4,1,0,100,0,1
34234,-97.799511002445,4,1,0,100,0,1
34322,-98.5221674876847,4,1,0,100,0,1
34410,-99.2555831265509,4,1,0,100,0,1
34498,-100,4,1,0,90,0,0
45463,-102.564102564103,4,1,0,90,0,0
45550,-105.263157894737,4,1,0,90,0,0
45638,-108.108108108108,4,1,0,90,0,0
45726,-111.111111111111,4,1,0,80,0,0
45813,-111.111111111111,4,1,0,70,0,0
55550,-111.111111111111,4,1,0,75,0,0
56954,-105.263157894737,4,1,0,80,0,0
67480,-105.263157894737,4,1,0,85,0,0
68182,-100,4,1,0,90,0,0
82217,350.877192982456,4,1,0,100,1,1
82217,-94.3396226415094,4,1,0,100,0,1
104146,-95.6937799043062,4,1,0,100,0,1
104322,-97.0873786407767,4,1,0,100,0,1
104409,-97.799511002445,4,1,0,100,0,1
104497,-98.5221674876847,4,1,0,100,0,1
104585,-99.2555831265509,4,1,0,100,0,1
104673,-100,4,1,0,90,0,0
115638,-102.564102564103,4,1,0,90,0,0
115725,-105.263157894737,4,1,0,90,0,0
115813,-108.108108108108,4,1,0,90,0,0
115901,-111.111111111111,4,1,0,80,0,0
115988,-111.111111111111,4,1,0,70,0,0
125725,-111.111111111111,4,1,0,75,0,0
127129,-105.263157894737,4,1,0,80,0,0
137655,-105.263157894737,4,1,0,85,0,0
137831,-103.896103896104,4,1,0,85,0,0
137918,-103.225806451613,4,1,0,85,0,0
138006,-102.564102564103,4,1,0,85,0,0
138094,-101.910828025478,4,1,0,85,0,0
138181,-101.26582278481,4,1,0,85,0,0
138269,-100.62893081761,4,1,0,85,0,0
138357,-100,4,1,0,90,0,0
152041,-98.0392156862745,4,1,0,90,0,0
152129,-97.0873786407767,4,1,0,90,0,0
152216,-96.1538461538461,4,1,0,90,0,0
152304,-95.2380952380952,4,1,0,90,0,0
152392,350.877192982456,4,1,0,100,1,1
152392,-94.3396226415094,4,1,0,100,0,1
174234,-95.0118764845606,4,1,0,100,0,1
174321,-95.6937799043062,4,1,0,100,0,1
174409,-96.3855421686747,4,1,0,100,0,1
174497,-97.0873786407767,4,1,0,100,0,1
174584,-97.799511002445,4,1,0,100,0,1
174672,-98.5221674876847,4,1,0,100,0,1
174760,-99.2555831265509,4,1,0,100,0,1
174848,-100,4,1,0,90,0,0
174935,-100,4,1,0,65,0,0
177655,-100,4,1,0,70,0,0
180462,-100,4,1,0,75,0,0
181865,-100,4,1,0,80,0,0
183269,-100,4,1,0,85,0,0
184672,-100,4,1,0,90,0,0
186076,-94.3396226415094,4,1,0,95,0,1
200111,350.877192982456,4,1,0,85,1,0
200198,-100,4,1,0,80,0,0
208532,-100,4,1,0,85,0,0
209935,-100,4,1,0,90,0,0
210900,-99.009900990099,4,1,0,90,0,0
210988,-98.0392156862745,4,1,0,90,0,0
211075,-97.0873786407767,4,1,0,90,0,0
211163,-96.1538461538461,4,1,0,90,0,0
211251,-95.2380952380952,4,1,0,90,0,0
211339,-94.3396226415094,4,1,0,100,0,1
221953,-93.6768149882904,4,1,0,100,0,1
222040,-93.0232558139535,4,1,0,100,0,1
222128,-92.378752886836,4,1,0,100,0,1
222216,-91.743119266055,4,1,0,100,0,1
222303,-91.1161731207289,4,1,0,100,0,1
222391,-90.4977375565611,4,1,0,100,0,1
222479,-89.8876404494382,4,1,0,100,0,1
222567,-89.2857142857143,4,1,0,100,0,1
244496,-90.4977375565611,4,1,0,100,0,1
244672,-91.743119266055,4,1,0,100,0,1
244760,-92.378752886836,4,1,0,100,0,1
244847,-93.0232558139535,4,1,0,100,0,1
244935,-93.6768149882904,4,1,0,100,0,1
245023,-94.3396226415094,4,1,0,90,0,0

[HitObjects]
256,192,534,5,0,0:0:0:0:
256,192,849,1,0,0:0:0:0:
256,192,1165,1,8,0:0:0:0:
256,192,1481,1,8,0:0:0:0:
256,192,1797,1,0,0:0:0:0:
256,192,2428,1,0,0:0:0:0:
256,192,2744,1,8,0:0:0:0:
256,192,3060,1,0,0:0:0:0:
256,192,3376,1,0,0:0:0:0:
256,192,3691,1,8,0:0:0:0:
256,192,4007,1,8,0:0:0:0:
256,192,4323,1,0,0:0:0:0:
256,192,4955,1,8,0:0:0:0:
256,192,5270,1,8,0:0:0:0:
256,192,5586,1,0,0:0:0:0:
256,192,5902,1,0,0:0:0:0:
256,192,6218,1,8,0:0:0:0:
256,192,6534,1,0,0:0:0:0:
256,192,6849,1,8,0:0:0:0:
256,192,7165,1,8,0:0:0:0:
256,192,7481,1,0,0:0:0:0:
256,192,7797,1,8,0:0:0:0:
256,192,8112,1,0,0:0:0:0:
256,192,8428,8,0,10639,0:0:0:0:
256,192,11516,5,0,0:0:0:0:
256,192,11691,1,8,0:0:0:0:
256,192,11779,1,8,0:0:0:0:
256,192,11867,1,8,0:0:0:0:
256,192,11954,1,8,0:0:0:0:
256,192,12042,1,0,0:0:0:0:
256,192,12217,1,0,0:0:0:0:
256,192,12392,1,8,0:0:0:0:
256,192,12568,1,8,0:0:0:0:
256,192,12656,1,8,0:0:0:0:
256,192,12743,1,0,0:0:0:0:
256,192,12919,1,0,0:0:0:0:
256,192,13094,1,8,0:0:0:0:
256,192,13270,1,0,0:0:0:0:
256,192,13620,1,0,0:0:0:0:
256,192,13796,1,8,0:0:0:0:
256,192,13971,1,0,0:0:0:0:
256,192,14059,1,0,0:0:0:0:
256,192,14147,1,0,0:0:0:0:
256,192,14322,1,0,0:0:0:0:
256,192,14498,1,8,0:0:0:0:
256,192,14673,1,8,0:0:0:0:
256,192,14761,1,8,0:0:0:0:
256,192,14849,1,0,0:0:0:0:
256,192,15024,1,0,0:0:0:0:
256,192,15199,1,8,0:0:0:0:
256,192,15375,1,0,0:0:0:0:
256,192,15463,1,0,0:0:0:0:
256,192,15550,1,8,0:0:0:0:
256,192,15638,1,8,0:0:0:0:
256,192,15726,1,0,0:0:0:0:
256,192,15901,1,8,0:0:0:0:
256,192,16077,1,0,0:0:0:0:
256,192,16427,1,0,0:0:0:0:
256,192,16603,1,8,0:0:0:0:
256,192,16778,1,8,0:0:0:0:
256,192,16866,1,0,0:0:0:0:
256,192,16954,1,8,0:0:0:0:
256,192,17129,1,0,0:0:0:0:
256,192,17305,1,8,0:0:0:0:
256,192,17568,1,8,0:0:0:0:
256,192,17656,1,0,0:0:0:0:
256,192,17831,1,0,0:0:0:0:
256,192,18006,1,8,0:0:0:0:
256,192,18182,1,8,0:0:0:0:
256,192,18270,1,8,0:0:0:0:
256,192,18357,1,0,0:0:0:0:
256,192,18533,1,0,0:0:0:0:
256,192,18708,1,8,0:0:0:0:
256,192,18884,1,0,0:0:0:0:
256,192,19234,1,0,0:0:0:0:
256,192,19410,1,8,0:0:0:0:
256,192,19585,1,8,0:0:0:0:
256,192,19673,1,8,0:0:0:0:
256,192,19761,1,8,0:0:0:0:
256,192,19936,1,0,0:0:0:0:
256,192,20112,1,8,0:0:0:0:
256,192,20287,1,8,0:0:0:0:
256,192,20375,1,8,0:0:0:0:
256,192,20463,1,0,0:0:0:0:
256,192,20638,1,0,0:0:0:0:
256,192,20813,1,8,0:0:0:0:
256,192,20901,1,0,0:0:0:0:
256,192,20989,1,8,0:0:0:0:
256,192,21077,1,8,0:0:0:0:
256,192,21164,1,0,0:0:0:0:
256,192,21340,1,0,0:0:0:0:
256,192,21427,1,0,0:0:0:0:
256,192,21515,1,8,0:0:0:0:
256,192,21691,1,0,0:0:0:0:
256,192,22041,1,0,0:0:0:0:
256,192,22217,1,8,0:0:0:0:
256,192,22392,1,0,0:0:0:0:
256,192,22480,1,0,0:0:0:0:
256,192,22568,1,8,0:0:0:0:
256,192,22743,1,0,0:0:0:0:
256,192,22831,1,0,0:0:0:0:
256,192,22919,1,8,0:0:0:0:
256,192,23006,1,8,0:0:0:0:
256,192,23094,1,8,0:0:0:0:
256,192,23182,1,8,0:0:0:0:
256,192,23270,1,0,0:0:0:0:
256,192,23445,1,0,0:0:0:0:
256,192,23620,1,8,0:0:0:0:
256,192,23796,1,8,0:0:0:0:
256,192,23884,1,8,0:0:0:0:
256,192,23971,1,0,0:0:0:0:
256,192,24147,1,0,0:0:0:0:
256,192,24322,1,8,0:0:0:0:
256,192,24498,1,0,0:0:0:0:
256,192,24849,1,0,0:0:0:0:
256,192,25024,1,8,0:0:0:0:
256,192,25199,1,8,0:0:0:0:
256,192,25287,1,8,0:0:0:0:
256,192,25375,1,8,0:0:0:0:
256,192,25550,1,0,0:0:0:0:
256,192,25726,1,8,0:0:0:0:
256,192,25901,1,0,0:0:0:0:
256,192,25989,1,8,0:0:0:0:
256,192,26077,1,0,0:0:0:0:
256,192,26252,1,0,0:0:0:0:
256,192,26427,1,8,0:0:0:0:
256,192,26603,1,8,0:0:0:0:
256,192,26691,1,8,0:0:0:0:
256,192,26778,1,0,0:0:0:0:
256,192,26866,1,0,0:0:0:0:
256,192,26954,1,0,0:0:0:0:
256,192,27129,1,8,0:0:0:0:
256,192,27305,1,0,0:0:0:0:
256,192,27656,1,0,0:0:0:0:
256,192,27831,1,8,0:0:0:0:
256,192,28006,1,8,0:0:0:0:
256,192,28094,1,0,0:0:0:0:
256,192,28182,1,8,0:0:0:0:
256,192,28357,1,0,0:0:0:0:
256,192,28445,1,0,0:0:0:0:
256,192,28533,1,8,0:0:0:0:
256,192,28620,1,8,0:0:0:0:
256,192,28708,1,8,0:0:0:0:
256,192,28884,1,4,0:0:0:0:
256,192,29059,1,0,0:0:0:0:
256,192,29234,1,8,0:0:0:0:
256,192,29410,1,4,0:0:0:0:
256,192,29761,1,4,0:0:0:0:
256,192,29936,1,8,0:0:0:0:
256,192,30112,1,4,0:0:0:0:
256,192,30463,1,4,0:0:0:0:
256,192,30813,1,12,0:0:0:0:
256,192,31164,1,0,0:0:0:0:
256,192,31340,1,8,0:0:0:0:
256,192,31515,1,8,0:0:0:0:
256,192,31603,1,8,0:0:0:0:
256,192,31691,1,0,0:0:0:0:
256,192,31866,1,0,0:0:0:0:
256,192,31954,1,0,0:0:0:0:
256,192,32041,1,8,0:0:0:0:
256,192,32217,1,0,0:0:0:0:
256,192,32568,1,0,0:0:0:0:
256,192,32743,1,8,0:0:0:0:
256,192,32919,1,0,0:0:0:0:
256,192,33006,1,0,0:0:0:0:
256,192,33094,1,0,0:0:0:0:
256,192,33270,1,0,0:0:0:0:
256,192,33357,1,0,0:0:0:0:
256,192,33445,1,8,0:0:0:0:
256,192,33533,1,8,0:0:0:0:
256,192,33620,1,0,0:0:0:0:
256,192,33796,1,0,0:0:0:0:
256,192,33884,1,0,0:0:0:0:
256,192,33971,1,0,0:0:0:0:
256,192,34059,1,0,0:0:0:0:
256,192,34147,1,8,0:0:0:0:
256,192,34234,1,8,0:0:0:0:
256,192,34322,1,8,0:0:0:0:
256,192,34410,1,8,0:0:0:0:
256,192,34498,1,0,0:0:0:0:
256,192,34673,1,8,0:0:0:0:
256,192,34849,1,8,0:0:0:0:
256,192,34936,1,8,0:0:0:0:
256,192,35024,1,0,0:0:0:0:
256,192,35199,1,8,0:0:0:0:
256,192,35375,1,0,0:0:0:0:
256,192,35550,1,0,0:0:0:0:
256,192,35638,1,0,0:0:0:0:
256,192,35726,1,8,0:0:0:0:
256,192,35901,1,8,0:0:0:0:
256,192,36077,1,0,0:0:0:0:
256,192,36252,1,8,0:0:0:0:
256,192,36603,1,0,0:0:0:0:
256,192,36691,1,0,0:0:0:0:
256,192,36778,1,8,0:0:0:0:
256,192,36866,1,0,0:0:0:0:
256,192,36954,1,8,0:0:0:0:
256,192,37129,1,0,0:0:0:0:
256,192,37305,1,4,0:0:0:0:
256,192,37480,1,8,0:0:0:0:
256,192,37656,1,8,0:0:0:0:
256,192,37743,1,8,0:0:0:0:
256,192,37831,1,0,0:0:0:0:
256,192,37919,1,0,0:0:0:0:
256,192,38006,1,8,0:0:0:0:
256,192,38182,1,0,0:0:0:0:
256,192,38357,1,8,0:0:0:0:
256,192,38533,1,4,0:0:0:0:
256,192,38884,1,4,0:0:0:0:
256,192,39059,1,8,0:0:0:0:
256,192,39234,1,4,0:0:0:0:
256,192,39585,1,4,0:0:0:0:
256,192,39761,1,8,0:0:0:0:
256,192,39849,1,0,0:0:0:0:
256,192,39936,1,8,0:0:0:0:
256,192,40024,1,8,0:0:0:0:
256,192,40112,1,0,0:0:0:0:
256,192,40287,1,8,0:0:0:0:
256,192,40463,1,8,0:0:0:0:
256,192,40550,1,8,0:0:0:0:
256,192,40638,1,0,0:0:0:0:
256,192,40813,1,8,0:0:0:0:
256,192,40989,1,0,0:0:0:0:
256,192,41164,1,0,0:0:0:0:
256,192,41252,1,0,0:0:0:0:
256,192,41340,1,8,0:0:0:0:
256,192,41515,1,8,0:0:0:0:
256,192,41691,1,0,0:0:0:0:
256,192,41866,1,8,0:0:0:0:
256,192,42217,1,0,0:0:0:0:
256,192,42305,1,0,0:0:0:0:
256,192,42392,1,8,0:0:0:0:
256,192,42480,1,0,0:0:0:0:
256,192,42568,1,8,0:0:0:0:
256,192,42743,1,0,0:0:0:0:
256,192,42919,1,4,0:0:0:0:
256,192,43094,1,8,0:0:0:0:
256,192,43270,1,8,0:0:0:0:
256,192,43357,1,8,0:0:0:0:
256,192,43445,1,0,0:0:0:0:
256,192,43533,1,0,0:0:0:0:
256,192,43620,1,8,0:0:0:0:
256,192,43796,1,8,0:0:0:0:
256,192,43884,1,0,0:0:0:0:
256,192,43971,1,8,0:0:0:0:
256,192,44147,1,4,0:0:0:0:
256,192,44498,1,12,0:0:0:0:
256,192,44849,1,4,0:0:0:0:
256,192,45199,1,4,0:0:0:0:
256,192,45375,1,8,0:0:0:0:
256,192,45463,1,0,0:0:0:0:
256,192,45550,1,8,0:0:0:0:
256,192,45638,1,8,0:0:0:0:
256,192,45726,1,0,0:0:0:0:
256,192,46077,1,8,0:0:0:0:
256,192,46252,1,0,0:0:0:0:
256,192,46603,1,8,0:0:0:0:
256,192,47129,1,0,0:0:0:0:
256,192,47656,1,8,0:0:0:0:
256,192,47831,1,8,0:0:0:0:
256,192,48533,1,0,0:0:0:0:
256,192,48884,1,8,0:0:0:0:
256,192,49059,1,0,0:0:0:0:
256,192,49410,1,8,0:0:0:0:
256,192,49936,1,0,0:0:0:0:
256,192,50463,1,0,0:0:0:0:
256,192,50638,1,8,0:0:0:0:
256,192,51340,1,0,0:0:0:0:
256,192,51691,1,8,0:0:0:0:
256,192,51866,1,8,0:0:0:0:
256,192,52217,1,0,0:0:0:0:
256,192,52743,1,8,0:0:0:0:
256,192,53094,1,0,0:0:0:0:
256,192,53270,1,0,0:0:0:0:
256,192,53620,1,8,0:0:0:0:
256,192,54147,1,0,0:0:0:0:
256,192,54498,1,8,0:0:0:0:
256,192,54673,1,0,0:0:0:0:
256,192,55024,1,0,0:0:0:0:
256,192,55199,1,8,0:0:0:0:
256,192,55550,1,0,0:0:0:0:
256,192,55901,1,8,0:0:0:0:
256,192,56077,1,0,0:0:0:0:
256,192,56164,1,0,0:0:0:0:
256,192,56252,1,8,0:0:0:0:
256,192,56427,1,0,0:0:0:0:
256,192,56603,1,0,0:0:0:0:
256,192,56778,1,0,0:0:0:0:
256,192,56954,1,12,0:0:0:0:
256,192,57305,1,0,0:0:0:0:
256,192,57480,1,8,0:0:0:0:
256,192,57568,1,8,0:0:0:0:
256,192,57656,1,0,0:0:0:0:
256,192,57831,1,8,0:0:0:0:
256,192,58006,1,0,0:0:0:0:
256,192,58357,1,0,0:0:0:0:
256,192,58708,1,0,0:0:0:0:
256,192,58884,1,8,0:0:0:0:
256,192,59059,1,8,0:0:0:0:
256,192,59410,1,0,0:0:0:0:
256,192,59761,1,0,0:0:0:0:
256,192,60112,1,8,0:0:0:0:
256,192,60287,1,0,0:0:0:0:
256,192,60375,1,0,0:0:0:0:
256,192,60463,1,0,0:0:0:0:
256,192,60638,1,8,0:0:0:0:
256,192,60813,1,0,0:0:0:0:
256,192,61164,1,0,0:0:0:0:
256,192,61515,1,8,0:0:0:0:
256,192,61691,1,0,0:0:0:0:
256,192,61866,1,8,0:0:0:0:
256,192,62217,1,0,0:0:0:0:
256,192,62392,1,0,0:0:0:0:
256,192,62568,1,12,0:0:0:0:
256,192,62919,1,0,0:0:0:0:
256,192,63094,1,8,0:0:0:0:
256,192,63182,1,8,0:0:0:0:
256,192,63270,1,0,0:0:0:0:
256,192,63445,1,0,0:0:0:0:
256,192,63620,1,8,0:0:0:0:
256,192,63796,1,0,0:0:0:0:
256,192,63971,1,12,0:0:0:0:
256,192,64322,1,0,0:0:0:0:
256,192,64673,1,8,0:0:0:0:
256,192,64849,1,8,0:0:0:0:
256,192,65024,1,0,0:0:0:0:
256,192,65199,1,0,0:0:0:0:
256,192,65375,1,12,0:0:0:0:
256,192,65726,1,0,0:0:0:0:
256,192,66077,1,12,0:0:0:0:
256,192,66340,1,0,0:0:0:0:
256,192,66603,1,8,0:0:0:0:
256,192,66778,1,0,0:0:0:0:
256,192,67129,1,8,0:0:0:0:
256,192,67305,1,0,0:0:0:0:
256,192,67480,1,0,0:0:0:0:
256,192,67568,1,8,0:0:0:0:
256,192,67656,1,0,0:0:0:0:
256,192,67743,1,0,0:0:0:0:
256,192,67831,1,8,0:0:0:0:
256,192,67919,1,8,0:0:0:0:
256,192,68006,1,8,0:0:0:0:
256,192,68182,1,4,0:0:0:0:
256,192,68533,1,8,0:0:0:0:
256,192,68708,1,0,0:0:0:0:
256,192,68796,1,0,0:0:0:0:
256,192,68884,1,8,0:0:0:0:
256,192,69059,1,0,0:0:0:0:
256,192,69234,1,8,0:0:0:0:
256,192,69410,1,8,0:0:0:0:
256,192,69498,1,8,0:0:0:0:
256,192,69585,1,0,0:0:0:0:
256,192,69761,1,0,0:0:0:0:
256,192,69936,1,8,0:0:0:0:
256,192,70287,1,0,0:0:0:0:
256,192,70463,1,0,0:0:0:0:
256,192,70638,1,8,0:0:0:0:
256,192,70726,1,8,0:0:0:0:
256,192,70813,1,8,0:0:0:0:
256,192,70989,1,4,0:0:0:0:
256,192,71340,1,8,0:0:0:0:
256,192,71515,1,0,0:0:0:0:
256,192,71603,1,0,0:0:0:0:
256,192,71691,1,0,0:0:0:0:
256,192,71866,1,0,0:0:0:0:
256,192,72041,1,8,0:0:0:0:
256,192,72217,1,0,0:0:0:0:
256,192,72568,1,0,0:0:0:0:
256,192,72743,1,8,0:0:0:0:
256,192,72919,1,0,0:0:0:0:
256,192,73270,1,0,0:0:0:0:
256,192,73445,1,8,0:0:0:0:
256,192,73620,1,8,0:0:0:0:
256,192,73708,1,8,0:0:0:0:
256,192,73796,1,0,0:0:0:0:
256,192,74147,1,8,0:0:0:0:
256,192,74322,1,0,0:0:0:0:
256,192,74410,1,0,0:0:0:0:
256,192,74498,1,8,0:0:0:0:
256,192,74673,1,0,0:0:0:0:
256,192,74849,1,8,0:0:0:0:
256,192,75024,1,8,0:0:0:0:
256,192,75199,1,4,0:0:0:0:
256,192,75550,1,8,0:0:0:0:
256,192,75726,1,0,0:0:0:0:
256,192,75813,1,0,0:0:0:0:
256,192,75901,1,0,0:0:0:0:
256,192,76077,1,0,0:0:0:0:
256,192,76252,1,8,0:0:0:0:
256,192,76427,1,8,0:0:0:0:
256,192,76603,1,4,0:0:0:0:
256,192,76954,1,8,0:0:0:0:
256,192,77129,1,0,0:0:0:0:
256,192,77305,1,0,0:0:0:0:
256,192,77392,1,8,0:0:0:0:
256,192,77480,1,0,0:0:0:0:
256,192,77656,1,8,0:0:0:0:
256,192,77831,1,8,0:0:0:0:
256,192,77919,1,8,0:0:0:0:
256,192,78006,1,0,0:0:0:0:
256,192,78182,1,0,0:0:0:0:
256,192,78357,1,8,0:0:0:0:
256,192,78533,1,0,0:0:0:0:
256,192,78884,1,0,0:0:0:0:
256,192,79059,1,8,0:0:0:0:
256,192,79234,1,8,0:0:0:0:
256,192,79322,1,0,0:0:0:0:
256,192,79410,1,8,0:0:0:0:
256,192,79585,1,0,0:0:0:0:
256,192,79761,1,8,0:0:0:0:
256,192,79936,1,0,0:0:0:0:
256,192,80024,1,0,0:0:0:0:
256,192,80112,1,8,0:0:0:0:
256,192,80287,1,0,0:0:0:0:
256,192,80463,1,8,0:0:0:0:
256,192,80550,1,8,0:0:0:0:
256,192,80638,1,8,0:0:0:0:
256,192,80813,1,4,0:0:0:0:
256,192,81077,1,4,0:0:0:0:
256,192,81340,1,4,0:0:0:0:
256,192,81691,1,8,0:0:0:0:
256,192,81866,1,8,0:0:0:0:
256,192,81954,1,8,0:0:0:0:
256,192,82041,1,8,0:0:0:0:
256,192,82217,1,4,0:0:0:0:
256,192,82392,1,8,0:0:0:0:
256,192,82567,1,0,0:0:0:0:
256,192,82743,1,0,0:0:0:0:
256,192,82831,1,0,0:0:0:0:
256,192,82918,1,8,0:0:0:0:
256,192,83094,1,0,0:0:0:0:
256,192,83269,1,0,0:0:0:0:
256,192,83445,1,8,0:0:0:0:
256,192,83795,1,0,0:0:0:0:
256,192,83971,1,8,0:0:0:0:
256,192,84146,1,0,0:0:0:0:
256,192,84322,1,0,0:0:0:0:
256,192,84409,1,8,0:0:0:0:
256,192,84497,1,0,0:0:0:0:
256,192,84673,1,8,0:0:0:0:
256,192,84848,1,0,0:0:0:0:
256,192,85024,1,8,0:0:0:0:
256,192,85111,1,0,0:0:0:0:
256,192,85199,1,8,0:0:0:0:
256,192,85374,1,0,0:0:0:0:
256,192,85550,1,8,0:0:0:0:
256,192,85725,1,0,0:0:0:0:
256,192,85813,1,0,0:0:0:0:
256,192,85901,1,8,0:0:0:0:
256,192,85988,1,0,0:0:0:0:
256,192,86076,1,8,0:0:0:0:
256,192,86252,1,0,0:0:0:0:
256,192,86602,1,0,0:0:0:0:
256,192,86778,1,8,0:0:0:0:
256,192,86953,1,0,0:0:0:0:
256,192,87129,1,0,0:0:0:0:
256,192,87217,1,8,0:0:0:0:
256,192,87304,1,0,0:0:0:0:
256,192,87480,1,8,0:0:0:0:
256,192,87655,1,8,0:0:0:0:
256,192,87743,1,8,0:0:0:0:
256,192,87831,1,0,0:0:0:0:
256,192,88006,1,0,0:0:0:0:
256,192,88181,1,8,0:0:0:0:
256,192,88269,1,0,0:0:0:0:
256,192,88357,1,8,0:0:0:0:
256,192,88532,1,0,0:0:0:0:
256,192,88708,1,8,0:0:0:0:
256,192,88883,1,8,0:0:0:0:
256,192,89059,1,0,0:0:0:0:
256,192,89409,1,0,0:0:0:0:
256,192,89585,1,8,0:0:0:0:
256,192,89760,1,0,0:0:0:0:
256,192,89936,1,0,0:0:0:0:
256,192,90024,1,8,0:0:0:0:
256,192,90111,1,0,0:0:0:0:
256,192,90287,1,8,0:0:0:0:
256,192,90462,1,0,0:0:0:0:
256,192,90638,1,8,0:0:0:0:
256,192,90813,1,0,0:0:0:0:
256,192,90901,1,0,0:0:0:0:
256,192,90988,1,0,0:0:0:0:
256,192,91164,1,8,0:0:0:0:
256,192,91515,1,8,0:0:0:0:
256,192,91690,1,0,0:0:0:0:
256,192,91866,1,8,0:0:0:0:
256,192,92041,1,0,0:0:0:0:
256,192,92129,1,8,0:0:0:0:
256,192,92217,1,0,0:0:0:0:
256,192,92392,1,8,0:0:0:0:
256,192,92567,1,0,0:0:0:0:
256,192,92743,1,0,0:0:0:0:
256,192,92831,1,8,0:0:0:0:
256,192,92918,1,0,0:0:0:0:
256,192,93006,1,0,0:0:0:0:
256,192,93094,1,8,0:0:0:0:
256,192,93181,1,8,0:0:0:0:
256,192,93269,1,8,0:0:0:0:
256,192,93445,1,4,0:0:0:0:
256,192,93620,1,8,0:0:0:0:
256,192,93795,1,0,0:0:0:0:
256,192,93971,1,0,0:0:0:0:
256,192,94059,1,0,0:0:0:0:
256,192,94146,1,8,0:0:0:0:
256,192,94322,1,0,0:0:0:0:
256,192,94497,1,0,0:0:0:0:
256,192,94673,1,8,0:0:0:0:
256,192,95024,1,0,0:0:0:0:
256,192,95199,1,8,0:0:0:0:
256,192,95374,1,0,0:0:0:0:
256,192,95550,1,0,0:0:0:0:
256,192,95638,1,8,0:0:0:0:
256,192,95725,1,0,0:0:0:0:
256,192,95901,1,8,0:0:0:0:
256,192,96076,1,0,0:0:0:0:
256,192,96252,1,8,0:0:0:0:
256,192,96339,1,0,0:0:0:0:
256,192,96427,1,8,0:0:0:0:
256,192,96602,1,0,0:0:0:0:
256,192,96778,1,8,0:0:0:0:
256,192,96953,1,0,0:0:0:0:
256,192,97041,1,0,0:0:0:0:
256,192,97129,1,8,0:0:0:0:
256,192,97217,1,0,0:0:0:0:
256,192,97304,1,8,0:0:0:0:
256,192,97480,1,0,0:0:0:0:
256,192,97831,1,0,0:0:0:0:
256,192,98006,1,8,0:0:0:0:
256,192,98181,1,0,0:0:0:0:
256,192,98357,1,0,0:0:0:0:
256,192,98445,1,8,0:0:0:0:
256,192,98532,1,0,0:0:0:0:
256,192,98620,1,0,0:0:0:0:
256,192,98708,1,8,0:0:0:0:
256,192,98883,1,0,0:0:0:0:
256,192,99059,1,12,0:0:0:0:
256,192,99234,1,0,0:0:0:0:
256,192,99409,1,0,0:0:0:0:
256,192,99585,1,12,0:0:0:0:
256,192,99936,1,12,0:0:0:0:
256,192,100111,1,0,0:0:0:0:
256,192,100287,1,12,0:0:0:0:
256,192,100638,1,12,0:0:0:0:
256,192,100813,1,0,0:0:0:0:
256,192,100988,1,8,0:0:0:0:
256,192,101076,1,8,0:0:0:0:
256,192,101164,1,0,0:0:0:0:
256,192,101339,1,0,0:0:0:0:
256,192,101515,1,8,0:0:0:0:
256,192,101690,1,0,0:0:0:0:
256,192,101778,1,0,0:0:0:0:
256,192,101866,1,8,0:0:0:0:
256,192,102041,1,0,0:0:0:0:
256,192,102217,1,8,0:0:0:0:
256,192,102304,1,0,0:0:0:0:
256,192,102392,1,8,0:0:0:0:
256,192,102567,1,0,0:0:0:0:
256,192,102743,1,8,0:0:0:0:
256,192,102831,1,8,0:0:0:0:
256,192,102918,1,0,0:0:0:0:
256,192,103094,1,8,0:0:0:0:
256,192,103445,1,0,0:0:0:0:
256,192,103620,1,8,0:0:0:0:
256,192,103708,1,0,0:0:0:0:
256,192,103795,1,8,0:0:0:0:
256,192,103883,1,8,0:0:0:0:
256,192,103971,1,0,0:0:0:0:
256,192,104146,1,0,0:0:0:0:
256,192,104322,1,8,0:0:0:0:
256,192,104409,1,8,0:0:0:0:
256,192,104497,1,8,0:0:0:0:
256,192,104585,1,8,0:0:0:0:
256,192,104673,1,0,0:0:0:0:
256,192,104848,1,0,0:0:0:0:
256,192,105024,1,8,0:0:0:0:
256,192,105199,1,0,0:0:0:0:
256,192,105287,1,0,0:0:0:0:
256,192,105374,1,8,0:0:0:0:
256,192,105550,1,8,0:0:0:0:
256,192,105725,1,0,0:0:0:0:
256,192,105901,1,8,0:0:0:0:
256,192,105988,1,8,0:0:0:0:
256,192,106076,1,0,0:0:0:0:
256,192,106252,1,0,0:0:0:0:
256,192,106427,1,8,0:0:0:0:
256,192,106778,1,0,0:0:0:0:
256,192,106953,1,8,0:0:0:0:
256,192,107041,1,0,0:0:0:0:
256,192,107129,1,8,0:0:0:0:
256,192,107216,1,8,0:0:0:0:
256,192,107304,1,0,0:0:0:0:
256,192,107480,1,4,0:0:0:0:
256,192,107655,1,8,0:0:0:0:
256,192,107831,1,8,0:0:0:0:
256,192,107918,1,0,0:0:0:0:
256,192,108006,1,0,0:0:0:0:
256,192,108181,1,8,0:0:0:0:
256,192,108357,1,0,0:0:0:0:
256,192,108445,1,0,0:0:0:0:
256,192,108532,1,8,0:0:0:0:
256,192,108708,1,4,0:0:0:0:
256,192,109059,1,4,0:0:0:0:
256,192,109234,1,8,0:0:0:0:
256,192,109409,1,12,0:0:0:0:
256,192,109760,1,12,0:0:0:0:
256,192,109936,1,0,0:0:0:0:
256,192,110024,1,8,0:0:0:0:
256,192,110111,1,8,0:0:0:0:
256,192,110199,1,8,0:0:0:0:
256,192,110287,1,0,0:0:0:0:
256,192,110462,1,0,0:0:0:0:
256,192,110638,1,8,0:0:0:0:
256,192,110813,1,0,0:0:0:0:
256,192,110901,1,0,0:0:0:0:
256,192,110988,1,8,0:0:0:0:
256,192,111164,1,8,0:0:0:0:
256,192,111339,1,0,0:0:0:0:
256,192,111515,1,8,0:0:0:0:
256,192,111602,1,8,0:0:0:0:
256,192,111690,1,0,0:0:0:0:
256,192,111866,1,0,0:0:0:0:
256,192,112041,1,8,0:0:0:0:
256,192,112392,1,0,0:0:0:0:
256,192,112567,1,8,0:0:0:0:
256,192,112655,1,0,0:0:0:0:
256,192,112743,1,8,0:0:0:0:
256,192,112831,1,8,0:0:0:0:
256,192,112918,1,0,0:0:0:0:
256,192,113094,1,4,0:0:0:0:
256,192,113269,1,8,0:0:0:0:
256,192,113357,1,0,0:0:0:0:
256,192,113445,1,8,0:0:0:0:
256,192,113620,1,0,0:0:0:0:
256,192,113795,1,8,0:0:0:0:
256,192,113883,1,8,0:0:0:0:
256,192,113971,1,0,0:0:0:0:
256,192,114059,1,0,0:0:0:0:
256,192,114146,1,8,0:0:0:0:
256,192,114322,1,4,0:0:0:0:
256,192,114673,1,4,0:0:0:0:
256,192,115024,1,12,0:0:0:0:
256,192,115374,1,12,0:0:0:0:
256,192,115550,1,0,0:0:0:0:
256,192,115638,1,8,0:0:0:0:
256,192,115725,1,8,0:0:0:0:
256,192,115813,1,8,0:0:0:0:
256,192,115901,1,0,0:0:0:0:
256,192,116252,1,8,0:0:0:0:
256,192,116427,1,0,0:0:0:0:
256,192,116778,1,8,0:0:0:0:
256,192,117304,1,0,0:0:0:0:
256,192,117831,1,8,0:0:0:0:
256,192,118006,1,0,0:0:0:0:
256,192,118708,1,8,0:0:0:0:
256,192,119059,1,0,0:0:0:0:
256,192,119234,1,8,0:0:0:0:
256,192,119585,1,0,0:0:0:0:
256,192,120111,1,8,0:0:0:0:
256,192,120638,1,0,0:0:0:0:
256,192,120813,1,8,0:0:0:0:
256,192,121515,1,0,0:0:0:0:
256,192,121866,1,8,0:0:0:0:
256,192,122041,1,8,0:0:0:0:
256,192,122392,1,0,0:0:0:0:
256,192,122918,1,8,0:0:0:0:
256,192,123269,1,0,0:0:0:0:
256,192,123445,1,0,0:0:0:0:
256,192,123795,1,8,0:0:0:0:
256,192,124322,1,0,0:0:0:0:
256,192,124673,1,8,0:0:0:0:
256,192,124848,1,0,0:0:0:0:
256,192,125199,1,0,0:0:0:0:
256,192,125374,1,8,0:0:0:0:
256,192,125725,1,0,0:0:0:0:
256,192,126076,1,0,0:0:0:0:
256,192,126252,1,8,0:0:0:0:
256,192,126339,1,8,0:0:0:0:
256,192,126427,1,0,0:0:0:0:
256,192,126602,1,8,0:0:0:0:
256,192,126778,1,0,0:0:0:0:
256,192,126953,1,0,0:0:0:0:
256,192,127129,1,12,0:0:0:0:
256,192,127480,1,0,0:0:0:0:
256,192,127655,1,8,0:0:0:0:
256,192,128006,1,8,0:0:0:0:
256,192,128181,1,0,0:0:0:0:
256,192,128357,1,0,0:0:0:0:
256,192,128532,1,8,0:0:0:0:
256,192,128883,1,0,0:0:0:0:
256,192,129059,1,8,0:0:0:0:
256,192,129234,1,0,0:0:0:0:
256,192,129585,1,0,0:0:0:0:
256,192,129936,1,8,0:0:0:0:
256,192,130287,1,0,0:0:0:0:
256,192,130462,1,8,0:0:0:0:
256,192,130813,1,8,0:0:0:0:
256,192,130988,1,0,0:0:0:0:
256,192,131164,1,8,0:0:0:0:
256,192,131339,1,0,0:0:0:0:
256,192,131690,1,0,0:0:0:0:
256,192,131866,1,8,0:0:0:0:
256,192,132041,1,8,0:0:0:0:
256,192,132392,1,0,0:0:0:0:
256,192,132567,1,0,0:0:0:0:
256,192,132743,1,12,0:0:0:0:
256,192,133094,1,8,0:0:0:0:
256,192,133269,1,8,0:0:0:0:
256,192,133445,1,0,0:0:0:0:
256,192,133620,1,8,0:0:0:0:
256,192,133795,1,0,0:0:0:0:
256,192,133971,1,0,0:0:0:0:
256,192,134146,1,12,0:0:0:0:
256,192,134497,1,0,0:0:0:0:
256,192,134673,1,0,0:0:0:0:
256,192,134848,1,8,0:0:0:0:
256,192,135024,1,0,0:0:0:0:
256,192,135199,1,8,0:0:0:0:
256,192,135374,1,8,0:0:0:0:
256,192,135550,1,4,0:0:0:0:
256,192,135901,1,0,0:0:0:0:
256,192,136252,1,12,0:0:0:0:
256,192,136515,1,0,0:0:0:0:
256,192,136778,1,8,0:0:0:0:
256,192,136953,1,0,0:0:0:0:
256,192,137129,1,0,0:0:0:0:
256,192,137304,1,8,0:0:0:0:
256,192,137655,1,8,0:0:0:0:
256,192,137831,1,0,0:0:0:0:
256,192,137918,1,0,0:0:0:0:
256,192,138006,1,8,0:0:0:0:
256,192,138094,1,8,0:0:0:0:
256,192,138181,1,8,0:0:0:0:
256,192,138269,1,8,0:0:0:0:
256,192,138357,1,0,0:0:0:0:
256,192,138532,1,0,0:0:0:0:
256,192,138708,1,8,0:0:0:0:
256,192,138883,1,0,0:0:0:0:
256,192,138971,1,8,0:0:0:0:
256,192,139059,1,0,0:0:0:0:
256,192,139322,1,0,0:0:0:0:
256,192,139409,1,8,0:0:0:0:
256,192,139585,1,8,0:0:0:0:
256,192,139760,1,0,0:0:0:0:
256,192,139848,1,0,0:0:0:0:
256,192,139936,1,0,0:0:0:0:
256,192,140111,1,8,0:0:0:0:
256,192,140287,1,8,0:0:0:0:
256,192,140374,1,8,0:0:0:0:
256,192,140462,1,0,0:0:0:0:
256,192,140638,1,0,0:0:0:0:
256,192,140813,1,8,0:0:0:0:
256,192,140988,1,0,0:0:0:0:
256,192,141164,1,12,0:0:0:0:
256,192,141515,1,8,0:0:0:0:
256,192,141690,1,8,0:0:0:0:
256,192,141778,1,8,0:0:0:0:
256,192,141866,1,0,0:0:0:0:
256,192,142129,1,0,0:0:0:0:
256,192,142216,1,8,0:0:0:0:
256,192,142392,1,0,0:0:0:0:
256,192,142567,1,8,0:0:0:0:
256,192,142655,1,0,0:0:0:0:
256,192,142743,1,0,0:0:0:0:
256,192,142918,1,8,0:0:0:0:
256,192,143094,1,8,0:0:0:0:
256,192,143181,1,8,0:0:0:0:
256,192,143269,1,0,0:0:0:0:
256,192,143445,1,0,0:0:0:0:
256,192,143620,1,8,0:0:0:0:
256,192,143795,1,0,0:0:0:0:
256,192,143883,1,8,0:0:0:0:
256,192,143971,1,0,0:0:0:0:
256,192,144322,1,8,0:0:0:0:
256,192,144497,1,8,0:0:0:0:
256,192,144585,1,8,0:0:0:0:
256,192,144673,1,0,0:0:0:0:
256,192,144936,1,0,0:0:0:0:
256,192,145024,1,8,0:0:0:0:
256,192,145199,1,0,0:0:0:0:
256,192,145374,1,12,0:0:0:0:
256,192,145725,1,8,0:0:0:0:
256,192,145901,1,0,0:0:0:0:
256,192,145988,1,0,0:0:0:0:
256,192,146076,1,8,0:0:0:0:
256,192,146339,1,0,0:0:0:0:
256,192,146427,1,8,0:0:0:0:
256,192,146602,1,8,0:0:0:0:
256,192,146778,1,4,0:0:0:0:
256,192,147129,1,8,0:0:0:0:
256,192,147480,1,0,0:0:0:0:
256,192,147655,1,0,0:0:0:0:
256,192,147831,1,8,0:0:0:0:
256,192,148006,1,8,0:0:0:0:
256,192,148094,1,8,0:0:0:0:
256,192,148181,1,0,0:0:0:0:
256,192,148357,1,0,0:0:0:0:
256,192,148532,1,8,0:0:0:0:
256,192,148708,1,8,0:0:0:0:
256,192,148795,1,0,0:0:0:0:
256,192,148883,1,8,0:0:0:0:
256,192,149059,1,0,0:0:0:0:
256,192,149234,1,8,0:0:0:0:
256,192,149409,1,0,0:0:0:0:
256,192,149497,1,8,0:0:0:0:
256,192,149585,1,0,0:0:0:0:
256,192,149936,1,8,0:0:0:0:
256,192,150111,1,0,0:0:0:0:
256,192,150199,1,0,0:0:0:0:
256,192,150287,1,8,0:0:0:0:
256,192,150462,1,0,0:0:0:0:
256,192,150550,1,8,0:0:0:0:
256,192,150638,1,0,0:0:0:0:
256,192,150725,1,0,0:0:0:0:
256,192,150813,1,8,0:0:0:0:
256,192,150988,1,4,0:0:0:0:
256,192,151252,1,4,0:0:0:0:
256,192,151515,1,12,0:0:0:0:
256,192,151866,1,8,0:0:0:0:
256,192,152041,1,8,0:0:0:0:
256,192,152129,1,8,0:0:0:0:
256,192,152216,1,8,0:0:0:0:
256,192,152304,1,8,0:0:0:0:
256,192,152392,1,0,0:0:0:0:
256,192,152567,1,0,0:0:0:0:
256,192,152742,1,8,0:0:0:0:
256,192,152918,1,8,0:0:0:0:
256,192,153006,1,8,0:0:0:0:
256,192,153093,1,0,0:0:0:0:
256,192,153269,1,0,0:0:0:0:
256,192,153444,1,8,0:0:0:0:
256,192,153620,1,0,0:0:0:0:
256,192,153970,1,0,0:0:0:0:
256,192,154146,1,8,0:0:0:0:
256,192,154321,1,8,0:0:0:0:
256,192,154409,1,8,0:0:0:0:
256,192,154497,1,8,0:0:0:0:
256,192,154672,1,0,0:0:0:0:
256,192,154848,1,8,0:0:0:0:
256,192,155023,1,8,0:0:0:0:
256,192,155111,1,8,0:0:0:0:
256,192,155199,1,0,0:0:0:0:
256,192,155374,1,0,0:0:0:0:
256,192,155549,1,8,0:0:0:0:
256,192,155725,1,0,0:0:0:0:
256,192,155813,1,0,0:0:0:0:
256,192,155900,1,8,0:0:0:0:
256,192,155988,1,8,0:0:0:0:
256,192,156076,1,0,0:0:0:0:
256,192,156251,1,8,0:0:0:0:
256,192,156427,1,0,0:0:0:0:
256,192,156777,1,0,0:0:0:0:
256,192,156953,1,8,0:0:0:0:
256,192,157128,1,8,0:0:0:0:
256,192,157216,1,0,0:0:0:0:
256,192,157304,1,8,0:0:0:0:
256,192,157479,1,0,0:0:0:0:
256,192,157655,1,8,0:0:0:0:
256,192,157918,1,8,0:0:0:0:
256,192,158006,1,0,0:0:0:0:
256,192,158181,1,0,0:0:0:0:
256,192,158356,1,8,0:0:0:0:
256,192,158532,1,0,0:0:0:0:
256,192,158620,1,8,0:0:0:0:
256,192,158707,1,0,0:0:0:0:
256,192,158883,1,0,0:0:0:0:
256,192,159058,1,8,0:0:0:0:
256,192,159234,1,0,0:0:0:0:
256,192,159584,1,0,0:0:0:0:
256,192,159760,1,8,0:0:0:0:
256,192,159935,1,8,0:0:0:0:
256,192,160023,1,8,0:0:0:0:
256,192,160111,1,8,0:0:0:0:
256,192,160286,1,0,0:0:0:0:
256,192,160462,1,8,0:0:0:0:
256,192,160637,1,8,0:0:0:0:
256,192,160725,1,8,0:0:0:0:
256,192,160813,1,0,0:0:0:0:
256,192,160988,1,0,0:0:0:0:
256,192,161163,1,8,0:0:0:0:
256,192,161251,1,0,0:0:0:0:
256,192,161339,1,8,0:0:0:0:
256,192,161427,1,8,0:0:0:0:
256,192,161514,1,0,0:0:0:0:
256,192,161690,1,0,0:0:0:0:
256,192,161777,1,0,0:0:0:0:
256,192,161865,1,8,0:0:0:0:
256,192,162041,1,0,0:0:0:0:
256,192,162392,1,0,0:0:0:0:
256,192,162567,1,8,0:0:0:0:
256,192,162742,1,0,0:0:0:0:
256,192,162830,1,0,0:0:0:0:
256,192,162918,1,8,0:0:0:0:
256,192,163093,1,0,0:0:0:0:
256,192,163181,1,0,0:0:0:0:
256,192,163269,1,8,0:0:0:0:
256,192,163356,1,8,0:0:0:0:
256,192,163444,1,8,0:0:0:0:
256,192,163532,1,8,0:0:0:0:
256,192,163620,1,0,0:0:0:0:
256,192,163795,1,0,0:0:0:0:
256,192,163970,1,8,0:0:0:0:
256,192,164146,1,8,0:0:0:0:
256,192,164234,1,8,0:0:0:0:
256,192,164321,1,0,0:0:0:0:
256,192,164497,1,0,0:0:0:0:
256,192,164672,1,8,0:0:0:0:
256,192,164848,1,0,0:0:0:0:
256,192,165199,1,0,0:0:0:0:
256,192,165374,1,8,0:0:0:0:
256,192,165549,1,0,0:0:0:0:
256,192,165637,1,0,0:0:0:0:
256,192,165725,1,0,0:0:0:0:
256,192,165900,1,0,0:0:0:0:
256,192,166076,1,8,0:0:0:0:
256,192,166251,1,0,0:0:0:0:
256,192,166339,1,8,0:0:0:0:
256,192,166427,1,0,0:0:0:0:
256,192,166602,1,0,0:0:0:0:
256,192,166777,1,8,0:0:0:0:
256,192,166953,1,8,0:0:0:0:
256,192,167041,1,8,0:0:0:0:
256,192,167128,1,0,0:0:0:0:
256,192,167216,1,0,0:0:0:0:
256,192,167304,1,0,0:0:0:0:
256,192,167479,1,8,0:0:0:0:
256,192,167655,1,0,0:0:0:0:
256,192,168006,1,0,0:0:0:0:
256,192,168181,1,8,0:0:0:0:
256,192,168356,1,8,0:0:0:0:
256,192,168444,1,0,0:0:0:0:
256,192,168532,1,8,0:0:0:0:
256,192,168707,1,0,0:0:0:0:
256,192,168795,1,0,0:0:0:0:
256,192,168883,1,8,0:0:0:0:
256,192,168970,1,8,0:0:0:0:
256,192,169058,1,8,0:0:0:0:
256,192,169234,1,4,0:0:0:0:
256,192,169409,1,0,0:0:0:0:
256,192,169584,1,8,0:0:0:0:
256,192,169760,1,4,0:0:0:0:
256,192,170111,1,4,0:0:0:0:
256,192,170286,1,8,0:0:0:0:
256,192,170462,1,4,0:0:0:0:
256,192,170813,1,12,0:0:0:0:
256,192,171163,1,4,0:0:0:0:
256,192,171514,1,0,0:0:0:0:
256,192,171690,1,8,0:0:0:0:
256,192,171865,1,8,0:0:0:0:
256,192,171953,1,8,0:0:0:0:
256,192,172041,1,0,0:0:0:0:
256,192,172216,1,0,0:0:0:0:
256,192,172304,1,0,0:0:0:0:
256,192,172392,1,8,0:0:0:0:
256,192,172567,1,0,0:0:0:0:
256,192,172918,1,0,0:0:0:0:
256,192,173093,1,8,0:0:0:0:
256,192,173269,1,0,0:0:0:0:
256,192,173356,1,0,0:0:0:0:
256,192,173444,1,0,0:0:0:0:
256,192,173620,1,8,0:0:0:0:
256,192,173707,1,0,0:0:0:0:
256,192,173795,1,8,0:0:0:0:
256,192,173883,1,8,0:0:0:0:
256,192,173970,1,0,0:0:0:0:
256,192,174146,1,0,0:0:0:0:
256,192,174234,1,0,0:0:0:0:
256,192,174321,1,0,0:0:0:0:
256,192,174409,1,0,0:0:0:0:
256,192,174497,1,8,0:0:0:0:
256,192,174584,1,8,0:0:0:0:
256,192,174672,1,8,0:0:0:0:
256,192,174760,1,8,0:0:0:0:
256,192,174848,1,0,0:0:0:0:
256,192,176953,1,8,0:0:0:0:
256,192,177304,1,0,0:0:0:0:
256,192,177655,1,12,0:0:0:0:
256,192,180462,1,4,0:0:0:0:
256,192,182567,1,8,0:0:0:0:
256,192,182918,1,0,0:0:0:0:
256,192,183269,1,12,0:0:0:0:
256,192,184848,1,0,0:0:0:0:
256,192,184935,1,0,0:0:0:0:
256,192,185023,1,0,0:0:0:0:
256,192,185199,1,0,0:0:0:0:
256,192,185286,1,0,0:0:0:0:
256,192,185374,1,8,0:0:0:0:
256,192,185637,1,8,0:0:0:0:
256,192,185725,1,0,0:0:0:0:
256,192,185813,1,0,0:0:0:0:
256,192,185900,1,8,0:0:0:0:
256,192,186076,1,4,0:0:0:0:
256,192,186427,1,8,0:0:0:0:
256,192,186777,1,0,0:0:0:0:
256,192,186953,1,8,0:0:0:0:
256,192,187041,1,8,0:0:0:0:
256,192,187128,1,0,0:0:0:0:
256,192,187304,1,8,0:0:0:0:
256,192,187655,1,8,0:0:0:0:
256,192,187830,1,0,0:0:0:0:
256,192,188006,1,8,0:0:0:0:
256,192,188181,1,0,0:0:0:0:
256,192,188356,1,0,0:0:0:0:
256,192,188444,1,0,0:0:0:0:
256,192,188532,1,0,0:0:0:0:
256,192,188707,1,8,0:0:0:0:
256,192,188883,1,0,0:0:0:0:
256,192,189058,1,8,0:0:0:0:
256,192,189234,1,8,0:0:0:0:
256,192,189409,1,0,0:0:0:0:
256,192,189760,1,0,0:0:0:0:
256,192,189935,1,8,0:0:0:0:
256,192,190111,1,0,0:0:0:0:
256,192,190286,1,0,0:0:0:0:
256,192,190637,1,0,0:0:0:0:
256,192,190813,1,8,0:0:0:0:
256,192,190900,1,0,0:0:0:0:
256,192,190988,1,8,0:0:0:0:
256,192,191163,1,0,0:0:0:0:
256,192,191339,1,8,0:0:0:0:
256,192,191514,1,8,0:0:0:0:
256,192,191602,1,8,0:0:0:0:
256,192,191690,1,0,0:0:0:0:
256,192,191865,1,8,0:0:0:0:
256,192,192041,1,8,0:0:0:0:
256,192,192216,1,0,0:0:0:0:
256,192,192392,1,0,0:0:0:0:
256,192,192567,1,8,0:0:0:0:
256,192,192918,1,0,0:0:0:0:
256,192,193269,1,8,0:0:0:0:
256,192,193444,1,8,0:0:0:0:
256,192,193620,1,0,0:0:0:0:
256,192,193795,1,8,0:0:0:0:
256,192,193970,1,0,0:0:0:0:
256,192,194058,1,0,0:0:0:0:
256,192,194146,1,8,0:0:0:0:
256,192,194321,1,8,0:0:0:0:
256,192,194497,1,0,0:0:0:0:
256,192,194672,1,0,0:0:0:0:
256,192,194760,1,8,0:0:0:0:
256,192,194848,1,0,0:0:0:0:
256,192,194935,1,0,0:0:0:0:
256,192,195023,1,8,0:0:0:0:
256,192,195199,1,0,0:0:0:0:
256,192,195374,1,8,0:0:0:0:
256,192,195725,1,0,0:0:0:0:
256,192,196076,1,8,0:0:0:0:
256,192,196163,1,8,0:0:0:0:
256,192,196251,1,0,0:0:0:0:
256,192,196427,1,0,0:0:0:0:
256,192,196602,1,0,0:0:0:0:
256,192,196690,1,0,0:0:0:0:
256,192,196777,1,0,0:0:0:0:
256,192,196865,1,0,0:0:0:0:
256,192,196953,1,8,0:0:0:0:
256,192,197128,1,8,0:0:0:0:
256,192,197304,1,0,0:0:0:0:
256,192,197655,1,0,0:0:0:0:
256,192,197830,1,8,0:0:0:0:
256,192,197918,1,8,0:0:0:0:
256,192,198006,1,0,0:0:0:0:
256,192,198093,1,0,0:0:0:0:
256,192,198181,1,8,0:0:0:0:
256,192,198356,1,8,0:0:0:0:
256,192,198444,1,0,0:0:0:0:
256,192,198532,1,8,0:0:0:0:
256,192,198707,1,4,0:0:0:0:
256,192,198970,1,4,0:0:0:0:
256,192,199234,1,4,0:0:0:0:
256,192,199584,1,8,0:0:0:0:
256,192,199760,1,8,0:0:0:0:
256,192,199848,1,8,0:0:0:0:
256,192,199935,1,8,0:0:0:0:
256,192,200111,1,4,0:0:0:0:
256,192,200461,1,8,0:0:0:0:
256,192,200637,1,0,0:0:0:0:
256,192,200812,1,8,0:0:0:0:
256,192,200988,1,8,0:0:0:0:
256,192,201339,1,0,0:0:0:0:
256,192,201689,1,0,0:0:0:0:
256,192,201865,1,0,0:0:0:0:
256,192,202040,1,8,0:0:0:0:
256,192,202391,1,0,0:0:0:0:
256,192,202567,1,8,0:0:0:0:
256,192,202742,1,8,0:0:0:0:
256,192,202918,1,0,0:0:0:0:
256,192,203093,1,0,0:0:0:0:
256,192,203268,1,8,0:0:0:0:
256,192,203619,1,0,0:0:0:0:
256,192,203795,1,0,0:0:0:0:
256,192,203970,1,8,0:0:0:0:
256,192,204146,1,0,0:0:0:0:
256,192,204496,1,0,0:0:0:0:
256,192,204672,1,0,0:0:0:0:
256,192,204847,1,8,0:0:0:0:
256,192,205023,1,8,0:0:0:0:
256,192,205374,1,8,0:0:0:0:
256,192,205725,1,4,0:0:0:0:
256,192,206075,1,8,0:0:0:0:
256,192,206251,1,0,0:0:0:0:
256,192,206426,1,8,0:0:0:0:
256,192,206602,1,8,0:0:0:0:
256,192,206953,1,0,0:0:0:0:
256,192,207303,1,0,0:0:0:0:
256,192,207479,1,0,0:0:0:0:
256,192,207654,1,8,0:0:0:0:
256,192,208005,1,0,0:0:0:0:
256,192,208181,1,8,0:0:0:0:
256,192,208356,1,8,0:0:0:0:
256,192,208532,1,0,0:0:0:0:
256,192,208707,1,0,0:0:0:0:
256,192,208882,1,8,0:0:0:0:
256,192,208970,1,0,0:0:0:0:
256,192,209058,1,8,0:0:0:0:
256,192,209146,1,8,0:0:0:0:
256,192,209233,1,0,0:0:0:0:
256,192,209409,1,0,0:0:0:0:
256,192,209496,1,0,0:0:0:0:
256,192,209584,1,8,0:0:0:0:
256,192,209760,1,0,0:0:0:0:
256,192,210111,1,0,0:0:0:0:
256,192,210286,1,8,0:0:0:0:
256,192,210461,1,0,0:0:0:0:
256,192,210549,1,0,0:0:0:0:
256,192,210637,1,8,0:0:0:0:
256,192,210812,1,0,0:0:0:0:
256,192,210900,1,0,0:0:0:0:
256,192,210988,1,8,0:0:0:0:
256,192,211075,1,8,0:0:0:0:
256,192,211163,1,8,0:0:0:0:
256,192,211251,1,8,0:0:0:0:
256,192,211339,1,0,0:0:0:0:
256,192,211514,1,0,0:0:0:0:
256,192,211689,1,8,0:0:0:0:
256,192,211865,1,8,0:0:0:0:
256,192,211953,1,8,0:0:0:0:
256,192,212040,1,0,0:0:0:0:
256,192,212216,1,0,0:0:0:0:
256,192,212391,1,8,0:0:0:0:
256,192,212567,1,0,0:0:0:0:
256,192,212918,1,0,0:0:0:0:
256,192,213093,1,8,0:0:0:0:
256,192,213268,1,8,0:0:0:0:
256,192,213356,1,8,0:0:0:0:
256,192,213444,1,8,0:0:0:0:
256,192,213619,1,0,0:0:0:0:
256,192,213795,1,8,0:0:0:0:
256,192,213970,1,0,0:0:0:0:
256,192,214058,1,8,0:0:0:0:
256,192,214146,1,0,0:0:0:0:
256,192,214321,1,0,0:0:0:0:
256,192,214496,1,8,0:0:0:0:
256,192,214672,1,8,0:0:0:0:
256,192,214760,1,8,0:0:0:0:
256,192,214847,1,0,0:0:0:0:
256,192,214935,1,0,0:0:0:0:
256,192,215023,1,0,0:0:0:0:
256,192,215198,1,8,0:0:0:0:
256,192,215374,1,0,0:0:0:0:
256,192,215725,1,0,0:0:0:0:
256,192,215900,1,8,0:0:0:0:
256,192,216075,1,8,0:0:0:0:
256,192,216163,1,0,0:0:0:0:
256,192,216251,1,8,0:0:0:0:
256,192,216426,1,0,0:0:0:0:
256,192,216514,1,0,0:0:0:0:
256,192,216602,1,8,0:0:0:0:
256,192,216689,1,8,0:0:0:0:
256,192,216777,1,8,0:0:0:0:
256,192,216953,1,4,0:0:0:0:
256,192,217128,1,0,0:0:0:0:
256,192,217303,1,8,0:0:0:0:
256,192,217479,1,4,0:0:0:0:
256,192,217830,1,4,0:0:0:0:
256,192,218005,1,8,0:0:0:0:
256,192,218181,1,4,0:0:0:0:
256,192,218532,1,4,0:0:0:0:
256,192,218882,1,12,0:0:0:0:
256,192,219233,1,0,0:0:0:0:
256,192,219409,1,8,0:0:0:0:
256,192,219584,1,8,0:0:0:0:
256,192,219672,1,8,0:0:0:0:
256,192,219760,1,0,0:0:0:0:
256,192,219935,1,0,0:0:0:0:
256,192,220023,1,0,0:0:0:0:
256,192,220111,1,8,0:0:0:0:
256,192,220286,1,0,0:0:0:0:
256,192,220637,1,0,0:0:0:0:
256,192,220812,1,8,0:0:0:0:
256,192,220988,1,0,0:0:0:0:
256,192,221075,1,0,0:0:0:0:
256,192,221163,1,0,0:0:0:0:
256,192,221339,1,8,0:0:0:0:
256,192,221426,1,0,0:0:0:0:
256,192,221514,1,8,0:0:0:0:
256,192,221602,1,8,0:0:0:0:
256,192,221689,1,0,0:0:0:0:
256,192,221865,1,0,0:0:0:0:
256,192,221953,1,0,0:0:0:0:
256,192,222040,1,0,0:0:0:0:
256,192,222128,1,0,0:0:0:0:
256,192,222216,1,8,0:0:0:0:
256,192,222303,1,8,0:0:0:0:
256,192,222391,1,8,0:0:0:0:
256,192,222479,1,8,0:0:0:0:
256,192,222567,1,0,0:0:0:0:
256,192,222742,1,8,0:0:0:0:
256,192,222918,1,0,0:0:0:0:
256,192,223093,1,0,0:0:0:0:
256,192,223181,1,0,0:0:0:0:
256,192,223268,1,8,0:0:0:0:
256,192,223444,1,8,0:0:0:0:
256,192,223532,1,8,0:0:0:0:
256,192,223619,1,0,0:0:0:0:
256,192,223795,1,8,0:0:0:0:
256,192,224146,1,0,0:0:0:0:
256,192,224321,1,8,0:0:0:0:
256,192,224496,1,0,0:0:0:0:
256,192,224672,1,0,0:0:0:0:
256,192,224760,1,8,0:0:0:0:
256,192,224847,1,0,0:0:0:0:
256,192,225023,1,8,0:0:0:0:
256,192,225198,1,0,0:0:0:0:
256,192,225374,1,8,0:0:0:0:
256,192,225461,1,0,0:0:0:0:
256,192,225549,1,8,0:0:0:0:
256,192,225637,1,8,0:0:0:0:
256,192,225725,1,0,0:0:0:0:
256,192,225900,1,8,0:0:0:0:
256,192,226075,1,0,0:0:0:0:
256,192,226163,1,0,0:0:0:0:
256,192,226251,1,8,0:0:0:0:
256,192,226339,1,0,0:0:0:0:
256,192,226426,1,8,0:0:0:0:
256,192,226602,1,0,0:0:0:0:
256,192,226953,1,0,0:0:0:0:
256,192,227128,1,8,0:0:0:0:
256,192,227303,1,0,0:0:0:0:
256,192,227479,1,0,0:0:0:0:
256,192,227567,1,8,0:0:0:0:
256,192,227654,1,0,0:0:0:0:
256,192,227742,1,0,0:0:0:0:
256,192,227830,1,8,0:0:0:0:
256,192,228005,1,8,0:0:0:0:
256,192,228093,1,8,0:0:0:0:
256,192,228181,1,0,0:0:0:0:
256,192,228356,1,0,0:0:0:0:
256,192,228532,1,8,0:0:0:0:
256,192,228619,1,0,0:0:0:0:
256,192,228707,1,8,0:0:0:0:
256,192,228882,1,0,0:0:0:0:
256,192,229058,1,8,0:0:0:0:
256,192,229146,1,8,0:0:0:0:
256,192,229233,1,8,0:0:0:0:
256,192,229409,1,0,0:0:0:0:
256,192,229760,1,0,0:0:0:0:
256,192,229935,1,8,0:0:0:0:
256,192,230111,1,0,0:0:0:0:
256,192,230286,1,0,0:0:0:0:
256,192,230374,1,8,0:0:0:0:
256,192,230461,1,0,0:0:0:0:
256,192,230637,1,8,0:0:0:0:
256,192,230812,1,0,0:0:0:0:
256,192,230988,1,8,0:0:0:0:
256,192,231163,1,0,0:0:0:0:
256,192,231251,1,0,0:0:0:0:
256,192,231339,1,0,0:0:0:0:
256,192,231514,1,8,0:0:0:0:
256,192,231689,1,0,0:0:0:0:
256,192,231865,1,8,0:0:0:0:
256,192,231953,1,8,0:0:0:0:
256,192,232040,1,0,0:0:0:0:
256,192,232216,1,8,0:0:0:0:
256,192,232391,1,0,0:0:0:0:
256,192,232567,1,0,0:0:0:0:
256,192,232654,1,0,0:0:0:0:
256,192,232742,1,8,0:0:0:0:
256,192,232918,1,0,0:0:0:0:
256,192,233093,1,0,0:0:0:0:
256,192,233181,1,8,0:0:0:0:
256,192,233268,1,0,0:0:0:0:
256,192,233356,1,0,0:0:0:0:
256,192,233444,1,8,0:0:0:0:
256,192,233532,1,8,0:0:0:0:
256,192,233619,1,8,0:0:0:0:
256,192,233795,1,4,0:0:0:0:
256,192,233970,1,8,0:0:0:0:
256,192,234146,1,0,0:0:0:0:
256,192,234321,1,0,0:0:0:0:
256,192,234409,1,0,0:0:0:0:
256,192,234496,1,8,0:0:0:0:
256,192,234672,1,8,0:0:0:0:
256,192,234760,1,8,0:0:0:0:
256,192,234847,1,0,0:0:0:0:
256,192,235023,1,8,0:0:0:0:
256,192,235374,1,0,0:0:0:0:
256,192,235549,1,8,0:0:0:0:
256,192,235725,1,0,0:0:0:0:
256,192,235900,1,0,0:0:0:0:
256,192,235988,1,8,0:0:0:0:
256,192,236075,1,0,0:0:0:0:
256,192,236251,1,8,0:0:0:0:
256,192,236426,1,0,0:0:0:0:
256,192,236602,1,8,0:0:0:0:
256,192,236689,1,0,0:0:0:0:
256,192,236777,1,8,0:0:0:0:
256,192,236865,1,8,0:0:0:0:
256,192,236953,1,0,0:0:0:0:
256,192,237128,1,8,0:0:0:0:
256,192,237303,1,0,0:0:0:0:
256,192,237391,1,0,0:0:0:0:
256,192,237479,1,8,0:0:0:0:
256,192,237567,1,0,0:0:0:0:
256,192,237654,1,8,0:0:0:0:
256,192,237830,1,0,0:0:0:0:
256,192,238181,1,0,0:0:0:0:
256,192,238356,1,8,0:0:0:0:
256,192,238532,1,0,0:0:0:0:
256,192,238707,1,0,0:0:0:0:
256,192,238795,1,8,0:0:0:0:
256,192,238882,1,0,0:0:0:0:
256,192,238970,1,0,0:0:0:0:
256,192,239058,1,8,0:0:0:0:
256,192,239233,1,0,0:0:0:0:
256,192,239409,1,12,0:0:0:0:
256,192,239584,1,0,0:0:0:0:
256,192,239760,1,0,0:0:0:0:
256,192,239935,1,12,0:0:0:0:
256,192,240286,1,12,0:0:0:0:
256,192,240461,1,0,0:0:0:0:
256,192,240637,1,12,0:0:0:0:
256,192,240988,1,12,0:0:0:0:
256,192,241163,1,0,0:0:0:0:
256,192,241339,1,8,0:0:0:0:
256,192,241426,1,8,0:0:0:0:
256,192,241514,1,0,0:0:0:0:
256,192,241689,1,0,0:0:0:0:
256,192,241865,1,8,0:0:0:0:
256,192,242040,1,0,0:0:0:0:
256,192,242128,1,0,0:0:0:0:
256,192,242216,1,8,0:0:0:0:
256,192,242391,1,0,0:0:0:0:
256,192,242567,1,8,0:0:0:0:
256,192,242654,1,0,0:0:0:0:
256,192,242742,1,8,0:0:0:0:
256,192,242918,1,0,0:0:0:0:
256,192,243093,1,8,0:0:0:0:
256,192,243181,1,8,0:0:0:0:
256,192,243268,1,0,0:0:0:0:
256,192,243444,1,8,0:0:0:0:
256,192,243795,1,0,0:0:0:0:
256,192,243970,1,8,0:0:0:0:
256,192,244058,1,0,0:0:0:0:
256,192,244146,1,8,0:0:0:0:
256,192,244233,1,8,0:0:0:0:
256,192,244321,1,0,0:0:0:0:
256,192,244496,1,0,0:0:0:0:
256,192,244672,1,8,0:0:0:0:
256,192,244760,1,8,0:0:0:0:
256,192,244847,1,8,0:0:0:0:
256,192,244935,1,8,0:0:0:0:
256,192,245023,1,0,0:0:0:0:
256,192,245198,1,0,0:0:0:0:
256,192,245374,1,8,0:0:0:0:
256,192,245549,1,0,0:0:0:0:
256,192,245637,1,0,0:0:0:0:
256,192,245725,1,8,0:0:0:0:
256,192,245900,1,8,0:0:0:0:
256,192,246075,1,0,0:0:0:0:
256,192,246251,1,8,0:0:0:0:
256,192,246339,1,8,0:0:0:0:
256,192,246426,1,0,0:0:0:0:
256,192,246602,1,0,0:0:0:0:
256,192,246777,1,8,0:0:0:0:
256,192,247128,1,0,0:0:0:0:
256,192,247303,1,8,0:0:0:0:
256,192,247391,1,0,0:0:0:0:
256,192,247479,1,8,0:0:0:0:
256,192,247567,1,8,0:0:0:0:
256,192,247654,1,0,0:0:0:0:
256,192,247830,1,4,0:0:0:0:
256,192,248005,1,8,0:0:0:0:
256,192,248181,1,8,0:0:0:0:
256,192,248268,1,0,0:0:0:0:
256,192,248356,1,0,0:0:0:0:
256,192,248532,1,8,0:0:0:0:
256,192,248707,1,0,0:0:0:0:
256,192,248795,1,0,0:0:0:0:
256,192,248882,1,8,0:0:0:0:
256,192,249058,1,4,0:0:0:0:
256,192,249409,1,4,0:0:0:0:
256,192,249584,1,8,0:0:0:0:
256,192,249760,1,12,0:0:0:0:
256,192,250110,1,12,0:0:0:0:
256,192,250286,1,0,0:0:0:0:
256,192,250374,1,8,0:0:0:0:
256,192,250461,1,8,0:0:0:0:
256,192,250549,1,8,0:0:0:0:
256,192,250637,1,0,0:0:0:0:
256,192,250812,1,0,0:0:0:0:
256,192,250988,1,8,0:0:0:0:
256,192,251163,1,0,0:0:0:0:
256,192,251251,1,0,0:0:0:0:
256,192,251339,1,8,0:0:0:0:
256,192,251514,1,8,0:0:0:0:
256,192,251689,1,0,0:0:0:0:
256,192,251865,1,8,0:0:0:0:
256,192,251953,1,8,0:0:0:0:
256,192,252040,1,0,0:0:0:0:
256,192,252216,1,0,0:0:0:0:
256,192,252391,1,8,0:0:0:0:
256,192,252742,1,0,0:0:0:0:
256,192,252918,1,8,0:0:0:0:
256,192,253005,1,0,0:0:0:0:
256,192,253093,1,8,0:0:0:0:
256,192,253181,1,8,0:0:0:0:
256,192,253268,1,0,0:0:0:0:
256,192,253444,1,4,0:0:0:0:
256,192,253619,1,8,0:0:0:0:
256,192,253707,1,0,0:0:0:0:
256,192,253795,1,8,0:0:0:0:
256,192,253970,1,0,0:0:0:0:
256,192,254146,1,8,0:0:0:0:
256,192,254233,1,8,0:0:0:0:
256,192,254321,1,0,0:0:0:0:
256,192,254409,1,0,0:0:0:0:
256,192,254496,1,8,0:0:0:0:
256,192,254672,1,4,0:0:0:0:
256,192,255023,1,4,0:0:0:0:
256,192,255374,1,12,0:0:0:0:
256,192,255725,1,12,0:0:0:0:
256,192,255900,1,0,0:0:0:0:
256,192,255988,1,8,0:0:0:0:
256,192,256075,1,8,0:0:0:0:
256,192,256163,1,8,0:0:0:0:
256,192,256251,1,0,0:0:0:0:
