osu file format v14

[General]
AudioFilename: audio.mp3
AudioLeadIn: 0
PreviewTime: 76408
Countdown: 0
SampleSet: Soft
StackLeniency: 0.7
Mode: 0
LetterboxInBreaks: 0
WidescreenStoryboard: 0

[Editor]
Bookmarks: 7397,16030,29843,43656,57469,73008,76462,90275,104088,117901,131714,145526,161066,164519,178332,192145,199052,207685,226678,228404,235311,242217,256030,269843,283656,297469,311282,318188,325095
DistanceSpacing: 1.34
BeatDivisor: 4
GridSize: 32
TimelineZoom: 2.100001

[Metadata]
Title:change your core self
TitleUnicode:change your core self
Artist:fripSide
ArtistUnicode:fripSide
Creator:Lasse
Version:resolve
Source:
Tags:japanese pop electronic infinite synthesis 5 南條愛乃 Nanjou Yoshino Nanjō 八木沼悟志 Yaginuma Satoshi
BeatmapID:2901015
BeatmapSetID:1406876

[Difficulty]
HPDrainRate:5.2
CircleSize:4.2
OverallDifficulty:8.6
ApproachRate:9
SliderMultiplier:1.6
SliderTickRate:1

[Events]
//Background and Video events
0,0,"b2.jpg",0,0
//Break Periods
2,228604,234711
//Storyboard Layer 0 (Background)
//Storyboard Layer 1 (Fail)
//Storyboard Layer 2 (Pass)
//Storyboard Layer 3 (Foreground)
//Storyboard Layer 4 (Overlay)
//Storyboard Sound Samples

[TimingPoints]
491,431.654676258993,4,2,34,50,1,0
491,-133.333333333333,4,2,34,50,0,0
6534,-119.047619047619,4,2,34,57,0,0
7397,-111.111111111111,4,2,34,60,0,0
7613,-125,4,2,34,52,0,0
14196,-100,4,2,34,52,0,0
16030,-90.9090909090909,4,2,34,67,0,0
29843,-111.111111111111,4,2,34,62,0,0
36318,-99.9999999999999,4,2,34,62,0,0
36534,-90.9090909090909,4,2,34,62,0,0
36749,-111.111111111111,4,2,34,62,0,0
42793,-99.9999999999999,4,2,34,65,0,0
43224,-90.9090909090909,4,2,34,66,0,0
43440,-100,4,2,34,67,0,0
43656,-100,4,2,34,68,0,0
43872,-100,4,2,34,65,0,0
50131,-90.9090909090909,4,2,34,65,0,0
50347,-83.3333333333333,4,2,34,65,0,0
50562,-100,4,2,34,65,0,0
56606,-90.9090909090909,4,2,34,65,0,0
57037,-83.3333333333333,4,2,34,65,0,0
57253,-76.9230769230769,4,2,34,65,0,0
57469,-100,4,2,34,65,0,0
57577,-100,4,2,34,60,0,0
57901,-133.333333333333,4,2,34,60,0,0
58332,-100,4,2,34,60,0,0
59196,-100,4,2,34,60,0,0
59627,-133.333333333333,4,2,34,60,0,0
60059,-100,4,2,34,60,0,0
61354,-133.333333333333,4,2,34,60,0,0
61785,-100,4,2,34,60,0,0
62649,-100,4,2,34,60,0,0
63080,-133.333333333333,4,2,34,60,0,0
63512,-100,4,2,34,60,0,0
64375,-100,4,2,34,60,0,0
64807,-133.333333333333,4,2,34,60,0,0
65239,-100,4,2,34,60,0,0
66534,-133.333333333333,4,2,34,60,0,0
66965,-100,4,2,34,60,0,0
68692,-90.9090909090909,4,2,34,60,0,0
71714,-125,4,2,34,60,0,0
72145,-90.9090909090909,4,2,34,60,0,0
73008,-83.3333333333333,4,2,34,63,0,0
74735,-83.3333333333333,4,2,34,67,0,0
76462,-76.9230769230769,4,2,34,72,0,1
89843,-76.9230769230769,4,2,35,72,0,1
89951,-76.9230769230769,4,2,34,72,0,1
103656,-76.9230769230769,4,2,35,72,0,1
103764,-76.9230769230769,4,2,34,72,0,1
104088,-90.9090909090909,4,2,34,67,0,0
117901,-111.111111111111,4,2,34,62,0,0
124160,-99.9999999999999,4,2,34,62,0,0
124591,-90.9090909090909,4,2,34,62,0,0
124807,-111.111111111111,4,2,34,62,0,0
130850,-99.9999999999999,4,2,34,65,0,0
131282,-90.9090909090909,4,2,34,66,0,0
131498,-100,4,2,34,67,0,0
131714,-100,4,2,34,68,0,0
131929,-100,4,2,34,65,0,0
138188,-90.9090909090909,4,2,34,65,0,0
138404,-83.3333333333333,4,2,34,65,0,0
138620,-100,4,2,34,65,0,0
144663,-90.9090909090909,4,2,34,65,0,0
145095,-83.3333333333333,4,2,34,65,0,0
145311,-76.9230769230769,4,2,34,65,0,0
145526,-100,4,2,34,65,0,0
145634,-100,4,2,34,60,0,0
145958,-133.333333333333,4,2,34,60,0,0
146390,-100,4,2,34,60,0,0
147253,-100,4,2,34,60,0,0
147685,-133.333333333333,4,2,34,60,0,0
148116,-100,4,2,34,60,0,0
149411,-133.333333333333,4,2,34,60,0,0
149843,-100,4,2,34,60,0,0
150706,-100,4,2,34,60,0,0
151138,-133.333333333333,4,2,34,60,0,0
151570,-100,4,2,34,60,0,0
152433,-100,4,2,34,60,0,0
152865,-133.333333333333,4,2,34,60,0,0
153296,-100,4,2,34,60,0,0
154591,-133.333333333333,4,2,34,60,0,0
155023,-100,4,2,34,60,0,0
156749,-90.9090909090909,4,2,34,60,0,0
159771,-125,4,2,34,60,0,0
160203,-90.9090909090909,4,2,34,60,0,0
161066,-83.3333333333333,4,2,34,63,0,0
162793,-83.3333333333333,4,2,34,67,0,0
164519,-76.9230769230769,4,2,34,72,0,1
177901,-76.9230769230769,4,2,35,72,0,1
178008,-76.9230769230769,4,2,34,72,0,1
191714,-76.9230769230769,4,2,35,72,0,1
191821,-76.9230769230769,4,2,34,72,0,1
192145,-111.111111111111,4,2,34,68,0,0
192361,-111.111111111111,4,2,34,54,0,0
199052,-111.111111111111,4,2,34,57,0,0
199267,-111.111111111111,4,2,34,30,0,0
200562,-111.111111111111,4,2,34,46,0,0
200778,-111.111111111111,4,2,34,57,0,0
200994,-111.111111111111,4,2,34,30,0,0
202289,-111.111111111111,4,2,34,46,0,0
202505,-111.111111111111,4,2,34,57,0,0
202721,-111.111111111111,4,2,34,30,0,0
204016,-111.111111111111,4,2,34,46,0,0
204232,-111.111111111111,4,2,34,57,0,0
204447,-111.111111111111,4,2,34,30,0,0
205742,-111.111111111111,4,2,34,46,0,0
205958,-111.111111111111,4,2,34,60,0,0
206390,-111.111111111111,4,2,34,62,0,0
206821,-111.111111111111,4,2,34,65,0,0
207253,-111.111111111111,4,2,34,68,0,0
207685,-71.4285714285714,4,2,34,72,0,0
220634,-66.6666666666667,4,2,34,72,0,0
221282,-71.4285714285714,4,2,34,72,0,0
223224,-66.6666666666667,4,2,34,74,0,0
228404,-66.6666666666667,4,2,34,5,0,0
235311,-125,4,2,35,56,0,0
235634,-125,4,2,34,52,0,0
238764,-125,4,2,34,54,0,0
240491,-100,4,2,34,56,0,0
241354,-100,4,2,34,64,0,0
241785,-100,4,2,35,68,0,0
241893,-100,4,2,34,68,0,0
242217,-72.463768115942,4,2,34,72,0,1
255598,-72.463768115942,4,2,35,72,0,1
255706,-72.463768115942,4,2,34,72,0,1
256030,-68.4931506849315,4,2,34,74,0,1
269411,-68.4931506849315,4,2,35,74,0,1
269519,-68.4931506849315,4,2,34,74,0,1
269843,-66.6666666666667,4,2,34,75,0,1
282793,-62.5,4,2,34,75,0,1
283224,-58.8235294117647,4,2,34,75,0,1
283440,-55.5555555555556,4,2,34,75,0,1
283656,-90.9090909090909,4,2,34,68,0,0
297469,-90.9090909090909,4,2,34,66,0,0
311282,-111.111111111111,4,2,34,58,0,0
318188,-125,4,2,34,54,0,0
324232,-125,4,2,34,57,0,0
324663,-125,4,2,34,60,0,0

[Colours]
Combo1 : 250,180,240
Combo2 : 120,200,230
Combo3 : 255,230,130
Combo4 : 160,230,150

[HitObjects]
0,162,491,5,10,1:2:0:50:special.ogg
174,133,706,1,0,0:0:0:0:
30,79,1030,5,0,0:0:0:0:
143,215,1354,1,0,0:0:0:0:
30,79,1678,1,0,0:0:0:0:
153,231,2001,5,0,1:0:0:0:
199,58,2217,1,2,1:2:0:0:
326,185,2433,1,0,0:0:0:0:
125,131,2757,5,0,0:0:0:0:
252,257,3080,1,0,0:0:0:0:
299,84,3404,1,0,0:0:0:0:
472,165,3727,5,0,1:0:0:0:
326,185,3943,1,2,1:2:0:0:
493,286,4159,1,0,0:0:0:0:
347,306,4483,5,0,0:0:0:0:
472,165,4807,1,0,0:0:0:0:
326,185,5131,1,0,0:0:0:0:
429,359,5454,5,0,1:0:0:0:
409,235,5670,1,2,1:2:0:0:
389,111,5886,1,0,0:0:0:0:
242,3,6210,5,0,0:0:0:0:
180,211,6534,5,0,1:0:0:0:
180,211,6642,1,0,1:0:0:0:
180,211,6749,2,0,P|192:216|219:219,1,33.5999989746094,8|0,1:2|3:0,0:0:0:0:
95,129,6965,2,0,P|93:111|80:88,1,33.5999989746094,8|0,1:2|3:0,0:0:0:0:
58,238,7181,5,0,1:0:0:0:
51,308,7289,1,8,2:0:0:0:
121,335,7397,2,0,P|147:335|196:309,1,71.9999978027344,14|0,1:2|0:0,0:0:0:0:
291,136,7829,5,0,0:0:0:0:
291,136,7937,1,0,0:0:0:0:
190,189,8152,1,0,0:0:0:0:
190,189,8260,1,0,0:0:0:0:
286,250,8476,1,0,0:0:0:0:
286,250,8584,1,0,2:0:0:0:
286,250,8692,2,0,P|296:269|294:319,1,64,0|0,2:0|1:0,2:0:0:0:
155,371,9124,5,2,1:2:0:0:
86,205,9339,1,0,0:0:0:0:
7,260,9555,5,0,0:0:0:0:
7,260,9663,1,0,0:0:0:0:
149,289,9879,1,0,0:0:0:0:
149,289,9987,1,0,0:0:0:0:
103,128,10203,1,0,0:0:0:0:
103,128,10311,1,0,0:0:0:0:
103,128,10419,2,0,P|103:93|114:66,1,64,0|0,2:0|1:0,2:0:0:0:
235,4,10850,5,2,1:2:0:0:
308,157,11065,1,0,0:0:0:0:
442,94,11282,5,0,0:0:0:0:
442,94,11390,1,0,0:0:0:0:
315,164,11606,1,0,0:0:0:0:
315,164,11713,1,0,0:0:0:0:
480,232,11929,1,0,0:0:0:0:
480,232,12037,1,0,0:0:0:0:
480,232,12145,2,0,P|475:271|458:297,1,64,0|0,0:0|1:0,0:0:0:0:
350,384,12577,5,2,1:2:0:0:
254,233,12792,1,0,0:0:0:0:
199,305,13009,5,0,0:0:0:0:
199,305,13117,1,0,0:0:0:0:
235,144,13333,1,0,0:0:0:0:
235,144,13440,1,0,0:0:0:0:
347,261,13656,1,0,0:0:0:0:
347,261,13764,1,0,0:0:0:0:
347,261,13872,2,0,P|381:258|410:231,1,64,0|0,0:0|1:0,0:0:0:0:
416,232,14196,5,2,1:2:0:0:
375,173,14303,2,0,P|373:147|392:104,1,60,8|0,1:2|0:0,0:0:0:0:
204,21,14735,5,8,1:2:0:0:
275,8,14843,1,0,3:0:0:0:
105,152,15167,5,8,1:2:0:0:
172,177,15275,2,0,P|183:193|186:217,1,40,8|0,1:2|2:0,0:0:0:0:
53,300,15491,5,8,2:2:0:0:
23,233,15598,2,0,P|29:214|39:196,1,40,8|0,2:2|2:3,0:0:0:0:
130,345,15814,6,0,L|123:377,2,20,8|0|0,1:2|2:2|2:2,0:0:0:0:
221,284,16030,6,0,P|253:270|318:275,1,88.000002685547,14|0,1:0|0:0,0:0:0:0:
438,379,16462,1,8,1:2:0:0:
438,379,16570,2,0,L|423:278,1,88.000002685547
508,204,16893,2,0,B|466:220|466:220|428:199,1,88.000002685547,2|0,1:2|0:0,0:0:0:0:
365,164,17217,1,0,0:0:0:0:
365,164,17325,1,8,1:2:0:0:
502,98,17541,1,0,0:0:0:0:
312,22,17757,6,0,B|351:16|351:16|357:12|357:12|399:5,1,88.000002685547,2|0,1:2|0:0,0:0:0:0:
259,127,18188,1,8,1:2:0:0:
259,127,18296,1,0,0:0:0:0:
164,58,18512,1,0,0:0:0:0:
164,58,18620,2,0,P|120:41|59:48,1,88.000002685547,2|0,1:2|0:0,0:0:0:0:
165,222,19052,2,0,P|141:260|142:320,1,88.000002685547,8|0,1:2|0:0,0:0:0:0:
305,384,19483,5,2,1:2:0:0:
218,286,19699,1,0,0:0:0:0:
400,223,19915,1,8,1:2:0:0:
400,223,20023,2,0,P|424:260|418:320,1,88.000002685547
357,362,20347,5,2,1:2:0:0:
325,357,20455,1,0,3:0:0:0:
294,353,20562,1,0,3:0:0:0:
263,351,20670,1,0,3:0:0:0:
218,286,20778,6,0,L|209:237,1,44.0000013427735,2|0,1:2|0:0,0:0:0:0:
287,167,20994,2,0,L|291:124,1,44.0000013427735,2|0,0:0|0:0,0:0:0:0:
198,33,21210,6,0,B|160:55|160:55|118:39,1,88.000002685547,2|0,1:2|0:0,0:0:0:0:
298,131,21642,1,8,1:2:0:0:
298,131,21749,2,0,B|339:147|339:147|377:125,1,88.000002685547,0|0,2:2|2:0,0:0:0:0:
439,24,22073,6,2,L|433:68,1,44.0000013427735,2|0,1:1|0:0,0:1:0:0:
505,200,22289,1,2,0:1:0:0:
505,200,22397,1,0,0:0:0:0:
505,200,22505,2,2,L|513:139,1,44.0000013427735,10|0,1:2|0:0,0:1:0:0:
359,224,22721,2,2,L|354:268,1,44.0000013427735,2|0,1:2|0:0,0:1:0:0:
431,352,22937,6,0,B|473:362|473:362|512:341,1,88.000002685547,14|0,1:0|0:0,0:0:0:0:
367,231,23369,1,8,1:2:0:0:
367,231,23477,2,0,B|332:225|332:225|323:229|323:229|280:221,1,88.000002685547
217,267,23800,2,0,P|202:224|217:179,1,88.000002685547,2|0,1:2|0:0,0:0:0:0:
283,144,24124,1,0,0:0:0:0:
283,144,24232,1,10,1:2:0:0:
165,13,24448,1,0,0:0:0:0:
7,129,24664,6,0,P|-6:170|7:212,1,88.000002685547,2|0,1:2|0:0,0:0:0:0:
103,320,25095,1,8,1:2:0:0:
103,320,25203,1,0,0:0:0:0:
217,188,25419,1,0,0:0:0:0:
217,188,25526,2,0,B|228:148|206:144|222:101,1,88.000002685547,2|0,1:2|0:0,0:0:0:0:
270,43,25850,1,0,0:0:0:0:
332,84,25958,2,0,P|372:96|422:79,1,88.000002685547,8|0,1:2|0:0,0:0:0:0:
512,6,26390,5,2,1:2:0:0:
488,197,26606,1,0,0:0:0:0:
340,91,26822,1,8,1:2:0:0:
340,91,26930,2,0,P|295:76|254:80,1,88.000002685547
170,166,27254,5,2,1:2:0:0:
163,209,27362,1,0,3:0:0:0:
156,252,27469,1,0,3:0:0:0:
149,295,27577,1,0,3:0:0:0:
75,337,27685,6,0,P|44:333|25:324,1,44.0000013427735,2|0,1:2|0:0,0:0:0:0:
198,231,27901,2,0,P|223:225|245:225,1,44.0000013427735,2|0,0:0|0:0,0:0:0:0:
358,334,28117,6,0,B|399:353|399:353|440:339,1,88.000002685547,2|0,1:2|0:0,0:0:0:0:
512,311,28440,1,2,0:0:0:0:
512,311,28548,1,8,1:2:0:0:
312,182,28764,1,2,0:0:0:0:
488,60,28980,5,0,1:0:0:0:
512,96,29088,1,0,1:0:0:0:
505,139,29196,2,0,P|483:150|464:151,1,44.0000013427735,8|0,1:2|3:0,0:0:0:0:
346,41,29411,2,0,P|323:33|291:33,1,44.0000013427735,0|0,1:0|3:0,0:0:0:0:
161,105,29627,2,0,L|121:112,2,22.0000006713867,0|0|8,1:0|1:0|1:2,0:0:0:0:
312,182,29843,6,0,B|329:211|331:233|331:233|315:254,1,71.9999978027344,12|0,1:1|0:3,0:0:0:0:
236,355,30275,1,0,1:2:0:0:
217,338,30383,1,0,2:0:0:0:
193,328,30491,1,0,2:0:0:0:
168,324,30598,1,0,2:0:0:0:
143,330,30706,2,0,B|109:344|109:344|74:336,1,71.9999978027344,2|0,1:2|0:0,0:0:0:0:
5,308,31030,1,0,0:0:0:0:
5,308,31138,2,0,L|25:256,1,35.9999989013672,8|0,1:2|0:0,0:0:0:0:
80,194,31354,5,0,3:2:0:0:
80,194,31462,1,0,3:2:0:0:
144,226,31570,6,0,P|182:224|214:201,1,71.9999978027344,2|0,1:2|0:0,0:0:0:0:
266,102,32001,1,0,1:0:0:0:
254,79,32110,1,0,2:0:0:0:
253,53,32218,1,0,2:0:0:0:
262,29,32325,1,0,2:0:0:0:
282,14,32433,2,0,P|317:12|363:36,1,71.9999978027344,2|0,1:2|0:0,2:2:0:0:
394,87,32757,1,0,0:0:0:0:
394,87,32865,2,0,P|416:81|439:71,1,35.9999989013672,8|0,1:2|0:0,0:0:0:0:
477,166,33080,2,0,P|493:168|525:178,1,35.9999989013672
399,256,33296,6,0,B|362:261|362:261|324:241,1,71.9999978027344,2|0,1:2|0:0,0:0:0:0:
324,261,33620,1,0,0:0:0:0:
317,277,33728,1,0,1:0:0:0:
246,157,33944,1,0,0:0:0:0:
249,139,34052,1,0,0:0:0:0:
253,121,34160,2,0,P|249:84|227:41,1,71.9999978027344,2|0,1:2|0:0,0:0:0:0:
176,11,34483,1,0,0:0:0:0:
176,11,34591,2,0,P|153:17|116:19,1,35.9999989013672,8|0,1:2|0:0,0:0:0:0:
57,70,34807,2,0,P|33:63|-12:56,1,35.9999989013672
107,170,35023,6,0,P|90:199|79:246,1,71.9999978027344,2|0,1:2|0:0,0:0:0:0:
74,317,35347,1,0,0:0:0:0:
74,317,35455,1,0,1:0:0:0:
218,378,35670,1,2,0:0:0:0:
218,378,35778,1,0,0:0:0:0:
218,378,35886,2,0,P|253:361|290:357,1,71.9999978027344,0|0,1:2|0:0,0:0:0:0:
357,384,36210,1,0,0:0:0:0:
409,331,36318,6,0,P|407:311|399:293,1,40,8|0,1:2|0:0,0:0:0:0:
297,216,36534,2,0,P|300:190|308:172,1,44.0000013427735,0|0,1:0|0:0,0:0:0:0:
436,99,36749,6,0,P|475:97|513:73,1,71.9999978027344,8|0,1:1|0:3,0:0:0:0:
306,31,37181,1,0,1:2:0:0:
285,16,37289,1,0,2:0:0:0:
260,8,37397,1,0,2:0:0:0:
235,7,37504,1,0,2:0:0:0:
210,15,37613,2,0,B|206:40|206:40|208:54|208:54|199:95,1,71.9999978027344,2|0,1:2|0:0,0:0:0:0:
152,143,37936,1,0,0:0:0:0:
152,143,38044,2,0,P|131:141|112:128,1,35.9999989013672,8|0,1:2|0:0,0:0:0:0:
39,63,38260,5,0,3:0:0:0:
39,63,38368,1,0,3:0:0:0:
0,124,38476,6,0,P|-3:160|9:206,1,71.9999978027344,2|0,1:2|0:0,0:0:0:0:
100,303,38907,1,0,1:0:0:0:
121,289,39016,1,0,2:0:0:0:
145,281,39124,1,0,2:0:0:0:
169,283,39231,1,0,2:0:0:0:
192,291,39339,2,0,B|228:297|228:297|264:278,1,71.9999978027344,2|0,1:2|0:0,2:2:0:0:
315,233,39663,1,0,0:0:0:0:
315,233,39771,2,0,P|313:212|304:192,1,35.9999989013672,8|0,1:2|0:0,0:0:0:0:
230,116,39987,2,0,L|187:110,1,35.9999989013672
330,32,40203,6,0,B|361:16|361:16|397:20,1,71.9999978027344,2|0,1:2|0:0,0:0:0:0:
414,27,40526,1,0,0:0:0:0:
429,35,40634,1,0,1:0:0:0:
512,142,40850,1,0,0:0:0:0:
494,140,40958,1,0,0:0:0:0:
476,137,41066,2,0,B|445:132|445:132|436:135|436:135|396:129,1,71.9999978027344,2|0,1:2|0:0,0:0:0:0:
342,90,41389,1,0,0:0:0:0:
342,90,41498,2,0,P|317:92|290:98,1,35.9999989013672,8|0,1:2|0:0,0:0:0:0:
254,172,41714,2,0,P|232:170|205:163,1,35.9999989013672
132,95,41929,6,0,P|128:72|116:46,1,35.9999989013672,2|0,1:2|0:0,0:0:0:0:
26,151,42145,5,2,3:1:0:0:
26,151,42253,1,0,3:0:0:0:
0,220,42361,2,2,P|-2:253|21:302,1,71.9999978027344,0|0,1:0|0:0,0:1:0:0:
153,384,42793,5,2,1:1:0:0:
175,315,42901,1,0,1:0:0:0:
187,244,43008,2,2,L|172:188,1,40,8|0,2:2|0:0,0:1:0:0:
296,356,43224,6,2,L|310:315,1,44.0000013427735,8|0,1:2|0:0,0:1:0:0:
411,204,43440,5,2,1:1:0:0:
464,258,43548,1,8,1:2:0:0:
512,199,43656,6,0,B|521:160|521:160|505:123,1,80,12|0,1:1|0:0,0:0:0:0:
401,36,44088,1,0,1:2:0:0:
380,54,44196,1,0,2:0:0:0:
353,65,44304,1,0,2:0:0:0:
326,70,44411,1,0,2:0:0:0:
298,63,44519,2,0,B|260:47|260:47|221:55,1,80,2|0,1:2|0:0,0:0:0:0:
163,98,44843,1,0,0:0:0:0:
163,98,44951,2,0,P|143:96|111:82,1,40,8|0,1:2|0:0,0:0:0:0:
52,30,45167,5,0,3:2:0:0:
52,30,45275,1,0,3:2:0:0:
6,93,45383,6,0,B|-2:113|-2:113|6:175,1,80,2|0,1:2|0:0,0:0:0:0:
88,269,45814,1,0,1:0:0:0:
115,273,45923,1,0,2:0:0:0:
142,277,46031,1,0,2:0:0:0:
169,281,46138,1,0,2:0:0:0:
196,285,46246,2,0,B|210:273|210:273|220:249|203:206,1,80,2|0,1:2|0:0,2:2:0:0:
161,153,46570,1,0,0:0:0:0:
161,153,46678,2,0,P|155:131|159:108,1,40,8|0,1:2|0:0,0:0:0:0:
205,26,46893,2,0,P|223:17|249:17,1,40
349,73,47109,6,0,B|386:86|386:86|434:71,1,80,2|0,1:2|0:0,0:0:0:0:
512,161,47541,1,0,1:0:0:0:
512,161,47649,1,0,0:0:0:0:
512,161,47757,2,0,P|510:137|504:122,1,40
427,54,47973,2,0,P|387:55|348:60,1,80,2|0,1:2|0:0,0:0:0:0:
279,29,48296,1,0,0:0:0:0:
279,29,48404,2,0,P|251:21|236:12,1,40,8|0,1:2|0:0,0:0:0:0:
171,75,48620,2,0,P|143:78|115:88,1,40
262,156,48836,6,0,P|279:185|285:237,1,80,2|0,1:2|0:0,0:0:0:0:
279,310,49160,1,0,0:0:0:0:
279,310,49268,1,0,1:0:0:0:
108,177,49483,5,2,0:0:0:0:
68,158,49591,1,0,0:0:0:0:
26,172,49699,1,0,1:0:0:0:
7,212,49807,1,0,0:0:0:0:
17,254,49915,1,0,0:0:0:0:
54,276,50023,1,0,0:0:0:0:
126,248,50131,6,0,P|130:223|140:204,1,44.0000013427735,8|0,1:2|0:0,0:0:0:0:
257,339,50347,6,0,P|267:360|272:383,1,47.9999985351563,0|0,1:0|0:0,0:0:0:0:
396,272,50562,6,0,P|435:270|477:242,1,80,8|0,1:1|0:3,0:0:0:0:
342,135,50994,1,0,1:2:0:0:
360,114,51102,1,0,2:0:0:0:
368,87,51210,1,0,2:0:0:0:
365,59,51317,1,0,2:0:0:0:
350,34,51426,2,0,P|316:23|263:21,1,80,2|0,1:2|0:0,0:0:0:0:
211,67,51749,1,0,0:0:0:0:
211,67,51857,2,0,P|209:91|202:113,1,40,8|0,1:2|0:0,0:0:0:0:
127,185,52073,5,0,3:0:0:0:
127,185,52181,1,0,3:0:0:0:
65,136,52289,6,0,P|59:99|72:57,1,80,2|0,1:2|0:0,0:0:0:0:
231,16,52720,1,0,1:0:0:0:
247,38,52829,1,0,2:0:0:0:
271,51,52937,1,0,2:0:0:0:
298,57,53044,1,0,2:0:0:0:
325,51,53152,2,0,P|358:40|407:43,1,80,2|0,1:2|0:0,2:2:0:0:
475,74,53476,1,0,0:0:0:0:
475,74,53584,2,0,P|480:55|479:29,1,40,8|0,1:2|0:0,0:0:0:0:
370,119,53800,2,0,P|366:135|367:169,1,40
477,247,54016,6,0,B|495:274|493:300|493:300|474:319,1,80,2|0,1:2|0:0,0:0:0:0:
460,329,54339,1,0,0:0:0:0:
442,339,54447,1,0,1:0:0:0:
298,266,54663,1,0,0:0:0:0:
295,246,54771,1,0,0:0:0:0:
293,226,54879,2,0,B|286:199|286:199|288:188|288:188|277:148,1,80,2|0,1:2|0:0,0:0:0:0:
240,84,55202,1,0,0:0:0:0:
240,84,55311,2,0,P|215:78|183:79,1,40,8|0,1:2|0:0,0:0:0:0:
147,178,55526,2,0,P|134:186|97:185,1,40
30,103,55742,6,0,B|18:74|18:74|18:62|18:62|3:28,1,80,2|0,1:2|0:0,0:0:0:0:
23,117,56066,1,0,2:0:0:0:
18,132,56174,1,0,1:0:0:0:
190,3,56390,1,0,0:0:0:0:
322,183,56606,5,2,1:1:0:0:
372,196,56714,1,0,1:0:0:0:
412,162,56821,2,2,P|411:141|397:109,1,44.0000013427735,8|0,2:2|0:0,0:1:0:0:
306,31,57037,6,2,P|280:33|247:43,1,47.9999985351563,8|0,1:2|0:0,0:1:0:0:
139,139,57253,6,0,B|125:136|125:136|120:137|120:137|106:133,2,25.9999988098145,2|0|8,1:1|1:2|1:2,0:0:0:0:
242,229,57469,6,0,L|299:222,1,40,14|0,1:1|0:0,0:0:0:0:
177,286,57685,2,0,L|135:290,1,40,0|0,1:0|0:0,0:0:0:0:
276,368,57901,2,0,P|270:339|257:312,1,60.0000022888184,10|0,2:2|0:0,0:0:0:0:
139,139,58332,6,0,P|138:99|157:61,1,80,2|0,1:2|2:3,0:0:0:0:
161,58,58620,1,0,2:3:0:0:
168,54,58692,1,0,2:3:0:0:
175,51,58764,2,0,L|262:40,1,80,8|0,0:0|1:0,0:0:0:0:
444,58,59196,6,0,P|443:21|430:-11,1,40,2|0,1:1|0:0,0:0:0:0:
355,100,59411,2,0,P|337:108|321:121,1,40,0|0,1:1|0:0,0:0:0:0:
489,176,59628,2,0,P|460:172|434:156,1,60.0000022888184,10|0,0:0|0:0,0:0:0:0:
254,41,60059,6,0,P|217:45|169:82,1,80,2|0,1:2|2:3,0:0:0:0:
132,124,60383,1,0,1:3:0:0:
63,94,60491,2,0,P|48:61|52:17,1,80,8|0,0:0|2:0,0:0:0:0:
252,123,60922,6,0,P|263:140|269:178,1,40,2|0,1:1|0:0,0:0:0:0:
302,254,61138,2,0,P|296:273|285:289,1,40,0|0,1:1|0:0,0:0:0:0:
425,167,61354,2,0,P|396:166|368:176,1,60.0000022888184,10|0,0:0|0:0,0:0:0:0:
257,327,61785,6,0,B|224:351|224:351|164:341,1,80,2|0,1:2|2:3,0:0:0:0:
177,343,62073,1,0,2:3:0:0:
169,341,62145,1,0,2:3:0:0:
161,339,62217,2,0,B|129:341|129:341|117:349|117:349|75:355,1,80,8|0,0:0|1:0,0:0:0:0:
0,173,62649,6,0,L|42:162,1,40,2|0,1:1|0:0,0:0:0:0:
129,215,62865,2,0,L|118:176,1,40,0|0,1:1|0:0,0:0:0:0:
189,79,63080,2,0,L|131:95,1,60.0000022888184,10|0,2:2|0:0,0:0:0:0:
268,224,63512,6,0,P|305:239|351:231,1,80,2|0,1:2|2:3,0:0:0:0:
402,281,63836,1,0,1:3:0:0:
463,238,63944,2,0,P|472:204|455:150,1,80,8|0,0:2|2:0,0:0:0:0:
292,26,64375,6,0,P|293:46|289:72,1,40,14|0,1:1|0:0,0:0:0:0:
207,162,64591,2,0,P|203:137|193:119,1,40,0|0,1:0|0:0,0:0:0:0:
68,59,64807,2,0,P|96:50|126:47,1,60.0000022888184,10|0,2:2|0:0,0:0:0:0:
296,95,65239,6,0,P|335:102|372:88,1,80,2|0,1:2|2:3,0:0:0:0:
380,85,65526,1,0,2:3:0:0:
386,80,65598,1,0,2:3:0:0:
392,75,65670,2,0,P|407:31|437:5,1,80,8|0,0:0|1:0,0:0:0:0:
512,176,66102,6,0,L|454:165,1,40,2|0,1:1|0:0,0:0:0:0:
390,205,66318,2,0,L|332:194,1,40,0|0,1:1|0:0,0:0:0:0:
476,314,66534,2,0,P|475:285|463:257,1,60.0000022888184,10|0,0:0|0:0,0:0:0:0:
306,121,66965,6,0,P|266:125|232:147,1,80,2|0,1:2|2:3,0:0:0:0:
181,202,67289,1,0,1:3:0:0:
113,167,67397,2,0,B|98:132|98:132|110:90,1,80,8|0,0:0|2:0,0:0:0:0:
369,198,67829,6,0,P|375:218|376:251,1,40,2|0,1:1|0:0,0:0:0:0:
313,334,68044,2,0,L|256:345,1,40,0|0,1:1|0:0,0:0:0:0:
429,371,68260,1,8,0:0:0:0:
429,371,68368,1,0,0:0:0:0:
429,371,68476,1,0,0:0:0:0:
288,248,68692,6,0,B|280:214|280:214|282:206|282:206|272:161,1,88.000002685547,2|0,1:2|2:3,0:0:0:0:
252,93,69016,1,2,2:2:0:0:
252,93,69124,1,8,0:0:0:0:
123,249,69339,1,0,1:2:0:0:
15,101,69555,6,0,P|17:78|25:58,1,44.0000013427735,2|0,1:1|0:0,0:0:0:0:
193,157,69771,2,0,P|198:175|197:209,1,44.0000013427735,0|0,1:1|0:0,0:0:0:0:
85,323,69987,5,8,0:0:0:0:
61,318,70095,1,0,0:0:0:0:
38,314,70203,1,0,0:0:0:0:
15,309,70311,1,0,0:0:0:0:
38,239,70419,6,0,B|51:211|51:211|50:201|50:201|69:149,1,88.000002685547,2|0,1:2|3:3,0:0:0:0:
149,164,70742,1,2,1:2:0:0:
149,164,70850,2,0,L|200:155,1,44.0000013427735,8|0,3:2|3:0,0:0:0:0:
328,133,71066,6,0,L|349:136,2,22.0000006713867,0|0|8,1:0|1:0|1:2,0:0:0:0:
219,55,71282,6,0,P|215:32|217:11,1,44.0000013427735,2|0,1:2|0:0,0:0:0:0:
332,137,71498,2,0,P|332:160|322:179,1,44.0000013427735,0|0,1:0|0:0,0:0:0:0:
194,257,71714,2,0,P|164:244|133:240,1,64,0|0,3:2|0:0,0:0:0:0:
272,371,72145,6,0,P|315:374|355:357,1,88.000002685547,2|0,1:2|0:0,0:0:0:0:
419,315,72469,1,2,0:0:0:0:
419,315,72577,1,8,0:0:0:0:
256,192,72793,1,0,1:0:0:0:
354,125,73008,6,0,P|399:116|448:108,1,95.9999970703126,6|0,1:1|0:0,0:0:0:0:
189,94,73440,2,0,P|180:49|172:0,1,95.9999970703126,2|0,1:1|0:0,0:0:0:0:
158,259,73872,2,0,P|113:268|63:275,1,95.9999970703126,2|0,1:1|0:0,0:0:0:0:
323,290,74304,2,0,P|332:335|339:384,1,95.9999970703126,2|0,1:1|0:0,0:0:0:0:
88,170,74735,5,2,1:1:0:0:
88,170,74951,1,0,0:0:0:0:
256,192,75167,5,2,1:1:0:0:
256,192,75383,1,0,0:0:0:0:
424,214,75598,5,2,1:1:0:0:
424,214,75706,1,0,3:0:0:0:
424,214,75814,2,0,P|429:197|427:160,1,47.9999985351563,8|0,0:0|0:0,0:0:0:0:
309,63,76030,6,0,P|287:60|244:60,1,47.9999985351563,8|0,1:2|0:2,0:2:0:0:
172,252,76246,6,0,L|175:280,2,23.9999992675781,0|0|8,1:0|1:0|1:2,0:0:0:0:
38,176,76462,6,0,P|24:121|65:54,1,103.999995239258,14|0,1:1|0:2,0:2:0:0:
104,44,76785,1,2,0:2:0:0:
43,2,76893,1,8,1:2:0:0:
161,177,77109,1,0,0:2:0:0:
347,23,77325,1,2,1:1:0:0:
275,8,77433,1,8,0:2:0:0:
349,199,77649,1,2,0:2:0:0:
277,215,77757,1,8,1:2:0:0:
497,102,77973,5,2,0:0:0:0:
497,102,78080,1,0,0:0:0:0:
453,165,78188,2,0,P|448:204|484:272,1,103.999995239258,2|0,1:0|0:0,0:0:0:0:
389,369,78512,1,2,0:0:0:0:
405,298,78620,1,8,1:2:0:0:
306,202,78836,1,2,0:0:0:0:
205,276,79052,1,2,1:0:0:0:
226,349,79160,2,0,B|176:360|176:360|140:318,1,103.999995239258,10|0,0:0|0:0,0:0:0:0:
66,209,79483,1,10,1:2:0:0:
75,384,79699,1,0,0:0:0:0:
186,166,79915,6,0,P|205:217|206:278,1,103.999995239258,2|0,1:0|0:0,0:0:0:0:
35,126,80347,1,10,1:2:0:0:
35,126,80455,1,0,0:0:0:0:
35,126,80562,1,0,0:0:0:0:
228,20,80778,5,2,1:0:0:0:
221,61,80886,1,8,0:0:0:0:
256,82,80994,1,0,0:0:0:0:
294,98,81102,1,2,0:0:0:0:
312,135,81210,2,0,L|287:198,1,51.999997619629,8|0,1:2|0:0,0:0:0:0:
201,252,81426,2,0,P|172:246|152:224,1,51.999997619629,2|0,0:0|0:0,0:0:0:0:
65,102,81642,6,0,B|50:119|50:119|70:219,1,103.999995239258,2|0,1:0|0:0,0:0:0:0:
79,270,81965,1,2,0:0:0:0:
10,245,82073,1,8,1:2:0:0:
182,146,82289,1,2,0:0:0:0:
324,320,82505,5,2,3:1:0:0:
282,326,82613,1,8,3:2:0:0:
241,333,82721,1,0,3:0:0:0:
199,337,82829,1,0,3:0:0:0:
221,263,82937,6,0,L|245:196,1,51.999997619629,10|0,1:2|1:0,2:0:0:0:
352,325,83152,2,0,L|378:399,1,51.999997619629,2|0,1:2|1:0,0:0:0:0:
484,269,83368,6,0,P|507:220|482:153,1,103.999995239258,14|0,1:1|0:2,0:2:0:0:
452,116,83691,1,2,0:2:0:0:
490,54,83799,1,8,1:2:0:0:
297,163,84015,1,2,0:2:0:0:
175,41,84231,1,2,1:1:0:0:
246,28,84339,1,8,0:2:0:0:
219,243,84555,1,2,0:2:0:0:
147,228,84663,1,8,1:2:0:0:
334,152,84879,5,2,0:0:0:0:
334,152,84986,1,0,0:0:0:0:
388,199,85095,2,0,B|404:230|404:230|380:310,1,103.999995239258,2|0,1:0|0:0,0:0:0:0:
355,363,85418,1,2,0:0:0:0:
308,306,85526,1,8,1:2:0:0:
502,242,85742,1,2,0:0:0:0:
378,87,85958,1,2,1:0:0:0:
322,142,86066,2,0,P|269:163|213:140,1,103.999995239258,10|0,0:0|0:0,0:0:0:0:
147,77,86389,1,10,1:2:0:0:
183,276,86605,1,2,0:0:0:0:
2,193,86821,6,0,P|55:196|106:158,1,103.999995239258,2|0,1:0|0:0,0:0:0:0:
247,17,87253,1,10,1:2:0:0:
247,17,87361,1,0,0:0:0:0:
247,17,87469,1,0,0:0:0:0:
329,191,87685,1,2,1:0:0:0:
260,217,87793,1,8,0:0:0:0:
419,87,88008,1,2,0:0:0:0:
352,56,88116,1,8,1:2:0:0:
279,290,88332,1,0,0:0:0:0:
463,368,88548,6,0,P|489:363|522:350,1,51.999997619629,2|0,1:0|0:0,0:0:0:0:
401,220,88764,2,0,L|385:276,1,51.999997619629,2|0,0:0|0:0,0:0:0:0:
226,159,88980,5,8,1:2:0:0:
264,174,89088,1,0,1:0:0:0:
302,159,89196,2,0,P|315:134|316:108,1,51.999997619629,2|0,0:2|0:0,0:0:0:0:
111,0,89411,5,2,1:1:0:0:
67,58,89519,1,0,1:0:0:0:
71,130,89627,1,8,1:2:0:0:
119,184,89735,1,0,1:0:0:0:
64,135,89843,5,10,1:1:0:0:
126,181,89951,1,0,1:0:0:0:
140,257,90059,1,0,1:0:0:0:
106,327,90167,1,0,1:0:0:0:
216,278,90275,6,0,P|264:259|316:254,1,103.999995239258,14|0,1:1|0:2,0:2:0:0:
408,307,90598,1,2,0:2:0:0:
397,379,90706,1,8,1:2:0:0:
512,230,90922,1,0,0:2:0:0:
355,102,91138,1,2,1:1:0:0:
424,81,91246,1,8,0:2:0:0:
344,270,91462,1,2,0:2:0:0:
408,307,91570,1,8,1:2:0:0:
235,93,91786,5,2,0:0:0:0:
235,93,91893,1,0,0:0:0:0:
173,132,92001,2,0,B|125:151|125:151|70:116,1,103.999995239258,2|0,1:0|0:0,0:0:0:0:
24,75,92325,1,2,0:0:0:0:
63,13,92433,1,8,1:2:0:0:
125,229,92649,1,2,0:0:0:0:
335,125,92865,1,2,1:0:0:0:
383,179,92973,2,0,P|392:218|368:285,1,103.999995239258,10|0,0:0|0:0,0:0:0:0:
280,379,93296,1,10,1:2:0:0:
484,333,93512,1,0,0:0:0:0:
308,223,93728,6,0,P|257:224|209:249,1,103.999995239258,2|0,1:0|0:0,0:0:0:0:
109,334,94160,1,10,1:2:0:0:
109,334,94268,1,0,0:0:0:0:
109,334,94375,1,0,0:0:0:0:
30,121,94591,5,2,1:0:0:0:
47,158,94699,1,8,0:0:0:0:
84,175,94807,1,0,0:0:0:0:
124,166,94915,1,2,0:0:0:0:
158,188,95023,2,0,P|169:214|163:256,1,51.999997619629,8|0,1:2|0:0,0:0:0:0:
22,85,95239,2,0,P|31:57|52:30,1,51.999997619629,2|0,0:0|0:0,0:0:0:0:
237,80,95455,6,0,B|255:89|255:89|292:67|334:66,1,103.999995239258,2|0,1:0|0:0,0:0:0:0:
451,73,95778,1,2,0:0:0:0:
397,23,95886,1,8,1:2:0:0:
253,175,96102,1,2,0:0:0:0:
489,262,96318,5,2,3:1:0:0:
448,252,96426,1,8,3:2:0:0:
407,242,96534,1,0,3:0:0:0:
366,232,96642,1,0,3:0:0:0:
368,310,96749,6,0,L|378:379,1,51.999997619629,10|0,1:2|1:0,2:0:0:0:
260,226,96965,2,0,L|250:157,1,51.999997619629,2|0,1:2|1:0,2:0:0:0:
76,364,97181,6,0,P|123:383|172:369,1,103.999995239258,14|0,1:1|0:2,0:2:0:0:
49,295,97504,1,2,0:2:0:0:
3,351,97612,1,8,1:2:0:0:
209,296,97828,1,2,0:2:0:0:
86,137,98044,1,2,1:1:0:0:
17,111,98152,1,8,0:2:0:0:
240,71,98368,1,2,0:2:0:0:
266,3,98476,1,8,1:2:0:0:
406,132,98692,5,2,0:0:0:0:
406,132,98799,1,0,0:0:0:0:
475,110,98908,2,0,B|492:101|492:101|499:52|467:24,1,103.999995239258,2|0,1:0|0:0,0:0:0:0:
395,2,99231,1,2,0:0:0:0:
358,65,99339,1,8,1:2:0:0:
512,207,99555,1,2,0:0:0:0:
323,289,99771,1,2,1:0:0:0:
381,332,99879,2,0,P|433:339|475:312,1,103.999995239258,10|0,0:0|0:0,0:0:0:0:
512,207,100202,1,10,1:2:0:0:
356,63,100418,1,2,0:0:0:0:
224,262,100634,6,0,L|235:375,1,103.999995239258,2|0,1:0|0:0,0:0:0:0:
53,229,101066,1,10,1:2:0:0:
53,229,101174,1,0,0:0:0:0:
53,229,101282,1,0,0:0:0:0:
244,135,101497,1,2,1:0:0:0:
70,11,101714,5,2,0:0:0:0:
37,75,101821,1,2,0:0:0:0:
63,6,101929,1,8,1:2:0:0:
194,244,102145,1,0,0:0:0:0:
344,63,102361,6,0,P|349:42|350:7,1,51.999997619629,2|0,1:0|0:0,0:0:0:0:
111,125,102577,2,0,P|115:148|128:183,1,51.999997619629,2|0,0:0|0:0,0:0:0:0:
331,272,102793,5,8,1:2:0:0:
374,253,102901,1,0,1:0:0:0:
418,266,103009,2,0,B|443:272|443:272|469:252,1,51.999997619629,2|0,0:2|0:0,0:0:0:0:
323,46,103224,5,2,1:1:0:0:
262,87,103332,1,0,1:0:0:0:
189,83,103440,1,8,1:2:0:0:
139,29,103548,1,0,1:0:0:0:
182,98,103656,5,10,1:1:0:0:
104,102,103764,1,0,1:0:0:0:
48,157,103872,1,0,1:0:0:0:
42,234,103980,1,0,1:0:0:0:
108,291,104088,6,0,P|152:282|201:277,1,88.000002685547,14|0,1:0|0:0,0:0:0:0:
352,384,104520,1,8,1:2:0:0:
352,384,104628,2,0,B|343:350|343:350|346:336|346:336|336:294,1,88.000002685547
478,259,104951,2,0,B|377:242,1,88.000002685547,2|0,1:2|0:0,0:0:0:0:
339,192,105275,1,0,0:0:0:0:
339,192,105383,1,8,1:2:0:0:
508,133,105599,1,0,0:0:0:0:
348,20,105815,6,0,P|306:6|262:1,1,88.000002685547,2|0,1:2|0:0,0:0:0:0:
125,82,106246,1,8,1:2:0:0:
125,82,106354,1,0,0:0:0:0:
242,185,106570,1,0,0:0:0:0:
242,185,106678,2,0,P|289:176|331:174,1,88.000002685547,2|0,1:2|0:0,0:0:0:0:
156,343,107110,2,0,P|113:339|70:328,1,88.000002685547,8|0,1:2|0:0,0:0:0:0:
0,161,107541,5,2,1:2:0:0:
141,113,107757,1,0,0:0:0:0:
248,224,107973,1,8,1:2:0:0:
248,224,108081,2,0,B|287:239|287:239|340:222,1,88.000002685547
417,164,108405,5,2,1:2:0:0:
410,133,108513,1,0,3:0:0:0:
404,102,108620,1,0,3:0:0:0:
397,71,108728,1,0,3:0:0:0:
346,9,108836,6,0,L|297:0,1,44.0000013427735,2|0,1:2|0:0,0:0:0:0:
255,139,109052,2,0,L|206:130,1,44.0000013427735,2|0,2:2|0:0,0:0:0:0:
100,36,109268,6,0,B|62:39|62:39|54:45|54:45|14:48,1,88.000002685547,2|0,1:2|0:0,0:0:0:0:
118,170,109700,1,8,1:2:0:0:
118,170,109807,2,0,P|133:201|129:261,1,88.000002685547,0|0,2:2|2:0,0:0:0:0:
52,315,110131,6,2,L|4:323,1,44.0000013427735,2|0,1:1|0:0,0:1:0:0:
215,384,110347,1,2,0:1:0:0:
215,384,110455,1,0,0:0:0:0:
215,384,110563,2,2,L|221:323,1,44.0000013427735,10|0,1:2|0:0,0:1:0:0:
313,243,110779,2,2,L|308:199,1,44.0000013427735,2|0,1:2|0:0,0:1:0:0:
428,358,110995,6,0,P|469:362|509:329,1,88.000002685547,14|0,1:0|0:0,0:0:0:0:
410,193,111427,1,8,1:2:0:0:
410,193,111535,2,0,B|374:186|374:186|364:190|364:190|323:183,1,88.000002685547
274,124,111858,2,0,P|282:88|260:40,1,88.000002685547,2|0,1:2|0:0,0:0:0:0:
203,2,112182,1,0,0:0:0:0:
203,2,112289,1,10,1:2:0:0:
147,191,112506,1,0,0:0:0:0:
8,69,112722,6,0,B|45:63|45:63|53:57|53:57|100:50,1,88.000002685547,2|0,1:2|0:0,0:0:0:0:
278,128,113153,1,8,1:2:0:0:
278,128,113261,1,0,0:0:0:0:
140,214,113477,1,0,0:0:0:0:
140,214,113584,2,0,P|121:258|130:305,1,88.000002685547,2|0,1:2|0:0,0:0:0:0:
169,358,113908,1,0,0:0:0:0:
243,366,114016,2,0,P|286:354|331:352,1,88.000002685547,8|0,1:2|0:0,0:0:0:0:
512,368,114448,5,2,1:2:0:0:
354,271,114664,1,0,0:0:0:0:
508,180,114880,1,8,1:2:0:0:
508,180,114988,2,0,B|522:155|522:155|522:126|500:93,1,88.000002685547
428,32,115312,5,2,1:2:0:0:
384,27,115420,1,0,3:0:0:0:
341,22,115527,1,0,3:0:0:0:
298,17,115635,1,0,3:0:0:0:
236,66,115743,6,0,P|228:85|227:119,1,44.0000013427735,2|0,1:2|0:0,0:0:0:0:
312,182,115959,2,0,P|320:203|317:244,1,44.0000013427735,2|0,0:0|0:0,0:0:0:0:
230,310,116175,6,0,B|188:324|188:324|147:306,1,88.000002685547,2|0,1:2|0:0,0:0:0:0:
84,270,116498,1,2,0:0:0:0:
84,270,116606,1,8,1:2:0:0:
225,108,116822,1,2,0:0:0:0:
32,36,117038,5,0,1:0:0:0:
8,73,117146,1,0,1:0:0:0:
14,116,117254,2,0,B|33:127|33:127|54:122,1,44.0000013427735,8|0,1:2|3:0,0:0:0:0:
190,29,117469,2,0,B|209:19|209:19|230:22,1,44.0000013427735,0|0,1:0|3:0,0:0:0:0:
372,116,117685,2,0,L|412:123,2,22.0000006713867,0|0|8,1:0|1:0|1:2,0:0:0:0:
229,202,117901,6,0,B|217:220|217:220|231:274,1,71.9999978027344,12|0,1:1|0:3,0:0:0:0:
342,368,118333,1,0,1:2:0:0:
361,351,118441,1,0,2:0:0:0:
385,341,118549,1,0,2:0:0:0:
410,337,118656,1,0,2:0:0:0:
435,343,118764,2,0,B|452:351|452:351|472:347|486:304,1,71.9999978027344,2|0,1:2|0:0,0:0:0:0:
512,242,119088,1,0,0:0:0:0:
512,242,119196,2,0,P|508:213|486:191,1,35.9999989013672,8|0,1:2|0:0,0:0:0:0:
433,136,119412,5,0,3:2:0:0:
433,136,119520,1,0,3:2:0:0:
362,177,119628,6,0,B|326:183|326:183|294:164,1,71.9999978027344,2|0,1:2|0:0,0:0:0:0:
178,99,120059,1,0,1:0:0:0:
190,76,120168,1,0,2:0:0:0:
191,50,120276,1,0,2:0:0:0:
182,26,120383,1,0,2:0:0:0:
162,11,120491,2,0,B|124:6|124:6|81:33,1,71.9999978027344,2|0,1:2|0:0,2:2:0:0:
38,80,120815,1,0,0:0:0:0:
38,80,120923,2,0,L|46:127,1,35.9999989013672,8|0,1:2|0:0,0:0:0:0:
116,192,121138,2,0,L|109:243,1,35.9999989013672
0,328,121354,6,0,P|30:315|75:315,1,71.9999978027344,2|0,1:2|0:0,0:0:0:0:
85,321,121678,1,0,0:0:0:0:
99,331,121786,1,0,1:0:0:0:
229,381,122002,1,0,0:0:0:0:
246,377,122110,1,0,0:0:0:0:
263,372,122218,2,0,P|272:338|262:293,1,71.9999978027344,2|0,1:2|0:0,0:0:0:0:
212,248,122541,1,0,0:0:0:0:
212,248,122649,2,0,L|151:243,1,35.9999989013672,8|0,1:2|0:0,0:0:0:0:
301,189,122865,2,0,L|355:185,1,35.9999989013672
214,137,123081,6,0,P|206:102|219:60,1,71.9999978027344,2|0,1:2|0:0,0:0:0:0:
269,13,123405,1,0,0:0:0:0:
269,13,123513,1,0,1:0:0:0:
125,63,123728,5,2,0:0:0:0:
125,63,123836,1,0,0:0:0:0:
125,63,123944,2,0,L|82:63,1,35.9999989013672,0|0,1:0|0:0,0:0:0:0:
217,162,124160,5,0,0:0:0:0:
287,139,124267,2,0,P|295:119|290:85,1,40,2|0,2:2|1:0,0:0:0:0:
147,185,124483,5,2,2:2:0:0:
77,208,124591,2,0,P|72:237|77:258,1,44.0000013427735,0|0,1:2|0:0,0:0:0:0:
178,343,124807,6,0,P|219:331|253:331,1,71.9999978027344,8|0,1:1|0:3,0:0:0:0:
393,371,125239,1,0,1:2:0:0:
417,375,125347,1,0,2:0:0:0:
443,373,125455,1,0,2:0:0:0:
467,365,125562,1,0,2:0:0:0:
486,347,125671,2,0,P|487:310|465:276,1,71.9999978027344,2|0,1:2|0:0,0:0:0:0:
396,255,125994,1,0,0:0:0:0:
396,255,126102,2,0,L|357:267,1,35.9999989013672,8|0,1:2|0:0,0:0:0:0:
261,239,126318,5,0,3:0:0:0:
261,239,126426,1,0,3:0:0:0:
215,170,126534,6,0,P|213:133|231:92,1,71.9999978027344,2|0,1:2|0:0,0:0:0:0:
320,14,126965,1,0,1:0:0:0:
341,28,127074,1,0,2:0:0:0:
365,36,127182,1,0,2:0:0:0:
389,34,127289,1,0,2:0:0:0:
412,26,127397,2,0,P|449:16|486:20,1,71.9999978027344,2|0,1:2|0:0,2:2:0:0:
500,93,127721,1,0,0:0:0:0:
500,93,127829,2,0,P|513:111|509:168,1,71.9999978027344,8|0,1:2|0:0,0:0:0:0:
369,235,128261,6,0,P|331:227|281:222,1,71.9999978027344,2|0,1:2|0:0,0:0:0:0:
280,225,128584,1,0,0:0:0:0:
262,229,128692,1,0,1:0:0:0:
148,170,128908,1,0,0:0:0:0:
142,152,129016,1,0,0:0:0:0:
138,134,129124,2,0,P|136:97|159:48,1,71.9999978027344,2|0,1:2|0:0,0:0:0:0:
208,24,129447,1,0,0:0:0:0:
208,24,129556,2,0,P|226:23|244:19,1,35.9999989013672,8|0,1:2|0:0,0:0:0:0:
306,105,129772,2,0,P|323:108|340:113,1,35.9999989013672
476,86,129987,6,0,P|482:73|485:50,1,35.9999989013672,2|0,1:2|0:0,0:0:0:0:
340,114,130203,5,2,3:1:0:0:
340,114,130311,1,0,3:0:0:0:
307,185,130419,2,2,P|302:224|311:270,1,71.9999978027344,0|0,1:0|0:0,0:1:0:0:
464,375,130850,5,2,1:1:0:0:
506,316,130958,1,0,1:0:0:0:
501,244,131066,2,2,P|496:220|478:193,1,40,8|0,2:2|0:0,0:1:0:0:
298,342,131282,6,2,P|292:320|281:300,1,44.0000013427735,8|0,1:2|0:0,0:1:0:0:
121,210,131498,5,2,1:1:0:0:
61,257,131606,1,8,1:2:0:0:
0,210,131714,6,0,P|-1:168|15:133,1,80,12|0,1:1|0:0,0:0:0:0:
112,47,132145,1,0,1:2:0:0:
133,65,132253,1,0,2:0:0:0:
160,76,132361,1,0,2:0:0:0:
187,81,132468,1,0,2:0:0:0:
215,74,132577,2,0,B|244:68|244:68|256:76|256:76|306:67,1,80,2|0,1:2|0:0,0:0:0:0:
367,77,132900,1,0,0:0:0:0:
367,77,133008,2,0,P|366:58|359:37,1,40,8|0,1:2|0:0,0:0:0:0:
182,3,133224,5,0,3:2:0:0:
182,3,133332,1,0,3:2:0:0:
132,65,133440,6,0,P|123:103|130:143,1,80,2|0,1:2|0:0,0:0:0:0:
287,194,133871,1,0,1:0:0:0:
314,190,133980,1,0,2:0:0:0:
341,186,134088,1,0,2:0:0:0:
368,182,134195,1,0,2:0:0:0:
395,178,134303,2,0,P|408:215|404:255,1,80,2|0,1:2|0:0,0:0:0:0:
366,320,134627,1,0,0:0:0:0:
366,320,134735,2,0,P|342:314|320:312,1,40,8|0,1:2|0:0,0:0:0:0:
241,370,134951,2,0,P|221:372|201:377,1,40,0|0,2:2|0:0,0:0:0:0:
99,311,135167,6,0,B|93:287|93:287|95:261|117:232,1,80,2|0,1:2|0:0,0:0:0:0:
238,184,135598,1,0,1:0:0:0:
238,184,135706,1,0,0:0:0:0:
238,184,135814,2,0,L|292:190,1,40
348,156,136030,2,0,B|354:132|354:132|352:106|333:81,1,80,2|0,1:2|0:0,0:0:0:0:
277,34,136353,1,0,0:0:0:0:
277,34,136462,2,0,L|228:29,1,40,8|0,1:2|0:0,0:0:0:0:
162,110,136678,2,0,L|113:105,1,40,0|0,2:2|0:0,0:0:0:0:
2,31,136893,6,0,B|-16:48|-16:48|-16:73|-8:109,1,80,2|0,1:2|0:0,0:0:0:0:
31,177,137217,1,0,0:0:0:0:
31,177,137325,2,0,L|18:234,1,40,0|0,1:0|0:0,0:0:0:0:
171,134,137541,5,2,0:0:0:0:
211,151,137649,1,0,0:0:0:0:
254,147,137757,1,0,1:0:0:0:
291,123,137865,1,0,0:0:0:0:
314,86,137973,1,0,0:0:0:0:
356,75,138081,1,0,0:0:0:0:
423,126,138189,6,0,P|421:146|416:173,1,44.0000013427735,8|0,1:2|0:0,0:0:0:0:
260,253,138404,6,0,P|238:249|198:241,1,47.9999985351563,0|0,1:0|0:0,0:0:0:0:
392,356,138620,6,0,B|411:374|451:371|451:371|483:342,1,80,8|0,1:1|0:3,0:0:0:0:
416,169,139051,1,0,1:2:0:0:
434,148,139159,1,0,2:0:0:0:
442,121,139267,1,0,2:0:0:0:
439,93,139374,1,0,2:0:0:0:
424,68,139483,2,0,B|393:60|393:60|385:64|385:64|337:55,1,80,2|0,1:2|0:0,0:0:0:0:
279,99,139806,1,0,0:0:0:0:
279,99,139915,2,0,P|277:72|266:43,1,40,8|0,1:2|0:0,0:0:0:0:
165,1,140130,5,0,3:0:0:0:
165,1,140238,1,0,3:0:0:0:
107,53,140346,6,0,P|94:85|97:134,1,80,2|0,1:2|0:0,0:0:0:0:
204,222,140777,1,0,1:0:0:0:
226,206,140886,1,0,2:0:0:0:
252,201,140994,1,0,2:0:0:0:
280,203,141101,1,0,2:0:0:0:
304,217,141210,2,0,B|342:228|342:228|382:209,1,80,2|0,1:2|0:0,2:2:0:0:
435,154,141533,1,0,0:0:0:0:
435,154,141641,2,0,P|434:135|425:110,1,40,8|0,1:2|0:0,0:0:0:0:
349,48,141857,2,0,P|327:44|292:41,1,40
199,119,142073,6,0,B|160:127|160:127|123:112,1,80,2|0,1:2|0:0,0:0:0:0:
105,101,142396,1,0,0:0:0:0:
88,89,142504,1,0,1:0:0:0:
0,197,142720,1,0,0:0:0:0:
4,216,142828,1,0,0:0:0:0:
8,235,142936,2,0,B|15:265|15:265|21:276|21:276|30:321,1,80,2|0,1:2|0:0,0:0:0:0:
77,373,143259,1,0,0:0:0:0:
77,373,143368,2,0,P|96:371|117:364,1,40,8|0,1:2|0:0,0:0:0:0:
195,290,143584,2,0,P|197:268|210:240,1,40
279,143,143800,6,0,P|275:104|257:68,1,80,2|0,1:2|0:0,0:0:0:0:
273,159,144123,1,0,2:0:0:0:
267,173,144231,1,0,1:0:0:0:
429,58,144447,1,0,0:0:0:0:
512,245,144663,5,2,1:1:0:0:
464,222,144771,1,0,1:0:0:0:
414,238,144879,2,2,P|392:244|357:239,1,44.0000013427735,8|0,2:2|0:0,0:1:0:0:
251,132,145095,6,2,P|227:126|203:124,1,47.9999985351563,8|0,1:2|0:0,0:1:0:0:
41,186,145311,6,0,B|26:187|26:187|21:186|21:186|7:188,2,25.9999988098145,2|0|8,1:1|1:2|1:2,0:0:0:0:
203,227,145526,6,0,P|202:247|198:267,1,40,14|0,1:1|0:0,0:0:0:0:
151,337,145742,2,0,P|152:356|158:375,1,40,0|0,1:0|0:0,0:0:0:0:
32,302,145958,2,0,P|58:288|87:281,1,60.0000022888184,10|0,2:2|0:0,0:0:0:0:
295,200,146390,6,0,P|331:209|392:203,1,80,2|0,1:2|2:3,0:0:0:0:
381,206,146678,1,0,2:3:0:0:
388,204,146750,1,0,2:3:0:0:
395,202,146822,2,0,P|412:165|415:117,1,80,8|0,0:0|1:0,0:0:0:0:
254,20,147254,6,0,P|227:14|194:10,1,40,2|0,1:1|0:0,0:0:0:0:
127,69,147469,2,0,P|104:64|87:62,1,40,0|0,1:1|0:0,0:0:0:0:
208,176,147685,2,0,P|214:141|221:118,1,60.0000022888184,10|0,0:0|0:0,0:0:0:0:
414,23,148117,6,0,P|429:56|425:109,1,80,2|0,1:2|2:3,0:0:0:0:
405,172,148441,1,0,1:3:0:0:
452,231,148549,2,0,P|491:236|535:211,1,80,8|0,0:0|2:0,0:0:0:0:
399,375,148980,6,0,P|394:352|381:324,1,40,2|0,1:1|0:0,0:0:0:0:
304,287,149196,2,0,P|308:267|317:249,1,40,0|0,1:1|0:0,0:0:0:0:
176,344,149412,2,0,P|205:352|234:345,1,60.0000022888184,10|0,0:0|0:0,0:0:0:0:
318,167,149843,6,0,B|312:141|312:141|313:132|313:132|300:75,1,80,2|0,1:2|2:3,0:0:0:0:
296,83,150131,1,0,2:3:0:0:
289,77,150203,1,0,2:3:0:0:
282,72,150275,2,0,B|247:64|247:64|238:67|238:67|188:58,1,80,8|0,0:0|1:0,0:0:0:0:
0,47,150707,6,0,L|13:-4,1,40,2|0,1:1|0:0,0:0:0:0:
40,127,150923,2,0,L|29:165,1,40,0|0,1:1|0:0,0:0:0:0:
177,91,151138,2,0,P|143:81|109:92,1,60.0000022888184,10|0,2:2|0:0,0:0:0:0:
204,258,151570,6,0,P|243:260|279:242,1,80,2|0,1:2|2:3,0:0:0:0:
338,196,151894,1,0,1:3:0:0:
312,125,152002,2,0,P|303:91|323:37,1,80,8|0,0:2|2:0,0:0:0:0:
480,134,152433,6,0,P|477:157|470:184,1,40,14|0,1:1|0:0,0:0:0:0:
394,228,152649,2,0,P|372:232|355:238,1,40,0|0,1:0|0:0,0:0:0:0:
506,315,152865,2,0,P|494:287|478:263,1,60.0000022888184,10|0,2:2|0:0,0:0:0:0:
314,150,153297,6,0,P|275:157|238:143,1,80,2|0,1:2|2:3,0:0:0:0:
230,140,153584,1,0,2:3:0:0:
224,135,153656,1,0,2:3:0:0:
218,130,153728,2,0,B|225:90|225:90|206:46,1,80,8|0,0:0|1:0,0:0:0:0:
34,15,154160,6,0,P|28:46|27:67,1,40,2|0,1:1|0:0,0:0:0:0:
91,121,154376,2,0,P|107:119|130:115,1,40,0|0,1:1|0:0,0:0:0:0:
0,227,154592,2,0,P|5:188|16:169,1,60.0000022888184,10|0,0:0|0:0,0:0:0:0:
199,64,155023,6,0,B|234:83|234:83|272:72,1,80,2|0,1:2|2:3,0:0:0:0:
343,42,155347,1,0,1:3:0:0:
408,80,155455,2,0,P|423:112|406:165,1,80,8|0,0:0|2:0,0:0:0:0:
278,247,155886,6,0,L|226:240,1,40,2|0,1:1|0:0,0:0:0:0:
355,324,156102,2,0,L|394:329,1,40,0|0,1:1|0:0,0:0:0:0:
254,371,156318,1,8,0:0:0:0:
254,371,156426,1,0,0:0:0:0:
254,371,156534,1,0,0:0:0:0:
365,234,156750,6,0,P|379:196|368:134,1,88.000002685547,2|0,1:2|2:3,0:0:0:0:
335,83,157074,1,2,2:2:0:0:
335,83,157182,1,8,0:0:0:0:
160,196,157397,1,0,1:2:0:0:
302,278,157613,6,0,P|334:270|360:252,1,44.0000013427735,2|0,1:1|0:0,0:0:0:0:
211,96,157829,2,0,P|187:88|148:82,1,44.0000013427735,0|0,1:1|0:0,0:0:0:0:
34,169,158045,5,8,0:0:0:0:
29,193,158153,1,0,0:0:0:0:
25,216,158261,1,0,0:0:0:0:
20,239,158369,1,0,0:0:0:0:
65,304,158476,6,0,B|109:313|109:313|146:293,1,88.000002685547,2|0,1:2|3:3,0:0:0:0:
206,247,158800,1,2,1:2:0:0:
206,247,158908,2,0,L|197:190,1,44.0000013427735,8|0,3:2|3:0,0:0:0:0:
260,58,159124,6,0,L|263:37,2,22.0000006713867,0|0|8,1:0|1:0|1:2,0:0:0:0:
378,160,159340,6,0,P|398:161|426:148,1,44.0000013427735,2|0,1:2|0:0,0:0:0:0:
264,65,159555,2,0,P|243:63|215:76,1,44.0000013427735,0|0,1:2|0:0,0:0:0:0:
73,151,159772,2,0,P|40:148|12:134,1,64,0|0,3:2|0:0,0:0:0:0:
219,55,160203,6,0,P|256:43|314:48,1,88.000002685547,2|0,1:2|0:0,0:0:0:0:
386,70,160527,1,2,0:0:0:0:
386,70,160635,1,8,0:0:0:0:
256,192,160851,1,0,1:0:0:0:
369,266,161066,5,6,1:1:0:0:
369,266,161282,1,0,0:0:0:0:
182,305,161498,5,2,1:0:0:0:
182,305,161714,1,0,0:0:0:0:
143,118,161929,5,2,1:0:0:0:
143,118,162145,1,0,0:0:0:0:
330,79,162361,5,2,1:0:0:0:
330,79,162577,1,0,0:0:0:0:
106,223,162793,5,2,1:0:0:0:
106,223,163009,1,0,0:0:0:0:
406,161,163224,5,2,1:0:0:0:
406,161,163440,1,0,0:0:0:0:
225,42,163656,5,2,1:1:0:0:
225,42,163764,1,0,3:0:0:0:
225,42,163872,2,0,P|198:36|156:34,1,47.9999985351563,8|0,0:0|0:0,0:0:0:0:
262,234,164088,6,0,P|285:233|309:228,1,47.9999985351563,8|0,1:2|0:2,0:2:0:0:
105,66,164304,6,0,P|93:69|76:77,2,23.9999992675781,0|0|8,1:0|1:0|1:2,0:0:0:0:
344,155,164519,6,0,B|386:147|386:147|393:138|393:138|449:127,1,103.999995239258,14|0,1:1|0:2,0:2:0:0:
512,150,164843,1,2,0:2:0:0:
495,77,164951,1,8,1:2:0:0:
353,239,165167,1,0,0:2:0:0:
272,44,165383,1,2,1:1:0:0:
342,24,165491,1,8,0:2:0:0:
272,235,165707,1,2,0:2:0:0:
342,255,165815,1,8,1:2:0:0:
189,115,166030,5,2,0:0:0:0:
189,115,166137,1,0,0:0:0:0:
131,167,166246,2,0,P|115:201|121:273,1,103.999995239258,2|0,1:0|0:0,0:0:0:0:
185,354,166569,1,2,0:0:0:0:
194,281,166677,1,8,1:2:0:0:
11,355,166893,1,2,0:0:0:0:
204,270,167109,1,2,1:0:0:0:
266,307,167217,2,0,B|316:322|316:322|364:299,1,103.999995239258,10|0,0:0|0:0,0:0:0:0:
482,216,167540,1,10,1:2:0:0:
505,384,167756,1,0,0:0:0:0:
299,217,167972,6,0,P|287:166|307:103,1,103.999995239258,2|0,1:0|0:0,0:0:0:0:
419,17,168404,1,10,1:2:0:0:
419,17,168512,1,0,0:0:0:0:
419,17,168619,1,0,0:0:0:0:
199,143,168835,5,2,1:0:0:0:
157,139,168943,1,8,0:0:0:0:
133,173,169051,1,0,0:0:0:0:
112,209,169159,1,2,0:0:0:0:
70,206,169267,2,0,P|39:193|18:170,1,51.999997619629,8|0,1:2|0:0,0:0:0:0:
132,48,169483,2,0,P|155:38|181:36,1,51.999997619629,2|0,0:0|0:0,0:0:0:0:
331,118,169699,6,0,B|357:133|357:133|394:135|434:107,1,103.999995239258,2|0,1:0|0:0,0:0:0:0:
483,66,170022,1,2,0:0:0:0:
438,8,170130,1,8,1:2:0:0:
315,126,170346,1,2,0:0:0:0:
480,245,170562,5,2,3:1:0:0:
500,281,170670,1,8,3:2:0:0:
500,322,170778,1,0,3:0:0:0:
483,360,170886,1,0,3:0:0:0:
420,305,170994,6,0,P|400:299|365:298,1,51.999997619629,10|0,1:2|1:0,2:0:0:0:
244,368,171210,2,0,P|218:374|193:375,1,51.999997619629,2|0,1:2|1:0,2:0:0:0:
48,284,171426,6,0,B|53:242|53:242|58:237|58:237|64:183,1,103.999995239258,14|0,1:1|0:2,0:2:0:0:
76,110,171749,1,2,0:2:0:0:
87,38,171857,1,8,1:2:0:0:
195,201,172073,1,2,0:2:0:0:
325,57,172289,1,2,1:1:0:0:
257,30,172397,1,8,0:2:0:0:
311,243,172613,1,2,0:2:0:0:
240,260,172721,1,8,1:2:0:0:
421,167,172937,5,2,0:0:0:0:
421,167,173044,1,0,0:0:0:0:
476,216,173152,2,0,P|484:255|460:323,1,103.999995239258,2|0,1:0|0:0,0:0:0:0:
379,384,173476,1,2,0:0:0:0:
360,313,173584,1,8,1:2:0:0:
432,151,173800,1,2,0:0:0:0:
298,54,174016,1,2,1:0:0:0:
246,105,174124,2,0,P|200:119|139:97,1,103.999995239258,10|0,0:0|0:0,0:0:0:0:
53,18,174447,1,10,1:2:0:0:
83,234,174663,1,2,0:0:0:0:
246,104,174879,6,0,P|293:85|348:88,1,103.999995239258,2|0,1:0|0:0,0:0:0:0:
506,161,175311,1,10,1:2:0:0:
506,161,175419,1,0,0:0:0:0:
506,161,175527,1,0,0:0:0:0:
359,274,175743,1,2,1:0:0:0:
426,302,175851,1,8,0:0:0:0:
252,384,176066,1,2,0:0:0:0:
270,313,176174,1,8,1:2:0:0:
174,168,176390,1,0,0:0:0:0:
52,272,176606,6,0,P|29:280|-1:279,1,51.999997619629,2|0,1:0|0:0,0:0:0:0:
97,118,176822,2,0,P|98:92|111:61,1,51.999997619629,2|0,0:0|0:0,0:0:0:0:
304,217,177038,5,8,1:2:0:0:
342,233,177146,1,0,1:0:0:0:
381,247,177254,2,0,B|408:249|408:249|432:231,1,51.999997619629,2|0,0:2|0:0,0:0:0:0:
511,76,177469,5,2,1:1:0:0:
446,108,177577,1,0,1:0:0:0:
373,99,177685,1,8,1:2:0:0:
327,42,177793,1,0,1:0:0:0:
370,106,177901,5,10,1:1:0:0:
333,37,178009,1,0,1:0:0:0:
259,11,178117,1,0,1:0:0:0:
182,24,178225,1,0,1:0:0:0:
239,98,178333,6,0,B|253:127|253:127|254:162|216:186,1,103.999995239258,14|0,1:1|0:2,0:2:0:0:
114,174,178656,1,2,0:2:0:0:
103,101,178764,1,8,1:2:0:0:
236,267,178980,1,0,0:2:0:0:
52,318,179196,1,2,1:1:0:0:
60,245,179304,1,8,0:2:0:0:
202,384,179520,1,2,0:2:0:0:
270,360,179628,1,8,1:2:0:0:
368,211,179844,5,2,0:0:0:0:
368,211,179951,1,0,0:0:0:0:
305,163,180059,2,0,B|276:137|282:93|282:93|287:82|297:70,1,103.999995239258,2|0,1:0|0:0,0:0:0:0:
347,16,180383,1,2,0:0:0:0:
418,3,180491,1,8,1:2:0:0:
238,136,180707,1,2,0:0:0:0:
416,202,180923,1,2,1:0:0:0:
467,253,181031,2,0,P|479:312|454:349,1,103.999995239258,10|0,0:0|0:0,0:0:0:0:
352,384,181354,1,10,1:2:0:0:
285,203,181570,1,0,0:0:0:0:
116,292,181786,6,0,B|77:284|77:284|61:287|61:287|14:277,1,103.999995239258,2|0,1:0|0:0,0:0:0:0:
182,384,182218,1,10,1:2:0:0:
182,384,182326,1,0,0:0:0:0:
182,384,182433,1,0,0:0:0:0:
64,203,182649,5,2,1:0:0:0:
37,170,182757,1,8,0:0:0:0:
28,129,182865,1,0,0:0:0:0:
41,89,182973,1,2,0:0:0:0:
70,59,183081,2,0,P|95:51|139:48,1,51.999997619629,8|0,1:2|0:0,0:0:0:0:
194,162,183296,2,0,P|219:170|263:173,1,51.999997619629,2|0,2:2|0:0,0:0:0:0:
347,37,183513,6,0,B|394:16|394:16|448:31,1,103.999995239258,2|0,1:0|0:0,0:0:0:0:
507,66,183836,1,2,0:0:0:0:
483,134,183944,1,8,1:2:0:0:
244,173,184160,1,2,0:0:0:0:
387,301,184376,5,2,3:1:0:0:
428,295,184484,1,8,3:2:0:0:
470,290,184592,1,0,3:0:0:0:
512,284,184700,1,0,3:0:0:0:
489,211,184807,6,0,P|478:179|461:151,1,51.999997619629,10|0,1:2|1:0,2:0:0:0:
305,332,185023,2,0,P|293:357|288:381,1,51.999997619629,2|0,1:2|1:0,2:0:0:0:
175,176,185239,6,0,P|129:151|78:151,1,103.999995239258,14|0,1:1|0:2,0:2:0:0:
0,235,185562,1,2,0:2:0:0:
17,305,185670,1,8,1:2:0:0:
175,176,185886,1,2,0:2:0:0:
282,354,186102,1,2,1:1:0:0:
211,372,186210,1,8,0:2:0:0:
315,159,186426,1,2,0:2:0:0:
244,141,186534,1,8,1:2:0:0:
459,306,186750,5,2,0:0:0:0:
459,306,186857,1,0,0:0:0:0:
508,251,186966,2,0,P|514:210|492:145,1,103.999995239258,2|0,1:0|0:0,0:0:0:0:
418,67,187289,1,2,0:0:0:0:
393,135,187397,1,8,1:2:0:0:
275,3,187613,1,2,0:0:0:0:
202,174,187829,1,2,1:0:0:0:
253,225,187937,2,0,P|303:230|351:199,1,103.999995239258,10|0,0:0|0:0,0:0:0:0:
418,67,188260,1,10,1:2:0:0:
429,289,188476,1,2,0:0:0:0:
268,126,188692,6,0,B|254:94|254:94|255:70|255:70|233:17,1,103.999995239258,2|0,1:0|0:0,0:0:0:0:
107,240,189124,1,10,1:2:0:0:
107,240,189232,1,0,0:0:0:0:
107,240,189340,1,0,0:0:0:0:
132,24,189555,1,2,1:0:0:0:
271,232,189772,5,2,0:0:0:0:
340,212,189879,1,2,0:0:0:0:
288,162,189987,1,8,1:2:0:0:
190,375,190203,1,0,0:0:0:0:
9,228,190419,6,0,L|23:170,1,51.999997619629,2|0,1:0|0:0,0:0:0:0:
139,55,190635,2,0,L|218:47,1,51.999997619629,2|0,0:0|0:0,0:0:0:0:
374,210,190851,5,8,1:2:0:0:
416,229,190959,1,0,1:0:0:0:
462,225,191067,2,0,P|476:206|468:153,1,51.999997619629,2|0,0:2|0:0,0:0:0:0:
314,16,191282,5,2,1:1:0:0:
307,88,191390,1,0,1:0:0:0:
253,137,191498,1,8,1:2:0:0:
181,150,191606,1,0,1:0:0:0:
228,211,191714,5,10,1:1:0:0:
170,158,191822,1,0,1:0:0:0:
92,168,191930,1,0,1:0:0:0:
48,232,192038,1,0,1:0:0:0:
103,286,192145,6,0,P|142:277|191:270,1,71.9999978027344,14|0,1:0|0:0,0:0:0:0:
480,372,193872,2,0,P|441:363|392:356,1,71.9999978027344,0|0,1:0|0:0,0:0:0:0:
123,139,195598,2,0,P|158:133|193:124,1,71.9999978027344,0|0,1:0|0:0,0:0:0:0:
438,32,197325,2,0,P|402:26|367:17,1,71.9999978027344,0|0,1:0|0:0,0:0:0:0:
273,184,198188,5,0,1:0:0:0:
273,184,198296,1,0,1:0:0:0:
273,184,198404,2,0,P|298:182|324:165,1,35.9999989013672,8|0,0:2|0:0,0:0:0:0:
155,65,198620,6,0,P|150:44|138:24,1,35.9999989013672,8|0,1:2|0:0,0:0:0:0:
27,162,198836,5,0,1:0:0:0:
0,231,198944,1,8,1:2:0:0:
49,286,199052,2,0,B|154:311|154:311|353:103|353:103|470:137,1,503.999984619141,14|0,0:2|0:0,0:0:0:0:
457,133,200778,6,0,B|475:162|475:202|475:202|341:46|136:46|136:46|199:73,1,503.999984619141,2|0,1:2|0:0,0:0:0:0:
178,64,202505,6,0,B|297:91|321:201|260:303|260:303|199:211|166:269|106:166,1,503.999984619141,2|0,1:2|0:0,0:0:0:0:
111,174,204232,6,0,B|199:134|349:178|263:230|351:348|448:299|510:253|451:137|372:175,1,503.999984619141,2|0,1:2|0:0,0:0:0:0:
302,276,205958,5,10,1:2:0:0:
293,295,206066,1,0,3:2:0:0:
290,316,206174,1,0,3:2:0:0:
293,337,206282,1,0,3:2:0:0:
225,380,206390,5,10,1:2:0:0:
214,357,206498,1,0,3:2:0:0:
208,332,206606,1,0,3:2:0:0:
210,306,206714,1,0,3:2:0:0:
167,236,206821,5,10,1:2:0:0:
145,255,206929,1,8,3:2:0:0:
134,281,207037,1,0,3:2:0:0:
129,309,207145,1,8,3:2:0:0:
76,370,207253,5,10,1:2:0:0:
57,343,207361,1,0,3:2:0:0:
49,311,207469,1,0,1:2:0:0:
52,278,207577,1,0,3:2:0:0:
137,223,207685,6,0,B|154:205|154:205|166:161|130:119,1,111.999996582031,14|0,1:1|0:0,0:0:0:0:
133,123,208008,1,0,0:0:0:0:
133,123,208116,1,8,1:2:0:0:
0,35,208332,6,0,L|60:26,1,55.9999982910157,2|0,0:0|0:0,0:0:0:0:
141,130,208548,2,0,L|205:120,1,55.9999982910157,2|0,1:1|0:0,0:0:0:0:
286,41,208764,2,0,L|350:31,1,55.9999982910157,0|0,2:2|0:0,0:0:0:0:
190,141,208980,6,0,L|129:149,1,55.9999982910157,10|0,1:2|0:0,0:0:0:0:
296,227,209196,2,0,L|271:176,1,55.9999982910157,0|0,2:2|0:0,0:0:0:0:
109,345,209411,2,0,L|158:371,1,55.9999982910157,2|0,1:2|0:0,0:0:0:0:
246,354,209627,2,0,L|286:314,1,55.9999982910157,0|0,2:2|0:0,0:0:0:0:
75,211,209843,2,0,L|63:271,1,55.9999982910157,2|0,1:1|0:0,0:0:0:0:
200,129,210059,5,0,0:2:0:0:
200,129,210167,1,0,0:0:0:0:
200,129,210275,2,0,B|214:44|126:12|126:12|100:51|117:86,1,223.999993164063,2|0,1:2|1:0,0:0:0:0:
275,219,210922,5,0,0:0:0:0:
306,231,211030,1,0,0:0:0:0:
338,238,211138,2,0,P|393:238|438:201,1,111.999996582031,2|0,1:2|0:0,0:0:0:0:
265,32,211570,1,8,1:2:0:0:
265,32,211678,2,0,L|196:19,1,55.9999982910157
68,87,211893,5,2,0:2:0:0:
124,137,212001,2,0,P|153:133|179:115,1,55.9999982910157,0|0,1:2|0:0,0:0:0:0:
42,97,212217,1,2,0:0:0:0:
23,117,212325,1,0,0:0:0:0:
9,141,212433,2,0,P|-5:194|16:245,1,111.999996582031,8|0,1:2|0:0,0:0:0:0:
103,333,212757,5,2,0:0:0:0:
103,333,212865,2,0,B|111:298|111:298|105:278|105:278|120:219,1,111.999996582031,0|0,1:0|0:0,0:0:0:0:
182,178,213188,1,2,0:0:0:0:
248,220,213296,2,0,P|289:220|310:205,1,55.9999982910157,8|0,1:2|0:0,0:0:0:0:
168,101,213512,2,0,L|100:90,1,55.9999982910157
306,26,213728,5,2,1:2:0:0:
376,60,213836,2,0,P|400:58|442:32,1,55.9999982910157,8|0,0:0|0:0,0:0:0:0:
299,41,214052,1,2,0:0:0:0:
323,115,214160,2,0,P|347:131|382:135,1,55.9999982910157,0|0,1:0|0:0,0:0:0:0:
221,18,214375,2,0,B|171:12|137:25|137:25|108:60,1,111.999996582031,2|0,0:2|1:0,0:0:0:0:
76,111,214699,5,0,0:0:0:0:
76,111,214807,2,0,P|36:120|2:113,1,55.9999982910157,2|0,0:0|0:0,0:0:0:0:
214,211,215023,2,0,P|239:215|276:242,1,55.9999982910157,10|0,1:2|0:0,0:0:0:0:
81,320,215239,2,0,P|52:333|11:323,1,55.9999982910157
131,202,215455,6,0,P|137:174|166:137,1,55.9999982910157,2|0,1:0|0:0,0:0:0:0:
362,297,215670,1,0,0:0:0:0:
362,297,215778,1,0,0:0:0:0:
362,297,215886,2,0,P|355:251|326:211,1,55.9999982910157,10|0,1:2|0:0,0:0:0:0:
190,365,216102,2,0,P|190:334|205:297,1,55.9999982910157
360,153,216318,5,2,1:1:0:0:
402,180,216426,1,0,3:0:0:0:
429,138,216534,1,0,3:0:0:0:
387,111,216642,1,0,3:0:0:0:
317,165,216749,6,0,P|290:163|257:145,1,55.9999982910157,10|0,1:2|0:0,0:0:0:0:
188,43,216965,2,0,P|161:45|128:63,1,55.9999982910157,0|0,2:2|0:0,0:0:0:0:
313,176,217181,6,0,P|286:173|261:161,1,55.9999982910157,2|0,1:1|0:0,0:0:0:0:
182,30,217397,2,0,P|155:33|130:45,1,55.9999982910157,0|0,2:1|2:0,0:0:0:0:
311,187,217613,6,0,P|284:185|251:167,1,55.9999982910157,10|0,1:2|0:0,0:0:0:0:
178,19,217829,2,0,P|151:21|118:39,1,55.9999982910157,0|0,2:1|2:0,0:0:0:0:
255,188,218044,6,0,B|305:215|345:176|345:176|348:150|348:150|372:101|434:109,1,223.999993164063,2|8,1:1|1:2,0:0:0:0:
334,273,218692,1,2,0:0:0:0:
334,273,218800,1,0,0:0:0:0:
392,319,218908,2,0,P|445:326|496:276,1,111.999996582031,2|0,1:1|0:0,0:0:0:0:
289,100,219339,5,10,1:2:0:0:
236,49,219447,1,0,3:2:0:0:
172,83,219555,1,0,3:2:0:0:
119,32,219663,1,0,3:2:0:0:
57,71,219771,6,0,P|33:121|34:180,1,111.999996582031,2|0,1:1|0:0,0:0:0:0:
91,252,220095,1,2,0:2:0:0:
91,252,220203,2,0,L|151:244,1,55.9999982910157,8|0,1:2|0:0,0:0:0:0:
235,127,220419,2,0,L|295:119,1,55.9999982910157,0|0,2:2|0:0,0:0:0:0:
462,164,220634,6,0,P|461:128|444:97,1,60.0000022888184,2|0,1:1|3:0,0:0:0:0:
417,308,220850,2,0,P|418:344|435:375,1,60.0000022888184,0|0,3:1|3:0,0:0:0:0:
285,221,221066,2,0,P|251:207|216:210,1,60.0000022888184,0|0,3:1|3:0,0:0:0:0:
81,306,221282,5,2,3:2:0:0:
81,306,221390,1,8,3:2:0:0:
81,306,221498,2,0,B|63:336|19:341|19:341|-26:262|22:194,1,223.999993164063,2|8,1:1|1:2,0:0:0:0:
161,75,222145,1,2,0:0:0:0:
190,100,222253,1,0,0:0:0:0:
228,105,222361,2,0,B|267:95|267:95|284:72|284:72|340:58,1,111.999996582031,2|0,1:1|0:0,0:0:0:0:
386,20,222685,1,0,0:0:0:0:
452,50,222793,2,0,P|474:100|461:153,1,111.999996582031,8|0,1:2|0:0,0:0:0:0:
331,266,223224,5,2,1:2:0:0:
422,314,223368,2,0,P|465:310|504:276,1,80.0000030517579,2|0,0:2|0:0,0:0:0:0:
329,167,223656,2,0,P|349:133|336:74,1,80.0000030517579,10|0,1:2|0:0,0:0:0:0:
226,3,223944,5,2,0:2:0:0:
141,70,224088,2,0,B|88:93|88:93|29:58,1,120.000004577637,2|0,1:1|0:0,0:0:0:0:
329,167,224519,2,0,B|382:190|382:190|440:155,1,120.000004577637,10|0,2:2|0:0,0:0:0:0:
446,169,224843,1,0,0:0:0:0:
483,105,224951,6,0,P|478:69|456:42,1,60.0000022888184,2|0,1:1|0:0,0:0:0:0:
322,184,225167,2,0,P|285:181|261:174,1,60.0000022888184
213,30,225383,2,0,P|155:37|81:71,1,120.000004577637,10|0,1:2|0:0,0:0:0:0:
41,113,225706,1,2,0:0:0:0:
24,36,225814,1,2,1:1:0:0:
290,98,226030,1,8,0:0:0:0:
75,288,226246,5,8,1:2:0:0:
102,206,226354,5,0,3:0:0:0:
159,271,226462,5,0,3:0:0:0:
111,253,226570,5,8,0:2:0:0:
256,192,228404,5,8,0:1:0:60:special.ogg
210,67,235311,6,0,B|170:63|170:63|158:70|158:70|115:64,2,96,10|0|0,0:2|0:3|0:0,0:0:0:0:
243,143,236174,2,0,P|223:218|247:258,1,128,2|0,0:0|0:0,0:0:0:0:
324,309,236821,1,0,0:0:0:0:
324,309,236929,1,0,0:0:0:0:
324,309,237037,2,0,P|368:291|416:287,2,96,2|0|0,0:0|0:0|0:0,0:0:0:0:
246,341,237901,2,0,P|210:338|175:321,1,64,2|0,0:0|0:0,0:0:0:0:
119,263,238332,5,0,0:0:0:0:
124,247,238440,1,0,0:0:0:0:
129,231,238548,1,0,0:0:0:0:
134,215,238656,1,0,0:0:0:0:
139,199,238764,2,0,P|141:157|129:124,1,64,2|0,0:0|0:0,0:0:0:0:
63,80,239196,2,0,L|-12:92,1,64
134,15,239627,5,2,0:0:0:0:
256,128,239951,1,0,0:0:0:0:
378,15,240275,1,0,0:0:0:0:
489,122,240491,5,2,0:0:0:0:
385,163,240706,1,0,0:0:0:0:
472,232,240922,1,2,0:0:0:0:
472,232,241030,2,0,P|480:263|466:314,1,80
410,360,241354,5,2,1:1:0:0:
371,331,241462,1,0,1:0:0:0:
323,325,241570,1,8,1:2:0:0:
277,339,241678,1,0,1:0:0:0:
247,376,241785,5,10,1:1:0:0:
193,331,241893,1,0,1:0:0:0:
187,261,242001,1,0,1:0:0:0:
232,207,242109,1,0,1:0:0:0:
302,200,242217,6,0,B|355:213|355:213|401:175,1,110.400000168457,14|0,1:1|0:2,0:2:0:0:
492,120,242540,1,2,0:2:0:0:
483,194,242648,1,8,1:2:0:0:
324,19,242864,1,0,0:2:0:0:
232,207,243080,1,2,1:1:0:0:
206,136,243188,1,8,0:2:0:0:
28,259,243404,1,2,0:2:0:0:
44,186,243512,1,8,1:2:0:0:
215,330,243728,5,2,0:0:0:0:
215,330,243835,1,0,0:0:0:0:
282,360,243944,2,0,P|326:362|396:332,1,110.400000168457,2|0,1:0|0:0,0:0:0:0:
469,283,244267,1,2,0:0:0:0:
479,356,244375,1,8,1:2:0:0:
217,247,244591,1,2,0:0:0:0:
464,205,244807,1,2,1:0:0:0:
492,136,244915,2,0,P|494:70|458:32,1,110.400000168457,10|0,0:0|0:0,0:0:0:0:
327,0,245238,1,10,1:2:0:0:
464,205,245454,1,0,0:0:0:0:
200,129,245670,6,0,B|244:120|244:120|256:111|256:111|306:101,1,110.400000168457,2|0,1:0|0:0,0:0:0:0:
115,0,246102,1,10,1:2:0:0:
115,0,246210,1,0,0:0:0:0:
115,0,246317,1,0,0:0:0:0:
0,184,246533,5,2,1:0:0:0:
37,160,246641,1,8,0:0:0:0:
78,175,246749,1,0,0:0:0:0:
89,217,246857,1,2,0:0:0:0:
123,244,246965,2,0,P|152:244|189:225,1,55.2000000842285,8|0,1:2|0:0,0:0:0:0:
279,89,247181,2,0,P|304:79|331:80,1,55.2000000842285,2|0,2:2|0:0,0:0:0:0:
473,179,247397,6,0,B|464:221|464:221|468:238|468:238|458:290,1,110.400000168457,2|0,1:0|0:0,0:0:0:0:
441,384,247720,1,2,0:0:0:0:
506,348,247828,1,8,1:2:0:0:
384,191,248044,1,2,0:0:0:0:
196,335,248260,5,2,3:1:0:0:
154,341,248368,1,8,3:2:0:0:
112,347,248476,1,0,3:0:0:0:
70,354,248584,1,0,3:0:0:0:
77,275,248692,6,0,L|90:215,1,55.2000000842285,10|0,1:2|1:0,2:0:0:0:
280,329,248908,2,0,L|296:395,1,55.2000000842285,2|0,1:2|1:0,2:0:0:0:
391,186,249123,6,0,B|413:221|457:217|457:217|477:208|484:195,1,110.400000168457,14|0,1:1|0:2,0:2:0:0:
509,127,249446,1,2,0:2:0:0:
474,61,249554,1,8,1:2:0:0:
287,199,249770,1,2,0:2:0:0:
152,23,249986,1,2,1:1:0:0:
225,8,250094,1,8,0:2:0:0:
150,220,250310,1,2,0:2:0:0:
220,245,250418,1,8,1:2:0:0:
57,108,250634,5,2,0:0:0:0:
57,108,250741,1,0,0:0:0:0:
0,164,250850,2,0,P|-9:200|9:287,1,110.400000168457,2|0,1:0|0:0,0:0:0:0:
69,361,251173,1,2,0:0:0:0:
94,291,251281,1,8,1:2:0:0:
256,384,251497,1,2,0:0:0:0:
418,291,251713,1,2,1:0:0:0:
378,227,251821,2,0,B|359:176|359:176|383:113,1,110.400000168457,10|0,0:0|0:0,0:0:0:0:
462,8,252144,1,10,1:2:0:0:
495,241,252360,1,2,0:0:0:0:
317,39,252577,6,0,P|265:22|188:33,1,110.400000168457,2|0,1:0|0:0,0:0:0:0:
38,84,253008,1,10,1:2:0:0:
38,84,253116,1,0,0:0:0:0:
38,84,253224,1,0,0:0:0:0:
264,184,253439,1,2,1:0:0:0:
96,345,253656,5,2,0:0:0:0:
114,275,253763,1,2,0:0:0:0:
103,348,253871,1,8,1:2:0:0:
34,183,254087,1,0,0:0:0:0:
257,295,254303,6,0,P|284:295|323:278,1,55.2000000842285,2|0,1:0|0:0,0:0:0:0:
254,93,254519,2,0,P|226:94|201:104,1,55.2000000842285,2|0,0:0|0:0,0:0:0:0:
393,239,254735,5,8,1:2:0:0:
430,205,254843,1,0,1:0:0:0:
445,157,254951,2,0,P|440:127|415:87,1,55.2000000842285,2|0,0:2|0:0,0:0:0:0:
284,21,255166,5,2,1:1:0:0:
244,84,255274,1,0,1:0:0:0:
172,107,255383,1,8,1:2:0:0:
100,89,255490,1,0,1:0:0:0:
174,116,255598,5,10,1:1:0:0:
102,81,255706,1,0,1:0:0:0:
28,112,255814,1,0,1:0:0:0:
10,190,255922,1,0,1:0:0:0:
91,246,256030,6,0,B|139:234|139:234|147:225|147:225|206:212,1,116.800003208008,14|0,1:1|0:2,0:2:0:0:
292,251,256354,1,2,0:2:0:0:
277,325,256462,1,8,1:2:0:0:
490,248,256678,1,0,0:2:0:0:
330,81,256894,1,2,1:1:0:0:
405,69,257002,1,8,0:2:0:0:
292,251,257218,1,2,0:2:0:0:
366,268,257326,1,8,1:2:0:0:
208,117,257541,5,2,0:0:0:0:
208,117,257648,1,0,0:0:0:0:
149,167,257757,2,0,P|97:178|33:142,1,116.800003208008,2|0,1:0|0:0,0:0:0:0:
1,87,258080,1,2,0:0:0:0:
54,33,258188,1,8,1:2:0:0:
100,268,258404,1,2,0:0:0:0:
286,149,258620,1,2,1:0:0:0:
345,199,258728,2,0,P|397:210|461:174,1,116.800003208008,10|0,2:2|0:0,0:0:0:0:
512,93,259051,1,10,1:2:0:0:
461,294,259267,1,0,0:0:0:0:
276,130,259483,6,0,B|262:96|262:96|267:68|267:68|245:7,1,116.800003208008,2|0,1:0|0:0,0:0:0:0:
162,257,259915,1,10,1:2:0:0:
162,257,260023,1,0,0:0:0:0:
162,257,260130,1,0,0:0:0:0:
0,102,260346,5,2,1:0:0:0:
43,87,260454,1,8,0:0:0:0:
84,106,260562,1,0,0:0:0:0:
98,149,260670,1,2,0:0:0:0:
140,165,260778,2,0,P|172:159|199:135,1,58.400001604004,8|0,1:2|0:0,0:0:0:0:
282,17,260994,2,0,P|310:23|335:37,1,58.400001604004,2|0,0:0|0:0,0:0:0:0:
429,191,261210,6,0,B|463:211|463:211|508:199|513:151,1,116.800003208008,2|0,1:0|0:0,0:0:0:0:
508,81,261533,1,2,0:0:0:0:
449,31,261641,1,8,1:2:0:0:
280,169,261857,1,2,0:0:0:0:
474,254,262073,5,2,3:1:0:0:
506,288,262181,1,8,3:2:0:0:
493,333,262289,1,0,3:0:0:0:
448,344,262397,1,0,3:0:0:0:
373,296,262505,6,0,L|366:223,1,58.400001604004,10|0,1:2|1:0,2:0:0:0:
179,323,262721,2,0,L|173:381,1,58.400001604004,2|0,1:2|1:0,2:0:0:0:
0,183,262937,6,0,B|57:197|57:197|106:167,1,116.800003208008,14|0,1:1|0:2,0:2:0:0:
201,99,263260,1,2,0:2:0:0:
185,173,263368,1,8,1:2:0:0:
78,12,263584,1,2,0:2:0:0:
350,117,263800,1,2,1:1:0:0:
334,43,263908,1,8,0:2:0:0:
106,167,264124,1,2,0:2:0:0:
122,93,264232,1,8,1:2:0:0:
268,274,264448,5,2,0:0:0:0:
268,274,264555,1,0,0:0:0:0:
336,306,264663,2,0,P|387:312|455:261,1,116.800003208008,2|0,1:0|0:0,0:0:0:0:
485,217,264987,1,2,0:0:0:0:
479,141,265095,1,8,1:2:0:0:
268,274,265311,1,2,0:0:0:0:
175,73,265527,1,2,1:0:0:0:
110,111,265634,2,0,P|59:117|-9:66,1,116.800003208008,10|0,2:0|0:0,0:0:0:0:
83,5,265958,1,10,1:2:0:0:
133,248,266174,1,2,0:0:0:0:
296,123,266390,6,0,B|305:79|305:79|298:58|298:58|306:8,1,116.800003208008,2|0,1:0|0:0,0:0:0:0:
501,188,266822,1,10,1:2:0:0:
501,188,266930,1,0,0:0:0:0:
501,188,267038,1,0,0:0:0:0:
309,351,267254,1,2,1:0:0:0:
381,372,267362,1,8,0:0:0:0:
211,195,267577,1,2,0:0:0:0:
283,174,267685,1,8,1:2:0:0:
149,381,267901,1,0,0:0:0:0:
16,243,268117,6,0,P|21:216|35:183,1,58.400001604004,2|0,1:0|0:0,0:0:0:0:
375,216,268332,2,0,P|370:189|356:156,1,58.400001604004,2|0,2:0|0:0,0:0:0:0:
143,19,268549,5,8,1:2:0:0:
123,57,268657,1,0,1:0:0:0:
84,76,268765,2,0,B|55:77|55:77|22:61,1,58.400001604004,2|0,0:2|0:0,0:0:0:0:
276,166,268980,5,2,1:1:0:0:
307,94,269088,1,0,1:0:0:0:
385,87,269196,1,8,1:2:0:0:
431,146,269303,1,0,1:0:0:0:
341,230,269412,5,10,1:1:0:0:
267,179,269519,5,0,1:0:0:0:
189,221,269627,5,0,1:0:0:0:
184,308,269735,5,0,1:0:0:0:
301,347,269844,6,0,P|364:334|430:330,1,120.000004577637,14|0,1:1|0:2,0:2:0:0:
512,355,270167,1,2,0:2:0:0:
483,284,270275,1,8,1:2:0:0:
288,370,270491,1,0,0:2:0:0:
290,161,270707,1,2,1:1:0:0:
357,126,270815,1,8,0:2:0:0:
163,76,271031,1,2,0:2:0:0:
143,2,271139,1,8,1:2:0:0:
23,190,271355,5,2,0:0:0:0:
23,190,271462,1,0,0:0:0:0:
81,239,271570,2,0,P|135:243|199:196,1,120.000004577637,2|0,1:0|0:0,0:0:0:0:
266,128,271894,1,2,0:0:0:0:
244,54,272002,1,8,1:2:0:0:
393,173,272218,1,2,0:0:0:0:
266,296,272434,1,2,1:0:0:0:
323,346,272542,2,0,P|369:363|445:336,1,120.000004577637,10|0,0:0|0:0,0:0:0:0:
512,266,272865,1,10,1:2:0:0:
347,95,273081,1,0,0:0:0:0:
191,248,273297,6,0,B|135:261|135:261|73:230,1,120.000004577637,2|0,1:0|0:0,0:0:0:0:
259,25,273729,1,10,1:2:0:0:
259,25,273837,1,0,0:0:0:0:
259,25,273944,1,0,0:0:0:0:
489,151,274160,5,2,1:0:0:0:
451,120,274268,1,8,0:0:0:0:
403,129,274376,1,0,0:0:0:0:
382,172,274484,1,2,0:0:0:0:
338,193,274592,2,0,P|307:190|269:155,1,60.0000022888184,8|0,1:2|0:0,0:0:0:0:
169,60,274807,2,0,P|164:20|136:-14,1,60.0000022888184,2|0,2:2|0:0,0:0:0:0:
10,143,275024,6,0,P|1:171|10:269,1,120.000004577637,2|0,1:0|0:0,0:0:0:0:
38,329,275347,1,2,0:0:0:0:
106,362,275455,1,8,1:2:0:0:
282,174,275671,1,2,0:0:0:0:
483,368,275887,5,2,3:1:0:0:
435,362,275995,1,8,3:2:0:0:
387,356,276102,1,0,3:0:0:0:
339,350,276210,1,0,3:0:0:0:
290,282,276318,6,0,L|283:214,1,60.0000022888184,10|0,1:2|1:0,2:0:0:0:
508,126,276534,2,0,L|502:185,1,60.0000022888184,2|0,1:2|1:0,2:0:0:0:
287,51,276750,6,0,P|251:36|160:37,1,120.000004577637,14|0,1:1|0:2,0:2:0:0:
70,82,277073,1,2,0:2:0:0:
98,12,277181,1,8,1:2:0:0:
278,133,277397,1,2,0:2:0:0:
30,241,277613,1,2,1:1:0:0:
23,165,277721,1,8,0:2:0:0:
301,273,277937,1,2,0:2:0:0:
327,202,278045,1,8,1:2:0:0:
87,328,278261,5,2,0:0:0:0:
87,328,278368,1,0,0:0:0:0:
148,373,278477,2,0,P|206:372|261:342,1,120.000004577637,2|0,1:0|0:0,0:0:0:0:
323,245,278800,1,2,0:0:0:0:
302,175,278908,1,8,1:2:0:0:
68,125,279124,1,2,0:0:0:0:
272,23,279340,1,2,1:0:0:0:
321,80,279448,2,0,B|374:104|374:104|433:74,1,120.000004577637,10|0,0:0|0:0,0:0:0:0:
512,2,279771,1,10,1:2:0:0:
451,197,279987,1,2,0:0:0:0:
250,39,280203,6,0,P|194:25|117:81,1,120.000004577637,2|0,1:0|0:0,0:0:0:0:
0,204,280635,1,10,1:2:0:0:
0,204,280743,1,0,0:0:0:0:
0,204,280851,1,0,0:0:0:0:
271,264,281066,1,2,1:0:0:0:
53,383,281283,5,2,0:0:0:0:
16,316,281390,1,2,0:0:0:0:
61,253,281498,1,8,1:2:0:0:
329,346,281714,1,0,0:0:0:0:
94,170,281930,6,0,P|59:158|22:157,1,60.0000022888184,2|0,1:0|0:0,0:0:0:0:
246,80,282146,2,0,P|249:48|271:10,1,60.0000022888184,2|0,0:0|0:0,0:0:0:0:
392,196,282362,1,8,1:2:0:0:
434,215,282470,1,0,1:0:0:0:
480,211,282578,2,0,P|494:192|489:134,1,60.0000022888184,2|0,0:2|0:0,0:0:0:0:
250,14,282793,5,2,1:0:0:0:
218,84,282901,1,0,1:0:0:0:
145,59,283008,2,0,P|114:53|73:47,1,64,8|0,1:2|2:0,0:0:0:0:
431,166,283224,6,0,P|464:160|506:155,1,68.0000012969971,8|0,1:2|2:0,0:0:0:0:
73,237,283440,6,0,P|49:233|21:229,2,35.9999989013672,0|0|8,1:0|1:0|1:2,0:0:0:0:
343,379,283656,6,0,P|336:331|321:278,1,88.000002685547,14|0,1:0|0:0,0:0:0:0:
200,174,284088,1,8,1:2:0:0:
200,174,284196,2,0,B|158:186|158:186|100:160,1,88.000002685547
59,120,284519,2,0,P|68:76|91:35,1,88.000002685547,2|0,1:2|0:0,0:0:0:0:
158,6,284843,1,0,0:0:0:0:
158,6,284951,1,8,1:2:0:0:
200,174,285167,1,0,0:0:0:0:
368,115,285383,6,0,P|365:69|346:19,1,88.000002685547,2|0,1:2|0:0,0:0:0:0:
207,181,285814,1,8,1:2:0:0:
207,181,285922,1,0,0:0:0:0:
356,243,286138,1,0,0:0:0:0:
356,243,286246,2,0,P|400:232|445:232,1,88.000002685547,2|0,1:2|0:0,0:0:0:0:
503,276,286570,1,0,0:0:0:0:
457,335,286678,2,0,P|413:346|368:346,1,88.000002685547,8|0,1:2|0:0,0:0:0:0:
172,290,287109,5,2,1:2:0:0:
356,243,287325,1,0,0:0:0:0:
230,121,287541,1,8,1:2:0:0:
230,121,287649,2,0,B|221:91|221:91|221:75|221:75|208:22,1,88.000002685547
144,99,287973,5,2,1:2:0:0:
122,76,288081,1,0,3:0:0:0:
94,62,288188,1,0,3:0:0:0:
63,60,288296,1,0,3:0:0:0:
7,115,288404,6,0,P|0:141|3:177,1,44.0000013427735,2|0,1:2|0:0,0:0:0:0:
105,232,288620,2,0,P|133:222|171:223,1,44.0000013427735,2|0,2:2|0:0,0:0:0:0:
249,297,288836,6,0,B|274:315|274:315|297:318|338:298,1,88.000002685547,2|0,1:2|0:0,0:0:0:0:
489,235,289268,1,8,1:2:0:0:
489,235,289375,2,0,B|511:255|511:255|486:329,1,88.000002685547,0|0,2:2|2:0,0:0:0:0:
414,374,289699,6,2,P|386:372|365:355,1,44.0000013427735,2|0,1:1|0:0,0:1:0:0:
314,227,289915,1,2,0:1:0:0:
314,227,290023,1,0,0:0:0:0:
314,227,290131,2,2,P|323:199|320:167,1,44.0000013427735,10|0,1:2|0:0,0:1:0:0:
196,301,290347,2,2,P|196:322|200:344,1,44.0000013427735,2|0,1:2|0:0,0:1:0:0:
86,222,290563,6,0,B|45:233|45:233|-7:205,1,88.000002685547,14|0,1:0|0:0,0:0:0:0:
123,113,290995,1,8,1:2:0:0:
123,113,291103,2,0,P|129:65|161:26,1,88.000002685547
224,9,291426,1,2,1:2:0:0:
242,27,291534,1,0,3:0:0:0:
265,38,291642,1,0,3:0:0:0:
290,44,291750,1,0,3:0:0:0:
316,44,291857,2,0,P|355:30|420:32,1,88.000002685547,10|0,1:2|0:0,0:0:0:0:
512,184,292290,6,0,B|475:178|475:178|465:171|465:171|420:165,1,88.000002685547,2|0,1:2|0:0,0:0:0:0:
276,236,292721,1,8,1:2:0:0:
276,236,292829,1,0,0:0:0:0:
379,364,293045,1,0,0:0:0:0:
379,364,293152,2,0,P|426:366|467:342,1,88.000002685547,2|0,1:2|0:0,0:0:0:0:
510,290,293476,1,0,0:0:0:0:
510,215,293584,2,0,B|502:190|502:190|506:170|506:170|493:123,1,88.000002685547,8|0,1:2|0:0,0:0:0:0:
329,19,294016,5,2,1:2:0:0:
283,237,294232,1,0,0:0:0:0:
188,58,294447,1,8,1:2:0:0:
188,58,294556,2,0,P|147:43|94:46,1,88.000002685547
22,115,294880,5,2,1:2:0:0:
14,158,294988,1,0,3:0:0:0:
7,201,295095,1,0,3:0:0:0:
0,244,295203,1,0,3:0:0:0:
40,310,295311,6,0,P|66:311|88:298,1,44.0000013427735,2|0,1:2|0:0,0:0:0:0:
197,210,295526,2,0,P|223:209|245:222,1,44.0000013427735,2|0,2:2|2:0,0:0:0:0:
331,343,295743,6,0,B|372:356|372:356|413:339,1,88.000002685547,2|0,1:2|0:0,0:0:0:0:
487,312,296066,1,2,0:0:0:0:
487,312,296174,1,8,1:2:0:0:
328,216,296390,1,2,0:0:0:0:
481,128,296606,5,0,1:0:0:0:
504,91,296714,1,0,1:0:0:0:
487,50,296822,2,0,P|467:40|442:36,1,44.0000013427735,8|0,1:2|3:0,0:0:0:0:
343,118,297037,2,0,P|318:125|300:124,1,44.0000013427735,0|0,1:0|3:0,0:0:0:0:
193,34,297253,2,0,P|176:27|153:27,2,22.0000006713867,0|0|8,1:0|1:0|1:2,0:0:0:0:
347,121,297469,6,0,P|361:144|358:219,1,88.000002685547,14|0,1:0|0:0,0:0:0:0:
230,298,297901,1,8,1:2:0:0:
230,298,298009,2,0,B|193:292|193:292|181:298|181:298|121:289,1,88.000002685547
55,383,298332,2,0,B|44:341|44:341|64:292,1,88.000002685547,2|0,1:2|0:0,0:0:0:0:
98,233,298656,1,0,0:0:0:0:
98,233,298764,1,8,1:2:0:0:
237,329,298980,1,0,0:0:0:0:
349,181,299196,6,0,B|361:138|361:138|343:98,1,88.000002685547,2|0,1:2|0:0,0:0:0:0:
194,4,299627,1,8,1:2:0:0:
194,4,299735,1,0,0:0:0:0:
100,140,299951,1,0,0:0:0:0:
100,140,300059,2,0,P|52:144|14:128,1,88.000002685547,2|0,1:2|0:0,0:0:0:0:
290,36,300491,2,0,P|328:18|376:20,1,88.000002685547,8|0,1:2|0:0,0:0:0:0:
512,155,300922,5,2,1:2:0:0:
420,284,301138,1,0,0:0:0:0:
280,219,301354,1,8,1:2:0:0:
280,219,301462,2,0,B|269:187|269:187|271:172|271:172|254:115,1,88.000002685547
179,58,301786,5,2,1:2:0:0:
147,55,301894,1,0,3:0:0:0:
115,51,302001,1,0,3:0:0:0:
83,49,302109,1,0,3:0:0:0:
12,87,302217,6,0,P|1:108|1:138,1,44.0000013427735,2|0,1:2|0:0,0:0:0:0:
107,215,302433,2,0,P|129:214|150:206,1,44.0000013427735,2|0,2:2|0:0,0:0:0:0:
276,117,302649,6,0,B|319:106|319:106|360:123,1,88.000002685547,2|0,1:2|0:0,0:0:0:0:
374,325,303081,1,8,1:2:0:0:
374,325,303188,2,0,B|415:342|415:342|458:331,1,88.000002685547,0|0,2:2|0:0,0:0:0:0:
512,277,303512,6,2,P|509:250|499:230,1,44.0000013427735,2|0,1:1|0:0,0:1:0:0:
311,197,303728,1,2,0:1:0:0:
311,197,303836,1,0,0:0:0:0:
311,197,303944,2,2,P|314:165|327:141,1,44.0000013427735,10|0,1:2|0:0,0:1:0:0:
510,121,304160,2,2,P|510:96|500:76,1,44.0000013427735,2|0,1:2|0:0,0:1:0:0:
357,17,304376,6,0,B|318:35|318:35|255:22,1,88.000002685547,14|0,1:0|0:0,0:0:0:0:
155,135,304808,1,8,1:2:0:0:
155,135,304915,2,0,B|116:117|116:117|71:126,1,88.000002685547,0|0,2:0|0:0,0:0:0:0:
8,172,305239,2,0,P|-3:213|6:258,1,88.000002685547,2|0,1:2|0:0,0:0:0:0:
51,325,305563,1,0,0:0:0:0:
51,325,305670,1,10,1:2:0:0:
212,245,305887,1,0,0:0:0:0:
368,384,306103,6,0,P|365:340|344:296,1,88.000002685547,2|0,1:2|0:0,0:0:0:0:
230,164,306534,1,8,1:2:0:0:
230,164,306642,1,0,0:0:0:0:
111,282,306858,1,0,0:0:0:0:
111,282,306965,2,0,B|67:290|67:290|32:264,1,88.000002685547,2|0,1:2|0:0,0:0:0:0:
0,192,307289,1,0,0:0:0:0:
31,124,307397,2,0,B|65:98|65:98|109:106,1,88.000002685547,8|0,1:2|0:0,0:0:0:0:
308,224,307829,5,2,1:2:0:0:
384,67,308045,1,0,0:0:0:0:
504,193,308261,1,8,1:2:0:0:
504,193,308369,2,0,B|522:219|522:248|522:248|508:273,1,88.000002685547
436,345,308693,5,2,1:2:0:0:
392,340,308801,1,0,3:0:0:0:
349,335,308908,1,0,3:0:0:0:
306,330,309016,1,0,3:0:0:0:
245,273,309124,6,0,P|248:249|266:217,1,44.0000013427735,2|0,1:2|0:0,0:0:0:0:
368,158,309340,2,0,P|366:136|358:115,1,44.0000013427735,2|0,0:0|0:0,0:0:0:0:
222,42,309556,6,0,B|180:57|180:57|129:42,1,88.000002685547,2|0,1:2|0:0,0:0:0:0:
74,10,309879,1,2,0:0:0:0:
74,10,309987,1,8,1:2:0:0:
0,202,310203,1,2,0:0:0:0:
153,147,310419,5,0,1:0:0:0:
153,147,310527,1,0,1:0:0:0:
153,147,310635,2,0,P|183:137|213:136,1,44.0000013427735,8|0,1:2|3:0,0:0:0:0:
293,211,310850,2,0,P|316:218|336:217,1,44.0000013427735,0|0,1:0|3:0,0:0:0:0:
444,150,311066,2,0,L|455:121,2,22.0000006713867,0|0|8,1:0|1:0|1:2,0:0:0:0:
504,271,311282,6,0,B|512:310|512:310|498:339,1,71.9999978027344,14|0,1:2|0:0,0:0:0:0:
391,381,311714,5,0,0:0:0:0:
391,381,311822,1,0,0:0:0:0:
342,274,312037,1,0,0:0:0:0:
342,274,312145,1,0,0:0:0:0:
427,186,312361,1,0,0:0:0:0:
427,186,312469,1,0,2:0:0:0:
427,186,312577,2,0,P|437:167|429:116,1,71.9999978027344,0|0,2:0|1:0,2:0:0:0:
323,0,313009,5,2,1:2:0:0:
275,169,313224,1,0,0:0:0:0:
196,54,313440,5,0,0:0:0:0:
196,54,313548,1,0,0:0:0:0:
282,176,313764,1,0,0:0:0:0:
282,176,313872,1,0,0:0:0:0:
145,187,314088,1,0,0:0:0:0:
145,187,314196,1,0,0:0:0:0:
145,187,314304,2,0,B|117:178|117:178|101:181|101:181|64:171,1,71.9999978027344,0|0,2:0|1:0,2:0:0:0:
1,62,314735,5,2,1:2:0:0:
22,236,314950,1,0,0:0:0:0:
113,93,315167,5,0,0:0:0:0:
113,93,315275,1,0,0:0:0:0:
29,243,315491,1,0,0:0:0:0:
29,243,315598,1,0,0:0:0:0:
209,229,315814,1,0,0:0:0:0:
209,229,315922,1,0,0:0:0:0:
209,229,316030,2,0,P|220:266|217:304,1,71.9999978027344,0|0,0:0|1:0,0:0:0:0:
131,383,316462,5,2,1:2:0:0:
324,356,316677,1,0,0:0:0:0:
213,233,316894,5,0,0:0:0:0:
213,233,317002,1,0,0:0:0:0:
359,255,317218,1,0,0:0:0:0:
359,255,317325,1,0,0:0:0:0:
484,180,317541,1,0,0:0:0:0:
484,180,317649,1,0,0:0:0:0:
484,180,317757,2,0,P|488:142|467:96,1,71.9999978027344,0|0,0:0|3:0,0:0:0:0:
434,49,318081,1,2,3:2:0:0:
370,88,318188,6,0,B|336:95|336:95|290:72,1,64,14|0,1:2|0:0,0:0:0:0:
221,6,318620,5,0,0:0:0:0:
221,6,318728,1,0,0:0:0:0:
187,118,318943,1,0,0:0:0:0:
187,118,319051,1,0,0:0:0:0:
291,186,319267,1,0,0:0:0:0:
291,186,319375,1,0,2:0:0:0:
291,186,319483,2,0,P|301:205|292:253,1,64,0|0,2:0|1:0,2:0:0:0:
198,374,319915,5,2,1:2:0:0:
140,218,320130,1,0,0:0:0:0:
57,258,320346,5,0,0:0:0:0:
57,258,320454,1,0,0:0:0:0:
123,135,320670,1,0,0:0:0:0:
123,135,320778,1,0,0:0:0:0:
231,239,320994,1,0,0:0:0:0:
231,239,321102,1,0,0:0:0:0:
231,239,321210,2,0,B|263:244|263:244|307:219,1,64,0|0,2:0|1:0,2:0:0:0:
366,147,321641,5,2,1:2:0:0:
339,305,321856,1,0,0:0:0:0:
440,194,322073,5,0,0:0:0:0:
440,194,322181,1,0,0:0:0:0:
294,232,322397,1,0,0:0:0:0:
294,232,322504,1,0,0:0:0:0:
197,134,322720,1,0,0:0:0:0:
197,134,322828,1,0,0:0:0:0:
197,134,322936,2,0,B|192:111|192:111|192:97|192:97|182:64,1,64,0|0,0:0|1:0,0:0:0:0:
90,14,323368,5,2,1:2:0:0:
0,130,323583,1,0,0:0:0:0:
108,238,323800,1,0,0:0:0:0:
108,238,323908,2,0,P|153:235|182:221,1,64
236,163,324232,5,2,1:2:0:0:
223,133,324339,1,0,1:0:0:0:
223,100,324447,1,8,1:2:0:0:
239,72,324555,1,0,1:0:0:0:
310,29,324663,5,2,1:2:0:0:
339,67,324771,1,0,1:0:0:0:
387,74,324879,1,0,1:0:0:0:
428,48,324987,1,0,1:0:0:0:
