osu file format v14

[General]
AudioFilename: audio.mp3
AudioLeadIn: 0
PreviewTime: 49532
Countdown: 0
SampleSet: None
StackLeniency: 0.7
Mode: 3
LetterboxInBreaks: 0
SpecialStyle: 0
WidescreenStoryboard: 1

[Editor]
DistanceSpacing: 0.9
BeatDivisor: 4
GridSize: 8
TimelineZoom: 1.6

[Metadata]
Title:black bullet (TV Size)
TitleUnicode:black bullet (TV Size)
Artist:fripSide
ArtistUnicode:fripSide
Creator:Raveille
Version:Easy Spell
Source:Black Bullet
Tags:
BeatmapID:2069197
BeatmapSetID:989264

[Difficulty]
HPDrainRate:7
CircleSize:4
OverallDifficulty:5.5
ApproachRate:5
SliderMultiplier:1.4
SliderTickRate:1

[Events]
//Background and Video events
0,0,"534929.jpg",0,0
//Break Periods
//Storyboard Layer 0 (Background)
//Storyboard Layer 1 (Fail)
//Storyboard Layer 2 (Pass)
//Storyboard Layer 3 (Foreground)
//Storyboard Sound Samples

[TimingPoints]
371,387.096774193548,4,1,0,25,1,0
49919,-100,4,1,0,45,0,1
77790,-100,4,1,0,25,0,0

[HitObjects]
192,192,371,128,0,564:0:0:0:0:
320,192,564,128,0,758:0:0:0:0:
448,192,758,128,0,951:0:0:0:0:
320,192,951,128,0,1338:0:0:0:0:
192,192,1338,128,0,1532:0:0:0:0:
64,192,1532,128,0,1725:0:0:0:0:
448,192,1725,128,0,2112:0:0:0:0:
64,192,2112,128,0,2306:0:0:0:0:
320,192,2306,128,0,2500:0:0:0:0:
448,192,2500,128,0,2887:0:0:0:0:
64,192,2887,128,0,3080:0:0:0:0:
192,192,3080,128,0,3274:0:0:0:0:
448,192,3274,128,0,3661:0:0:0:0:
320,192,3661,128,0,3854:0:0:0:0:
192,192,3854,128,0,4048:0:0:0:0:
64,192,4048,128,0,4435:0:0:0:0:
448,192,4435,128,0,4822:0:0:0:0:
320,192,4822,128,0,5016:0:0:0:0:
192,192,4822,128,0,5016:0:0:0:0:
64,192,5209,128,0,5403:0:0:0:0:
192,192,5209,128,0,5403:0:0:0:0:
320,192,5596,128,0,5790:0:0:0:0:
448,192,5596,128,0,5790:0:0:0:0:
64,192,5983,128,0,6177:0:0:0:0:
448,192,5983,128,0,6177:0:0:0:0:
192,192,6177,128,0,6467:0:0:0:0:
320,192,6177,128,0,6467:0:0:0:0:
320,192,6564,128,0,6758:0:0:0:0:
192,192,6758,128,0,6951:0:0:0:0:
64,192,6951,128,0,7145:0:0:0:0:
320,192,7145,128,0,7338:0:0:0:0:
448,192,7145,128,0,7338:0:0:0:0:
64,192,7532,128,0,7725:0:0:0:0:
192,192,7532,128,0,7725:0:0:0:0:
192,192,7919,128,0,8112:0:0:0:0:
320,192,7919,128,0,8112:0:0:0:0:
320,192,8306,128,0,8500:0:0:0:0:
448,192,8306,128,0,8500:0:0:0:0:
192,192,8693,128,0,8887:0:0:0:0:
320,192,8693,128,0,8887:0:0:0:0:
192,192,9080,128,0,9274:0:0:0:0:
320,192,9080,128,0,9274:0:0:0:0:
64,192,9274,128,0,9661:0:0:0:0:
448,192,9274,128,0,9661:0:0:0:0:
192,192,9661,128,0,9854:0:0:0:0:
320,192,9854,128,0,10048:0:0:0:0:
448,192,10048,128,0,10241:0:0:0:0:
64,192,10241,128,0,10435:0:0:0:0:
320,192,10241,128,0,10435:0:0:0:0:
192,192,10629,128,0,10822:0:0:0:0:
320,192,10629,128,0,10822:0:0:0:0:
448,192,11016,128,0,11209:0:0:0:0:
320,192,11016,128,0,11209:0:0:0:0:
192,192,11403,128,0,11596:0:0:0:0:
64,192,11403,128,0,11596:0:0:0:0:
64,192,11790,128,0,11983:0:0:0:0:
448,192,11790,128,0,11983:0:0:0:0:
192,192,12177,128,0,12370:0:0:0:0:
320,192,12177,128,0,12370:0:0:0:0:
64,192,12370,128,0,12758:0:0:0:0:
448,192,12370,128,0,12758:0:0:0:0:
192,192,12758,128,0,13048:0:0:0:0:
320,192,13048,128,0,13338:0:0:0:0:
192,192,13338,128,0,13532:0:0:0:0:
64,192,13532,128,0,13919:0:0:0:0:
192,192,14112,128,0,14306:0:0:0:0:
320,192,14306,128,0,14596:0:0:0:0:
448,192,14596,128,0,14887:0:0:0:0:
192,192,14887,128,0,15080:0:0:0:0:
64,192,15080,128,0,15467:0:0:0:0:
192,192,15854,128,0,16145:0:0:0:0:
64,192,16145,128,0,16435:0:0:0:0:
320,192,16435,128,0,16629:0:0:0:0:
192,192,16629,128,0,17016:0:0:0:0:
320,192,17209,128,0,17403:0:0:0:0:
448,192,17403,128,0,17693:0:0:0:0:
192,192,17693,128,0,17983:0:0:0:0:
320,192,17983,128,0,18177:0:0:0:0:
64,192,18177,128,0,18564:0:0:0:0:
192,192,18951,128,0,19241:0:0:0:0:
320,192,19241,128,0,19532:0:0:0:0:
448,192,19532,128,0,19725:0:0:0:0:
64,192,19725,128,0,20112:0:0:0:0:
320,192,20306,128,0,20500:0:0:0:0:
192,192,20500,128,0,20790:0:0:0:0:
64,192,20790,128,0,21080:0:0:0:0:
448,192,21080,128,0,21274:0:0:0:0:
320,192,21274,128,0,21661:0:0:0:0:
192,192,21854,128,0,22048:0:0:0:0:
320,192,22048,128,0,22338:0:0:0:0:
64,192,22338,128,0,22629:0:0:0:0:
448,192,22629,128,0,22822:0:0:0:0:
192,192,22822,128,0,23112:0:0:0:0:
64,192,23112,128,0,23403:0:0:0:0:
320,192,23403,128,0,23596:0:0:0:0:
448,192,23596,128,0,23887:0:0:0:0:
192,192,23887,128,0,24177:0:0:0:0:
320,192,24177,128,0,24370:0:0:0:0:
192,192,24370,128,0,24758:0:0:0:0:
64,192,25145,128,0,25435:0:0:0:0:
320,192,25145,128,0,25435:0:0:0:0:
192,192,25435,128,0,25725:0:0:0:0:
320,192,25725,128,0,25919:0:0:0:0:
448,192,25919,128,0,26306:0:0:0:0:
192,192,25919,128,0,26306:0:0:0:0:
320,192,26500,128,0,26693:0:0:0:0:
192,192,26693,128,0,26983:0:0:0:0:
64,192,26693,128,0,26983:0:0:0:0:
320,192,26983,128,0,27274:0:0:0:0:
192,192,27274,128,0,27467:0:0:0:0:
448,192,27467,128,0,27854:0:0:0:0:
320,192,27467,128,0,27854:0:0:0:0:
320,192,28241,128,0,28532:0:0:0:0:
64,192,28241,128,0,28532:0:0:0:0:
448,192,28532,128,0,28822:0:0:0:0:
192,192,28822,128,0,29016:0:0:0:0:
320,192,29016,128,0,29403:0:0:0:0:
64,192,29016,128,0,29403:0:0:0:0:
192,192,29596,128,0,29790:0:0:0:0:
64,192,29790,128,0,30080:0:0:0:0:
320,192,29790,128,0,30080:0:0:0:0:
192,192,30080,128,0,30370:0:0:0:0:
320,192,30370,128,0,30564:0:0:0:0:
448,192,30564,128,0,30951:0:0:0:0:
192,192,30564,128,0,30951:0:0:0:0:
320,192,31338,128,0,31629:0:0:0:0:
448,192,31338,128,0,31629:0:0:0:0:
192,192,31629,128,0,31919:0:0:0:0:
64,192,31919,128,0,32112:0:0:0:0:
448,192,32112,128,0,32500:0:0:0:0:
320,192,32112,128,0,32500:0:0:0:0:
192,192,32693,128,0,32887:0:0:0:0:
320,192,32887,128,0,33177:0:0:0:0:
64,192,32887,128,0,33177:0:0:0:0:
448,192,33177,128,0,33467:0:0:0:0:
64,192,33467,128,0,33661:0:0:0:0:
192,192,33661,128,0,34048:0:0:0:0:
320,192,33661,128,0,34048:0:0:0:0:
64,192,34048,128,0,34435:0:0:0:0:
448,192,34048,128,0,34435:0:0:0:0:
192,192,34435,128,0,34725:0:0:0:0:
320,192,34435,128,0,34725:0:0:0:0:
448,192,34725,128,0,35016:0:0:0:0:
64,192,35016,128,0,35209:0:0:0:0:
320,192,35209,128,0,35500:0:0:0:0:
448,192,35209,128,0,35500:0:0:0:0:
192,192,35500,128,0,35790:0:0:0:0:
320,192,35790,128,0,35983:0:0:0:0:
64,192,35983,128,0,36274:0:0:0:0:
448,192,35983,128,0,36274:0:0:0:0:
320,192,36274,128,0,36564:0:0:0:0:
192,192,36564,128,0,36758:0:0:0:0:
448,192,36758,128,0,37145:0:0:0:0:
320,192,36758,128,0,37145:0:0:0:0:
64,192,37532,128,0,37919:0:0:0:0:
320,192,37725,1,0,0:0:0:0:
448,192,37919,128,0,38306:0:0:0:0:
192,192,38306,128,0,38596:0:0:0:0:
320,192,38596,128,0,38887:0:0:0:0:
192,192,38887,128,0,39080:0:0:0:0:
64,192,39080,128,0,39370:0:0:0:0:
448,192,39370,128,0,39661:0:0:0:0:
64,192,39661,128,0,39854:0:0:0:0:
320,192,39854,128,0,40241:0:0:0:0:
192,192,40048,1,0,0:0:0:0:
64,192,40241,128,0,40629:0:0:0:0:
448,192,40241,128,0,40629:0:0:0:0:
320,192,40629,128,0,41016:0:0:0:0:
192,192,40822,1,0,0:0:0:0:
64,192,41016,128,0,41403:0:0:0:0:
320,192,41403,128,0,41693:0:0:0:0:
192,192,41693,128,0,41983:0:0:0:0:
320,192,41983,128,0,42177:0:0:0:0:
448,192,42177,128,0,42467:0:0:0:0:
64,192,42467,128,0,42758:0:0:0:0:
448,192,42758,128,0,42951:0:0:0:0:
192,192,42951,128,0,43338:0:0:0:0:
448,192,43338,128,0,43725:0:0:0:0:
64,192,43338,128,0,43725:0:0:0:0:
192,192,43725,128,0,44112:0:0:0:0:
320,192,43919,1,0,0:0:0:0:
448,192,44112,128,0,44500:0:0:0:0:
192,192,44500,128,0,44790:0:0:0:0:
320,192,44790,128,0,45080:0:0:0:0:
192,192,45080,128,0,45274:0:0:0:0:
64,192,45274,128,0,45564:0:0:0:0:
448,192,45564,128,0,45854:0:0:0:0:
64,192,45854,128,0,46048:0:0:0:0:
320,192,46048,128,0,46338:0:0:0:0:
192,192,46338,128,0,46629:0:0:0:0:
320,192,46629,128,0,46822:0:0:0:0:
64,192,46822,128,0,47112:0:0:0:0:
192,192,47112,128,0,47403:0:0:0:0:
448,192,47209,1,0,0:0:0:0:
320,192,47403,128,0,47596:0:0:0:0:
192,192,47596,128,0,47887:0:0:0:0:
320,192,47887,128,0,48177:0:0:0:0:
64,192,47983,1,0,0:0:0:0:
448,192,48177,128,0,48370:0:0:0:0:
192,192,48370,1,0,0:0:0:0:
64,192,48370,128,0,48661:0:0:0:0:
320,192,48661,1,0,0:0:0:0:
448,192,48661,128,0,48951:0:0:0:0:
64,192,48951,128,0,49145:0:0:0:0:
192,192,48951,1,0,0:0:0:0:
448,192,49145,128,0,49532:0:0:0:0:
320,192,49532,128,0,49725:0:0:0:0:
64,192,49725,128,0,49919:0:0:0:0:
320,192,49919,128,0,50306:0:0:0:0:
192,192,49919,128,0,50306:0:0:0:0:
448,192,50306,128,0,50500:0:0:0:0:
320,192,50500,128,0,50693:0:0:0:0:
64,192,50693,128,0,51080:0:0:0:0:
192,192,50693,128,0,51080:0:0:0:0:
448,192,51080,128,0,51467:0:0:0:0:
192,192,51274,128,0,51467:0:0:0:0:
64,192,51467,128,0,51661:0:0:0:0:
192,192,51661,128,0,51854:0:0:0:0:
320,192,51854,128,0,52048:0:0:0:0:
448,192,52048,128,0,52241:0:0:0:0:
320,192,52241,128,0,52629:0:0:0:0:
64,192,52241,128,0,52629:0:0:0:0:
448,192,52629,128,0,52822:0:0:0:0:
320,192,52822,128,0,53016:0:0:0:0:
192,192,53016,128,0,53403:0:0:0:0:
64,192,53016,128,0,53403:0:0:0:0:
320,192,53403,128,0,53596:0:0:0:0:
192,192,53596,128,0,53790:0:0:0:0:
64,192,53790,128,0,54177:0:0:0:0:
448,192,53790,128,0,54177:0:0:0:0:
192,192,54177,128,0,54564:0:0:0:0:
320,192,54370,128,0,54564:0:0:0:0:
448,192,54564,128,0,54758:0:0:0:0:
320,192,54758,128,0,54951:0:0:0:0:
192,192,54951,128,0,55145:0:0:0:0:
64,192,55145,128,0,55338:0:0:0:0:
448,192,55338,128,0,55725:0:0:0:0:
320,192,55338,128,0,55725:0:0:0:0:
64,192,55725,128,0,55919:0:0:0:0:
448,192,55919,128,0,56112:0:0:0:0:
64,192,56112,128,0,56500:0:0:0:0:
320,192,56112,128,0,56500:0:0:0:0:
192,192,56500,128,0,56693:0:0:0:0:
320,192,56693,128,0,56887:0:0:0:0:
192,192,56887,128,0,57274:0:0:0:0:
64,192,56887,128,0,57274:0:0:0:0:
448,192,57274,128,0,57661:0:0:0:0:
320,192,57467,128,0,57661:0:0:0:0:
192,192,57661,128,0,57854:0:0:0:0:
320,192,57854,128,0,58048:0:0:0:0:
64,192,58048,128,0,58241:0:0:0:0:
192,192,58241,128,0,58435:0:0:0:0:
64,192,58435,128,0,58822:0:0:0:0:
448,192,58435,128,0,58822:0:0:0:0:
192,192,59016,128,0,59209:0:0:0:0:
448,192,59209,128,0,59500:0:0:0:0:
320,192,59500,128,0,59790:0:0:0:0:
192,192,59790,128,0,59983:0:0:0:0:
64,192,59983,128,0,60370:0:0:0:0:
320,192,60370,128,0,60758:0:0:0:0:
448,192,60370,128,0,60758:0:0:0:0:
64,192,60758,1,0,0:0:0:0:
192,192,60758,1,0,0:0:0:0:
192,192,61048,1,0,0:0:0:0:
320,192,61048,1,0,0:0:0:0:
320,192,61338,1,0,0:0:0:0:
448,192,61338,1,0,0:0:0:0:
448,192,61532,128,0,61919:0:0:0:0:
320,192,61532,128,0,61919:0:0:0:0:
64,192,61919,128,0,62112:0:0:0:0:
192,192,62112,128,0,62306:0:0:0:0:
448,192,62306,128,0,62693:0:0:0:0:
64,192,62306,1,0,0:0:0:0:
320,192,62693,128,0,62887:0:0:0:0:
64,192,62693,1,0,0:0:0:0:
448,192,62887,128,0,63080:0:0:0:0:
320,192,63080,128,0,63467:0:0:0:0:
64,192,63080,1,0,0:0:0:0:
448,192,63467,128,0,63661:0:0:0:0:
64,192,63467,1,0,0:0:0:0:
320,192,63661,128,0,63854:0:0:0:0:
448,192,63854,128,0,64048:0:0:0:0:
64,192,63854,1,0,0:0:0:0:
320,192,64048,128,0,64241:0:0:0:0:
64,192,64048,1,0,0:0:0:0:
448,192,64241,128,0,64435:0:0:0:0:
192,192,64241,1,0,0:0:0:0:
320,192,64435,128,0,64629:0:0:0:0:
192,192,64435,1,0,0:0:0:0:
448,192,64629,128,0,65016:0:0:0:0:
64,192,64629,1,0,0:0:0:0:
320,192,65016,128,0,65209:0:0:0:0:
192,192,65016,1,0,0:0:0:0:
448,192,65209,128,0,65403:0:0:0:0:
192,192,65209,1,0,0:0:0:0:
64,192,65403,128,0,65790:0:0:0:0:
320,192,65403,1,0,0:0:0:0:
192,192,65790,128,0,65983:0:0:0:0:
320,192,65790,1,0,0:0:0:0:
64,192,65983,128,0,66177:0:0:0:0:
192,192,66177,128,0,66564:0:0:0:0:
320,192,66177,1,0,0:0:0:0:
64,192,66564,128,0,66758:0:0:0:0:
320,192,66564,1,0,0:0:0:0:
192,192,66758,128,0,66951:0:0:0:0:
64,192,66951,128,0,67145:0:0:0:0:
320,192,66951,1,0,0:0:0:0:
192,192,67145,128,0,67338:0:0:0:0:
320,192,67145,1,0,0:0:0:0:
64,192,67338,128,0,67532:0:0:0:0:
448,192,67338,1,0,0:0:0:0:
192,192,67532,128,0,67725:0:0:0:0:
448,192,67532,1,0,0:0:0:0:
64,192,67725,128,0,68112:0:0:0:0:
320,192,67725,1,0,0:0:0:0:
192,192,68112,128,0,68306:0:0:0:0:
448,192,68112,1,0,0:0:0:0:
320,192,68306,128,0,68500:0:0:0:0:
64,192,68306,1,0,0:0:0:0:
192,192,68500,128,0,68887:0:0:0:0:
448,192,68500,1,0,0:0:0:0:
320,192,68887,128,0,69080:0:0:0:0:
64,192,68887,1,0,0:0:0:0:
192,192,69080,128,0,69274:0:0:0:0:
320,192,69274,128,0,69661:0:0:0:0:
448,192,69274,1,0,0:0:0:0:
192,192,69661,128,0,69854:0:0:0:0:
64,192,69661,1,0,0:0:0:0:
320,192,69854,128,0,70048:0:0:0:0:
192,192,70048,128,0,70241:0:0:0:0:
448,192,70048,1,0,0:0:0:0:
320,192,70241,128,0,70435:0:0:0:0:
64,192,70241,1,0,0:0:0:0:
192,192,70435,128,0,70629:0:0:0:0:
448,192,70435,1,0,0:0:0:0:
320,192,70629,128,0,70822:0:0:0:0:
64,192,70629,1,0,0:0:0:0:
192,192,70822,128,0,71209:0:0:0:0:
448,192,70822,1,0,0:0:0:0:
64,192,71209,1,0,0:0:0:0:
320,192,71403,128,0,71596:0:0:0:0:
192,192,71403,128,0,71596:0:0:0:0:
64,192,71596,128,0,71887:0:0:0:0:
192,192,71887,128,0,72177:0:0:0:0:
320,192,72177,128,0,72370:0:0:0:0:
448,192,72370,128,0,72758:0:0:0:0:
192,192,72758,128,0,73145:0:0:0:0:
320,192,72758,128,0,73145:0:0:0:0:
64,192,73145,1,0,0:0:0:0:
448,192,73145,1,0,0:0:0:0:
320,192,73435,1,0,0:0:0:0:
64,192,73435,1,0,0:0:0:0:
192,192,73725,1,0,0:0:0:0:
320,192,73725,1,0,0:0:0:0:
64,192,73919,128,0,74306:0:0:0:0:
448,192,73919,128,0,74306:0:0:0:0:
320,192,74500,128,0,74693:0:0:0:0:
192,192,74693,128,0,74983:0:0:0:0:
64,192,74693,128,0,74983:0:0:0:0:
320,192,74983,128,0,75274:0:0:0:0:
192,192,75274,128,0,75467:0:0:0:0:
64,192,75467,128,0,75758:0:0:0:0:
448,192,75467,128,0,75758:0:0:0:0:
192,192,75758,128,0,76048:0:0:0:0:
320,192,76048,128,0,76241:0:0:0:0:
448,192,76241,128,0,77016:0:0:0:0:
64,192,76241,128,0,77016:0:0:0:0:
320,192,77016,1,0,0:0:0:0:
192,192,77112,1,0,0:0:0:0:
320,192,77209,1,0,0:0:0:0:
192,192,77306,1,0,0:0:0:0:
320,192,77403,1,0,0:0:0:0:
192,192,77500,1,0,0:0:0:0:
320,192,77596,128,0,77790:0:0:0:0:
64,192,77790,1,0,0:0:0:0:
192,192,77790,128,0,77983:0:0:0:0:
320,192,77983,128,0,78177:0:0:0:0:
448,192,78177,128,0,78370:0:0:0:0:
320,192,78370,128,0,78564:0:0:0:0:
192,192,78370,128,0,78564:0:0:0:0:
448,192,78758,128,0,78951:0:0:0:0:
64,192,78758,128,0,78951:0:0:0:0:
320,192,79145,128,0,79338:0:0:0:0:
192,192,79145,128,0,79338:0:0:0:0:
192,192,79532,128,0,79725:0:0:0:0:
64,192,79532,128,0,79725:0:0:0:0:
320,192,79919,128,0,80112:0:0:0:0:
448,192,79919,128,0,80112:0:0:0:0:
192,192,80306,128,0,80500:0:0:0:0:
320,192,80306,128,0,80500:0:0:0:0:
448,192,80500,128,0,80887:0:0:0:0:
64,192,80500,128,0,80887:0:0:0:0:
192,192,80887,128,0,81080:0:0:0:0:
64,192,81080,128,0,81274:0:0:0:0:
320,192,81274,128,0,81467:0:0:0:0:
448,192,81467,128,0,81661:0:0:0:0:
192,192,81467,128,0,81661:0:0:0:0:
320,192,81854,128,0,82048:0:0:0:0:
192,192,81854,128,0,82048:0:0:0:0:
64,192,82241,128,0,82435:0:0:0:0:
192,192,82241,128,0,82435:0:0:0:0:
320,192,82629,128,0,82822:0:0:0:0:
448,192,82629,128,0,82822:0:0:0:0:
448,192,83016,128,0,83209:0:0:0:0:
64,192,83016,128,0,83209:0:0:0:0:
192,192,83403,128,0,83596:0:0:0:0:
320,192,83403,128,0,83596:0:0:0:0:
448,192,83596,128,0,83983:0:0:0:0:
64,192,83596,128,0,83983:0:0:0:0:
448,192,84370,128,0,87080:0:0:0:0:
192,192,84370,128,0,89403:0:0:0:0:
64,192,84370,128,0,89403:0:0:0:0:
320,192,84370,128,0,87080:0:0:0:0:
