osu file format v14

[General]
AudioFilename: audio.mp3
AudioLeadIn: 0
PreviewTime: 79269
Countdown: 0
SampleSet: Normal
StackLeniency: 0.7
Mode: 1
LetterboxInBreaks: 0
WidescreenStoryboard: 0

[Editor]
Bookmarks: 9687,23600,37513,51426,65339,80122,107948,121861,135774,149698,164470,192296,206209,220122,236644,267948
DistanceSpacing: 0.5
BeatDivisor: 12
GridSize: 32
TimelineZoom: 1.8

[Metadata]
Title:absolute wish
TitleUnicode:absolute wish
Artist:fripSide
ArtistUnicode:fripSide
Creator:yassu-
Version:absolute oni
Source:ハナヒメ*アブソリュート!
Tags:eroge mirai hanahime op full ver opening visual novel gal galgame hentai Nanjo Yoshino 南條愛乃
BeatmapID:1213264
BeatmapSetID:572614

[Difficulty]
HPDrainRate:4.6
CircleSize:5
OverallDifficulty:6.4
ApproachRate:5
SliderMultiplier:1.4
SliderTickRate:1

[Events]
//Background and Video events
0,0,"maxresdefault.jpg",0,10
//Break Periods
//Storyboard Layer 0 (Background)
//Storyboard Layer 1 (Fail)
//Storyboard Layer 2 (Pass)
//Storyboard Layer 3 (Foreground)
//Storyboard Sound Samples

[TimingPoints]
575,434.782608695652,5,1,0,5,1,0
792,-100,5,1,0,10,0,0
1009,-100,5,1,0,20,0,0
1444,-100,5,1,0,40,0,0
2096,-100,5,1,0,60,0,0
2639,-100,5,1,0,70,0,0
2748,434.782608695652,4,1,0,70,1,0
2748,-90.9090909090909,4,1,0,70,0,0
9595,-90.9090909090909,5,1,0,90,0,0
23834,-90.9090909090909,5,1,0,80,0,0
37421,-90.9090909090909,5,1,0,85,0,0
79215,-80,4,1,0,40,0,0
80103,-71.4285714285714,4,1,0,95,0,0
80139,434.782608695652,4,1,0,95,1,1
80139,-71.4285714285714,4,1,0,95,0,1
86117,-71.4285714285714,4,1,0,60,0,1
87041,-71.4285714285714,4,1,0,95,0,1
92204,-71.4285714285714,4,1,0,60,0,1
94016,-71.4285714285714,4,1,0,95,0,1
100030,-71.4285714285714,4,1,0,60,0,1
100954,-71.4285714285714,4,1,0,95,0,1
107929,-71.4285714285714,4,1,0,95,0,1
107965,-71.4285714285714,4,1,0,95,0,0
108074,-76.9230769230769,4,1,0,90,0,0
108399,-83.3333333333333,4,1,0,90,0,0
108617,-90.9090909090909,4,1,0,90,0,0
121987,-100,4,1,0,50,0,0
123612,434.782608695652,4,1,0,50,1,0
133938,-90.9090909090909,4,1,0,70,0,0
135750,-90.9090909090909,5,1,0,85,0,0
163557,-80,4,1,0,40,0,0
164445,-71.4285714285714,4,1,0,95,0,0
164482,434.782608695652,4,1,0,95,1,1
164482,-71.4285714285714,4,1,0,95,0,1
170460,-71.4285714285714,4,1,0,60,0,1
171384,-71.4285714285714,4,1,0,95,0,1
176547,-71.4285714285714,4,1,0,60,0,1
178358,-71.4285714285714,4,1,0,95,0,1
184373,-71.4285714285714,4,1,0,60,0,1
185297,-71.4285714285714,4,1,0,95,0,1
192271,-71.4285714285714,4,1,0,95,0,1
192308,-71.4285714285714,4,1,0,95,0,0
192416,-100,4,1,0,60,0,0
197416,-90.9090909090909,4,1,0,70,0,0
205732,-90.9090909090909,5,1,0,85,0,0
220242,-100,5,1,0,75,0,0
233775,-100,5,1,0,85,0,0
235351,-90.9090909090909,4,1,0,85,0,0
235895,-133.333333333333,4,1,0,30,0,0
236547,-71.4285714285714,4,1,0,95,0,0
236656,434.782608695652,4,1,0,98,1,1
236656,-71.4285714285714,4,1,0,98,0,1
242634,-71.4285714285714,4,1,0,60,0,1
243558,-71.4285714285714,4,1,0,98,0,1
248721,-71.4285714285714,4,1,0,60,0,1
250532,-71.4285714285714,4,1,0,98,0,1
256547,-71.4285714285714,4,1,0,60,0,1
257471,-71.4285714285714,4,1,0,98,0,1
266221,-71.4285714285714,4,1,0,98,0,0
266329,-90.9090909090909,4,1,0,80,0,0
267906,-83.3333333333333,4,1,0,95,0,0
267960,-83.3333333333333,4,1,0,95,0,1
295713,-83.3333333333333,4,1,0,95,0,1
295786,-50,4,1,0,70,0,0
296438,-57.1428571428571,4,1,0,60,0,0
297090,-57.1428571428571,4,1,0,40,0,0
297525,-57.1428571428571,4,1,0,20,0,0
297742,-66.6666666666667,4,1,0,10,0,0
297960,-66.6666666666667,4,1,0,5,0,0
299264,-79.9999999999999,4,1,0,5,0,0
301003,-100,4,1,0,5,0,0

[HitObjects]
256,192,575,12,0,2531,0:0:0:0:
256,192,2748,5,4,0:0:0:0:
256,192,2965,1,2,0:0:0:0:
256,192,3182,1,0,0:0:0:0:
256,192,3617,1,0,0:0:0:0:
256,192,3726,1,2,0:0:0:0:
256,192,3834,1,0,0:0:0:0:
256,192,4052,1,0,0:0:0:0:
256,192,4487,5,0,0:0:0:0:
256,192,4704,1,2,0:0:0:0:
256,192,4921,1,0,0:0:0:0:
256,192,5356,1,0,0:0:0:0:
256,192,5465,1,2,0:0:0:0:
256,192,5574,1,0,0:0:0:0:
256,192,5791,1,0,0:0:0:0:
256,192,6008,1,0,0:0:0:0:
256,192,6117,1,0,0:0:0:0:
256,192,6226,1,8,0:0:0:0:
256,192,6443,1,2,0:0:0:0:
256,192,6661,1,0,0:0:0:0:
256,192,7095,1,0,0:0:0:0:
256,192,7204,1,2,0:0:0:0:
256,192,7313,1,0,0:0:0:0:
256,192,7530,1,0,0:0:0:0:
256,192,7747,1,2,0:0:0:0:
256,192,7965,1,0,0:0:0:0:
256,192,8074,1,8,0:0:0:0:
256,192,8182,1,8,0:0:0:0:
256,192,8291,1,8,0:0:0:0:
256,192,8400,1,0,0:0:0:0:
256,192,8508,1,8,0:0:0:0:
256,192,8726,1,8,0:0:0:0:
256,192,8834,1,0,0:0:0:0:
256,192,9052,1,8,0:0:0:0:
256,192,9269,1,0,0:0:0:0:
256,192,9342,1,8,0:0:0:0:
256,192,9414,1,8,0:0:0:0:
256,192,9487,1,0,0:0:0:0:
256,192,9704,5,4,0:0:0:0:
256,192,9921,1,2,0:0:0:0:
256,192,10139,1,0,0:0:0:0:
256,192,10574,1,0,0:0:0:0:
256,192,10682,1,2,0:0:0:0:
256,192,10900,1,2,0:0:0:0:
256,192,11008,1,0,0:0:0:0:
256,192,11117,1,0,0:0:0:0:
256,192,11226,1,2,0:0:0:0:
256,192,11443,1,0,0:0:0:0:
256,192,11552,1,2,0:0:0:0:
256,192,11769,1,2,0:0:0:0:
256,192,11878,1,0,0:0:0:0:
256,192,12095,1,2,0:0:0:0:
256,192,12313,1,0,0:0:0:0:
256,192,12530,1,2,0:0:0:0:
256,192,12639,1,0,0:0:0:0:
256,192,12747,1,2,0:0:0:0:
256,192,12965,1,2,0:0:0:0:
256,192,13182,5,4,0:0:0:0:
256,192,13400,1,2,0:0:0:0:
256,192,13617,1,0,0:0:0:0:
256,192,14052,1,0,0:0:0:0:
256,192,14161,1,2,0:0:0:0:
256,192,14378,1,2,0:0:0:0:
256,192,14487,1,0,0:0:0:0:
256,192,14704,1,2,0:0:0:0:
256,192,14813,1,2,0:0:0:0:
256,192,14921,1,0,0:0:0:0:
256,192,15030,1,2,0:0:0:0:
256,192,15247,1,2,0:0:0:0:
256,192,15356,1,0,0:0:0:0:
256,192,15574,1,2,0:0:0:0:
256,192,15682,1,0,0:0:0:0:
256,192,15791,1,8,0:0:0:0:
256,192,15900,1,8,0:0:0:0:
256,192,16008,1,0,0:0:0:0:
256,192,16117,1,0,0:0:0:0:
256,192,16226,1,8,0:0:0:0:
256,192,16298,1,8,0:0:0:0:
256,192,16371,1,8,0:0:0:0:
256,192,16443,1,0,0:0:0:0:
256,192,16661,5,4,0:0:0:0:
256,192,16878,1,2,0:0:0:0:
256,192,17095,1,0,0:0:0:0:
256,192,17530,1,0,0:0:0:0:
256,192,17639,1,2,0:0:0:0:
256,192,17856,1,2,0:0:0:0:
256,192,17965,1,0,0:0:0:0:
256,192,18074,1,0,0:0:0:0:
256,192,18182,1,2,0:0:0:0:
256,192,18400,1,0,0:0:0:0:
256,192,18508,1,2,0:0:0:0:
256,192,18726,1,2,0:0:0:0:
256,192,18834,1,0,0:0:0:0:
256,192,19052,1,2,0:0:0:0:
256,192,19269,1,0,0:0:0:0:
256,192,19487,1,2,0:0:0:0:
256,192,19595,1,0,0:0:0:0:
256,192,19704,1,2,0:0:0:0:
256,192,19921,1,0,0:0:0:0:
256,192,20139,5,8,0:0:0:0:
256,192,20247,1,0,0:0:0:0:
256,192,20356,1,0,0:0:0:0:
256,192,20465,1,8,0:0:0:0:
256,192,20574,1,0,0:0:0:0:
256,192,20791,1,8,0:0:0:0:
256,192,20900,1,8,0:0:0:0:
256,192,21008,1,8,0:0:0:0:
256,192,21117,1,0,0:0:0:0:
256,192,21226,1,0,0:0:0:0:
256,192,21334,1,8,0:0:0:0:
256,192,21443,1,0,0:0:0:0:
256,192,21661,1,8,0:0:0:0:
256,192,21769,1,8,0:0:0:0:
256,192,21878,1,0,0:0:0:0:
256,192,21987,1,8,0:0:0:0:
256,192,22095,1,0,0:0:0:0:
256,192,22204,1,0,0:0:0:0:
256,192,22313,1,8,0:0:0:0:
256,192,22421,1,8,0:0:0:0:
256,192,22530,1,0,0:0:0:0:
256,192,22639,1,0,0:0:0:0:
256,192,22747,1,8,0:0:0:0:
256,192,22856,1,0,0:0:0:0:
256,192,22965,1,8,0:0:0:0:
256,192,23074,1,0,0:0:0:0:
256,192,23182,1,8,0:0:0:0:
256,192,23255,1,0,0:0:0:0:
256,192,23327,1,0,0:0:0:0:
256,192,23400,1,8,0:0:0:0:
256,192,23472,1,0,0:0:0:0:
256,192,23545,1,0,0:0:0:0:
256,192,23617,5,0,0:0:0:0:
256,192,23943,1,2,0:0:0:0:
256,192,24052,1,0,0:0:0:0:
256,192,24269,1,2,0:0:0:0:
256,192,24487,1,0,0:0:0:0:
256,192,24813,1,2,0:0:0:0:
256,192,24921,1,0,0:0:0:0:
256,192,25139,1,2,0:0:0:0:
256,192,25356,1,0,0:0:0:0:
256,192,25682,1,2,0:0:0:0:
256,192,25791,1,0,0:0:0:0:
256,192,26008,1,2,0:0:0:0:
256,192,26226,1,0,0:0:0:0:
256,192,26334,1,2,0:0:0:0:
256,192,26552,1,2,0:0:0:0:
256,192,26661,1,0,0:0:0:0:
256,192,26878,1,2,0:0:0:0:
256,192,27095,5,0,0:0:0:0:
256,192,27421,1,2,0:0:0:0:
256,192,27530,1,0,0:0:0:0:
256,192,27747,1,2,0:0:0:0:
256,192,27965,1,0,0:0:0:0:
256,192,28291,1,2,0:0:0:0:
256,192,28400,1,0,0:0:0:0:
256,192,28617,1,2,0:0:0:0:
256,192,28834,1,0,0:0:0:0:
256,192,29161,1,2,0:0:0:0:
256,192,29269,1,0,0:0:0:0:
256,192,29487,1,2,0:0:0:0:
256,192,29704,1,0,0:0:0:0:
256,192,29813,1,2,0:0:0:0:
256,192,30030,1,0,0:0:0:0:
256,192,30139,1,2,0:0:0:0:
256,192,30356,1,2,0:0:0:0:
256,192,30574,5,0,0:0:0:0:
256,192,30900,1,2,0:0:0:0:
256,192,31008,1,0,0:0:0:0:
256,192,31226,1,2,0:0:0:0:
256,192,31443,1,0,0:0:0:0:
256,192,31769,1,2,0:0:0:0:
256,192,31878,1,0,0:0:0:0:
256,192,32095,1,2,0:0:0:0:
256,192,32313,1,0,0:0:0:0:
256,192,32639,1,2,0:0:0:0:
256,192,32747,1,0,0:0:0:0:
256,192,32965,1,2,0:0:0:0:
256,192,33182,1,0,0:0:0:0:
256,192,33291,1,2,0:0:0:0:
256,192,33508,1,2,0:0:0:0:
256,192,33617,1,0,0:0:0:0:
256,192,33834,1,2,0:0:0:0:
256,192,33943,1,2,0:0:0:0:
256,192,34052,5,0,0:0:0:0:
256,192,34378,1,2,0:0:0:0:
256,192,34487,1,0,0:0:0:0:
256,192,34704,1,2,0:0:0:0:
256,192,34921,1,0,0:0:0:0:
256,192,35247,1,2,0:0:0:0:
256,192,35356,1,0,0:0:0:0:
256,192,35574,5,2,0:0:0:0:
256,192,35791,1,0,0:0:0:0:
256,192,36117,1,2,0:0:0:0:
256,192,36226,1,0,0:0:0:0:
256,192,36443,1,2,0:0:0:0:
256,192,36661,5,0,0:0:0:0:
256,192,36769,1,0,0:0:0:0:
256,192,36878,1,2,0:0:0:0:
256,192,36987,1,2,0:0:0:0:
256,192,37095,1,0,0:0:0:0:
256,192,37168,1,8,0:0:0:0:
256,192,37240,1,8,0:0:0:0:
256,192,37313,1,0,0:0:0:0:
256,192,37530,5,4,0:0:0:0:
256,192,37856,1,0,0:0:0:0:
256,192,37965,1,8,0:0:0:0:
256,192,38182,1,2,0:0:0:0:
256,192,38400,1,0,0:0:0:0:
256,192,38617,1,0,0:0:0:0:
256,192,38726,1,0,0:0:0:0:
256,192,38834,1,8,0:0:0:0:
256,192,39052,1,2,0:0:0:0:
256,192,39269,1,0,0:0:0:0:
256,192,39378,1,0,0:0:0:0:
256,192,39595,1,0,0:0:0:0:
256,192,39704,1,8,0:0:0:0:
256,192,39921,1,0,0:0:0:0:
256,192,40139,1,2,0:0:0:0:
256,192,40356,1,0,0:0:0:0:
256,192,40465,1,0,0:0:0:0:
256,192,40574,1,8,0:0:0:0:
256,192,40791,1,0,0:0:0:0:
256,192,41008,5,6,0:0:0:0:
256,192,41334,1,0,0:0:0:0:
256,192,41443,1,8,0:0:0:0:
256,192,41661,1,2,0:0:0:0:
256,192,41878,1,0,0:0:0:0:
256,192,42095,1,0,0:0:0:0:
256,192,42204,1,0,0:0:0:0:
256,192,42313,1,8,0:0:0:0:
256,192,42530,1,0,0:0:0:0:
256,192,42747,1,2,0:0:0:0:
256,192,42856,1,0,0:0:0:0:
256,192,43074,1,0,0:0:0:0:
256,192,43182,1,8,0:0:0:0:
256,192,43400,1,2,0:0:0:0:
256,192,43617,1,0,0:0:0:0:
256,192,43726,1,8,0:0:0:0:
256,192,43834,1,0,0:0:0:0:
256,192,43943,1,0,0:0:0:0:
256,192,44052,1,8,0:0:0:0:
256,192,44269,1,2,0:0:0:0:
256,192,44487,5,4,0:0:0:0:
256,192,44813,1,0,0:0:0:0:
256,192,44921,1,8,0:0:0:0:
256,192,45139,1,2,0:0:0:0:
256,192,45356,1,0,0:0:0:0:
256,192,45574,1,0,0:0:0:0:
256,192,45682,1,0,0:0:0:0:
256,192,45791,1,8,0:0:0:0:
256,192,46008,1,2,0:0:0:0:
256,192,46226,1,0,0:0:0:0:
256,192,46334,1,0,0:0:0:0:
256,192,46552,1,0,0:0:0:0:
256,192,46661,1,8,0:0:0:0:
256,192,46878,1,0,0:0:0:0:
256,192,47095,1,2,0:0:0:0:
256,192,47313,1,0,0:0:0:0:
256,192,47421,1,0,0:0:0:0:
256,192,47530,1,8,0:0:0:0:
256,192,47639,1,2,0:0:0:0:
256,192,47747,1,0,0:0:0:0:
256,192,47965,5,6,0:0:0:0:
256,192,48291,1,0,0:0:0:0:
256,192,48400,1,8,0:0:0:0:
256,192,48617,1,0,0:0:0:0:
256,192,48834,1,6,0:0:0:0:
256,192,49161,1,0,0:0:0:0:
256,192,49269,1,8,0:0:0:0:
256,192,49487,1,0,0:0:0:0:
256,192,49704,1,8,0:0:0:0:
256,192,49813,1,0,0:0:0:0:
256,192,49921,1,0,0:0:0:0:
256,192,50030,1,8,0:0:0:0:
256,192,50139,1,0,0:0:0:0:
256,192,50247,1,0,0:0:0:0:
256,192,50356,1,8,0:0:0:0:
256,192,50465,1,8,0:0:0:0:
256,192,50574,1,0,0:0:0:0:
256,192,50682,1,8,0:0:0:0:
256,192,50791,1,0,0:0:0:0:
256,192,50900,1,0,0:0:0:0:
256,192,51008,1,8,0:0:0:0:
256,192,51081,1,0,0:0:0:0:
256,192,51153,1,0,0:0:0:0:
256,192,51226,1,8,0:0:0:0:
256,192,51298,1,0,0:0:0:0:
256,192,51371,1,0,0:0:0:0:
256,192,51443,5,8,0:0:0:0:
256,192,52095,1,2,0:0:0:0:
256,192,52313,1,0,0:0:0:0:
256,192,52639,1,0,0:0:0:0:
256,192,52747,1,8,0:0:0:0:
256,192,52965,1,2,0:0:0:0:
256,192,53182,1,4,0:0:0:0:
256,192,53834,1,2,0:0:0:0:
256,192,54052,1,0,0:0:0:0:
256,192,54378,1,0,0:0:0:0:
256,192,54487,1,8,0:0:0:0:
256,192,54704,1,0,0:0:0:0:
256,192,54921,1,6,0:0:0:0:
256,192,55574,1,0,0:0:0:0:
256,192,55791,1,2,0:0:0:0:
256,192,56117,1,0,0:0:0:0:
256,192,56226,1,8,0:0:0:0:
256,192,56443,1,2,0:0:0:0:
256,192,56661,1,4,0:0:0:0:
256,192,57313,1,2,0:0:0:0:
256,192,57530,1,0,0:0:0:0:
256,192,57639,1,8,0:0:0:0:
256,192,57856,1,8,0:0:0:0:
256,192,57965,1,0,0:0:0:0:
256,192,58037,1,8,0:0:0:0:
256,192,58110,1,8,0:0:0:0:
256,192,58182,1,0,0:0:0:0:
256,192,58400,5,4,0:0:0:0:
256,192,58726,1,2,0:0:0:0:
256,192,58834,1,0,0:0:0:0:
256,192,59052,1,2,0:0:0:0:
256,192,59269,1,0,0:0:0:0:
256,192,59487,1,0,0:0:0:0:
256,192,59595,1,0,0:0:0:0:
256,192,59704,1,2,0:0:0:0:
256,192,59921,1,0,0:0:0:0:
256,192,60139,1,6,0:0:0:0:
256,192,60465,1,0,0:0:0:0:
256,192,60574,1,2,0:0:0:0:
256,192,60791,1,0,0:0:0:0:
256,192,61008,1,2,0:0:0:0:
256,192,61226,1,0,0:0:0:0:
256,192,61334,1,2,0:0:0:0:
256,192,61443,1,2,0:0:0:0:
256,192,61661,1,2,0:0:0:0:
256,192,61878,5,4,0:0:0:0:
256,192,62204,1,2,0:0:0:0:
256,192,62313,1,0,0:0:0:0:
256,192,62530,1,2,0:0:0:0:
256,192,62747,1,0,0:0:0:0:
256,192,62965,1,0,0:0:0:0:
256,192,63074,1,0,0:0:0:0:
256,192,63182,1,2,0:0:0:0:
256,192,63400,1,0,0:0:0:0:
256,192,63617,1,8,0:0:0:0:
256,192,63726,1,0,0:0:0:0:
256,192,63834,1,0,0:0:0:0:
256,192,63943,1,8,0:0:0:0:
256,192,64052,1,0,0:0:0:0:
256,192,64161,1,0,0:0:0:0:
256,192,64269,1,8,0:0:0:0:
256,192,64378,1,0,0:0:0:0:
256,192,64487,1,8,0:0:0:0:
256,192,64595,1,8,0:0:0:0:
256,192,64704,1,0,0:0:0:0:
256,192,64813,1,8,0:0:0:0:
256,192,64921,1,0,0:0:0:0:
256,192,64994,1,8,0:0:0:0:
256,192,65066,1,8,0:0:0:0:
256,192,65139,1,0,0:0:0:0:
256,192,65211,1,8,0:0:0:0:
256,192,65284,1,8,0:0:0:0:
256,192,65356,5,0,0:0:0:0:
256,192,65682,1,2,0:0:0:0:
256,192,65791,1,0,0:0:0:0:
256,192,66008,1,8,0:0:0:0:
256,192,66226,1,0,0:0:0:0:
256,192,66334,1,0,0:0:0:0:
256,192,66552,1,0,0:0:0:0:
256,192,66661,1,2,0:0:0:0:
256,192,66878,1,0,0:0:0:0:
256,192,67095,1,2,0:0:0:0:
256,192,67204,1,0,0:0:0:0:
256,192,67421,1,0,0:0:0:0:
256,192,67530,1,2,0:0:0:0:
256,192,67639,1,2,0:0:0:0:
256,192,67747,1,0,0:0:0:0:
256,192,67965,1,0,0:0:0:0:
256,192,68074,1,8,0:0:0:0:
256,192,68291,1,0,0:0:0:0:
256,192,68400,1,8,0:0:0:0:
256,192,68617,1,0,0:0:0:0:
256,192,68834,5,6,0:0:0:0:
256,192,69161,1,0,0:0:0:0:
256,192,69269,1,2,0:0:0:0:
256,192,69487,1,2,0:0:0:0:
256,192,69704,1,0,0:0:0:0:
256,192,69813,1,0,0:0:0:0:
256,192,70030,1,0,0:0:0:0:
256,192,70139,1,2,0:0:0:0:
256,192,70356,1,0,0:0:0:0:
256,192,70574,1,2,0:0:0:0:
256,192,70791,1,0,0:0:0:0:
256,192,70900,1,2,0:0:0:0:
256,192,71008,1,2,0:0:0:0:
256,192,71117,1,0,0:0:0:0:
256,192,71226,1,2,0:0:0:0:
256,192,71443,1,0,0:0:0:0:
256,192,71552,1,8,0:0:0:0:
256,192,71661,1,0,0:0:0:0:
256,192,71769,1,0,0:0:0:0:
256,192,71878,1,8,0:0:0:0:
256,192,72095,1,2,0:0:0:0:
256,192,72313,5,4,0:0:0:0:
256,192,72639,1,0,0:0:0:0:
256,192,72747,1,8,0:0:0:0:
256,192,72965,1,2,0:0:0:0:
256,192,73182,1,0,0:0:0:0:
256,192,73508,1,0,0:0:0:0:
256,192,73617,1,8,0:0:0:0:
256,192,73834,1,0,0:0:0:0:
256,192,74052,1,6,0:0:0:0:
256,192,74378,1,0,0:0:0:0:
256,192,74487,1,8,0:0:0:0:
256,192,74704,1,0,0:0:0:0:
256,192,74921,1,2,0:0:0:0:
256,192,75030,1,0,0:0:0:0:
256,192,75247,1,0,0:0:0:0:
256,192,75356,1,8,0:0:0:0:
256,192,75574,1,0,0:0:0:0:
256,192,75791,5,6,0:0:0:0:
256,192,76117,1,0,0:0:0:0:
256,192,76226,1,2,0:0:0:0:
256,192,76443,1,0,0:0:0:0:
256,192,76661,1,6,0:0:0:0:
256,192,76878,1,0,0:0:0:0:
256,192,76987,1,2,0:0:0:0:
256,192,77095,1,0,0:0:0:0:
256,192,77204,1,0,0:0:0:0:
256,192,77313,1,2,0:0:0:0:
256,192,77530,5,0,0:0:0:0:
256,192,77639,1,0,0:0:0:0:
256,192,77747,1,8,0:0:0:0:
256,192,77856,1,0,0:0:0:0:
256,192,77965,1,0,0:0:0:0:
256,192,78074,1,8,0:0:0:0:
256,192,78182,1,0,0:0:0:0:
256,192,78291,1,0,0:0:0:0:
256,192,78400,1,8,0:0:0:0:
256,192,78508,1,0,0:0:0:0:
256,192,78617,1,0,0:0:0:0:
256,192,78726,1,8,0:0:0:0:
256,192,78834,1,0,0:0:0:0:
256,192,78943,1,0,0:0:0:0:
256,192,79052,1,8,0:0:0:0:
256,192,79161,1,8,0:0:0:0:
256,192,79269,1,0,0:0:0:0:
256,192,79342,1,2,0:0:0:0:
256,192,79414,1,8,0:0:0:0:
256,192,79487,1,0,0:0:0:0:
256,192,79559,1,2,0:0:0:0:
256,192,79632,1,2,0:0:0:0:
256,192,79704,1,0,0:0:0:0:
256,192,79776,1,2,0:0:0:0:
256,192,79849,1,2,0:0:0:0:
256,192,79921,1,0,0:0:0:0:
256,192,79994,1,2,0:0:0:0:
256,192,80066,1,2,0:0:0:0:
256,192,80139,5,4,0:0:0:0:
256,192,80465,1,0,0:0:0:0:
256,192,80573,1,8,0:0:0:0:
256,192,80791,1,0,0:0:0:0:
256,192,81008,1,0,0:0:0:0:
256,192,81117,1,8,0:0:0:0:
256,192,81225,1,0,0:0:0:0:
256,192,81334,1,0,0:0:0:0:
256,192,81443,1,8,0:0:0:0:
256,192,81660,1,0,0:0:0:0:
256,192,81878,1,8,0:0:0:0:
256,192,81986,1,0,0:0:0:0:
256,192,82204,1,0,0:0:0:0:
256,192,82312,1,8,0:0:0:0:
256,192,82421,1,8,0:0:0:0:
256,192,82530,1,0,0:0:0:0:
256,192,82747,1,8,0:0:0:0:
256,192,82856,1,0,0:0:0:0:
256,192,82965,1,0,0:0:0:0:
256,192,83073,1,8,0:0:0:0:
256,192,83182,1,0,0:0:0:0:
256,192,83399,1,8,0:0:0:0:
256,192,83617,5,4,0:0:0:0:
256,192,83943,1,0,0:0:0:0:
256,192,84052,1,8,0:0:0:0:
256,192,84269,1,8,0:0:0:0:
256,192,84486,1,4,0:0:0:0:
256,192,84704,5,0,0:0:0:0:
256,192,84812,1,0,0:0:0:0:
256,192,84921,1,8,0:0:0:0:
256,192,85139,1,8,0:0:0:0:
256,192,85356,1,4,0:0:0:0:
256,192,85682,1,8,0:0:0:0:
256,192,85791,1,0,0:0:0:0:
256,192,85899,1,0,0:0:0:0:
256,192,86008,1,8,0:0:0:0:
256,192,86225,1,0,0:0:0:0:
256,192,86334,1,2,0:0:0:0:
256,192,86443,1,0,0:0:0:0:
256,192,86552,1,2,0:0:0:0:
256,192,86660,1,0,0:0:0:0:
256,192,86769,1,2,0:0:0:0:
256,192,86878,1,8,0:0:0:0:
256,192,86986,1,8,0:0:0:0:
256,192,87095,1,0,0:0:0:0:
256,192,87421,1,0,0:0:0:0:
256,192,87530,1,8,0:0:0:0:
256,192,87747,1,8,0:0:0:0:
256,192,87965,1,0,0:0:0:0:
256,192,88073,1,0,0:0:0:0:
256,192,88182,1,8,0:0:0:0:
256,192,88291,1,0,0:0:0:0:
256,192,88399,1,8,0:0:0:0:
256,192,88617,1,8,0:0:0:0:
256,192,88834,1,0,0:0:0:0:
256,192,88943,1,8,0:0:0:0:
256,192,89160,1,8,0:0:0:0:
256,192,89269,1,0,0:0:0:0:
256,192,89378,1,0,0:0:0:0:
256,192,89486,1,8,0:0:0:0:
256,192,89704,1,0,0:0:0:0:
256,192,89812,1,8,0:0:0:0:
256,192,89921,1,0,0:0:0:0:
256,192,90030,1,0,0:0:0:0:
256,192,90139,1,8,0:0:0:0:
256,192,90356,1,8,0:0:0:0:
256,192,90573,5,4,0:0:0:0:
256,192,90791,1,0,0:0:0:0:
256,192,90899,1,0,0:0:0:0:
256,192,91008,1,8,0:0:0:0:
256,192,91117,1,8,0:0:0:0:
256,192,91225,1,0,0:0:0:0:
256,192,91443,1,4,0:0:0:0:
256,192,91660,1,0,0:0:0:0:
256,192,91769,1,0,0:0:0:0:
256,192,91878,1,8,0:0:0:0:
256,192,92095,1,8,0:0:0:0:
256,192,92312,1,0,0:0:0:0:
256,192,92421,1,8,0:0:0:0:
256,192,92530,1,8,0:0:0:0:
256,192,92639,1,8,0:0:0:0:
256,192,92747,1,0,0:0:0:0:
256,192,92856,1,0,0:0:0:0:
256,192,92965,1,8,0:0:0:0:
256,192,93037,1,8,0:0:0:0:
256,192,93110,1,8,0:0:0:0:
256,192,93182,1,0,0:0:0:0:
256,192,93291,1,8,0:0:0:0:
256,192,93399,1,0,0:0:0:0:
256,192,93508,1,8,0:0:0:0:
256,192,93617,1,0,0:0:0:0:
256,192,93725,1,0,0:0:0:0:
256,192,93834,1,8,0:0:0:0:
256,192,93907,1,8,0:0:0:0:
256,192,93979,1,8,0:0:0:0:
256,192,94052,5,0,0:0:0:0:
256,192,94378,1,0,0:0:0:0:
256,192,94486,1,8,0:0:0:0:
256,192,94704,1,8,0:0:0:0:
256,192,94921,1,0,0:0:0:0:
256,192,95030,1,8,0:0:0:0:
256,192,95139,1,0,0:0:0:0:
256,192,95247,1,0,0:0:0:0:
256,192,95356,1,8,0:0:0:0:
256,192,95465,1,8,0:0:0:0:
256,192,95573,1,0,0:0:0:0:
256,192,95791,1,8,0:0:0:0:
256,192,95899,1,0,0:0:0:0:
256,192,96117,1,0,0:0:0:0:
256,192,96225,1,8,0:0:0:0:
256,192,96334,1,0,0:0:0:0:
256,192,96443,1,8,0:0:0:0:
256,192,96660,1,8,0:0:0:0:
256,192,96769,1,0,0:0:0:0:
256,192,96878,1,0,0:0:0:0:
256,192,96986,1,8,0:0:0:0:
256,192,97095,1,0,0:0:0:0:
256,192,97312,1,8,0:0:0:0:
256,192,97530,5,4,0:0:0:0:
256,192,97856,1,0,0:0:0:0:
256,192,97965,1,8,0:0:0:0:
256,192,98182,1,8,0:0:0:0:
256,192,98399,1,4,0:0:0:0:
256,192,98617,1,0,0:0:0:0:
256,192,98725,1,0,0:0:0:0:
256,192,98834,1,8,0:0:0:0:
256,192,98943,1,0,0:0:0:0:
256,192,99052,1,8,0:0:0:0:
256,192,99269,1,4,0:0:0:0:
256,192,99486,1,0,0:0:0:0:
256,192,99595,1,8,0:0:0:0:
256,192,99704,1,0,0:0:0:0:
256,192,99812,1,0,0:0:0:0:
256,192,99921,1,8,0:0:0:0:
256,192,100139,1,0,0:0:0:0:
256,192,100247,1,2,0:0:0:0:
256,192,100356,1,0,0:0:0:0:
256,192,100465,1,2,0:0:0:0:
256,192,100573,1,0,0:0:0:0:
256,192,100682,1,2,0:0:0:0:
256,192,100791,1,0,0:0:0:0:
256,192,100899,1,0,0:0:0:0:
256,192,101008,1,2,0:0:0:0:
256,192,101334,1,0,0:0:0:0:
256,192,101443,1,8,0:0:0:0:
256,192,101660,1,0,0:0:0:0:
256,192,101878,1,0,0:0:0:0:
256,192,101986,1,0,0:0:0:0:
256,192,102095,1,8,0:0:0:0:
256,192,102204,1,0,0:0:0:0:
256,192,102312,1,8,0:0:0:0:
256,192,102421,1,8,0:0:0:0:
256,192,102530,1,8,0:0:0:0:
256,192,102747,1,0,0:0:0:0:
256,192,102856,1,8,0:0:0:0:
256,192,103073,1,8,0:0:0:0:
256,192,103182,1,0,0:0:0:0:
256,192,103291,1,8,0:0:0:0:
256,192,103399,1,0,0:0:0:0:
256,192,103617,1,0,0:0:0:0:
256,192,103725,1,8,0:0:0:0:
256,192,103834,1,0,0:0:0:0:
256,192,103943,1,0,0:0:0:0:
256,192,104052,1,8,0:0:0:0:
256,192,104269,1,0,0:0:0:0:
256,192,104486,5,8,0:0:0:0:
256,192,104595,1,0,0:0:0:0:
256,192,104704,1,0,0:0:0:0:
256,192,104812,1,8,0:0:0:0:
256,192,104921,1,0,0:0:0:0:
256,192,105030,1,0,0:0:0:0:
256,192,105139,1,8,0:0:0:0:
256,192,105247,1,0,0:0:0:0:
256,192,105356,1,8,0:0:0:0:
256,192,105465,1,8,0:0:0:0:
256,192,105573,1,0,0:0:0:0:
256,192,105682,1,0,0:0:0:0:
256,192,105791,1,8,0:0:0:0:
256,192,105899,1,8,0:0:0:0:
256,192,106008,1,8,0:0:0:0:
256,192,106117,1,8,0:0:0:0:
256,192,106225,1,0,0:0:0:0:
252,203,106334,1,0,0:0:0:0:
252,203,106443,1,8,0:0:0:0:
249,199,106552,1,0,0:0:0:0:
249,199,106660,1,8,0:0:0:0:
249,199,106769,1,8,0:0:0:0:
249,199,106878,1,0,0:0:0:0:
256,192,106986,1,0,0:0:0:0:
256,192,107095,1,0,0:0:0:0:
256,192,107204,1,2,0:0:0:0:
256,192,107312,1,0,0:0:0:0:
256,192,107421,1,2,0:0:0:0:
256,192,107530,1,0,0:0:0:0:
256,192,107602,1,8,0:0:0:0:
256,192,107675,1,2,0:0:0:0:
256,192,107747,1,0,0:0:0:0:
256,192,107820,1,8,0:0:0:0:
256,192,107892,1,2,0:0:0:0:
256,192,107965,5,0,0:0:0:0:
256,192,108182,1,2,0:0:0:0:
256,192,108399,1,0,0:0:0:0:
256,192,108834,1,0,0:0:0:0:
256,192,108943,1,2,0:0:0:0:
256,192,109160,1,2,0:0:0:0:
256,192,109269,1,0,0:0:0:0:
256,192,109378,1,0,0:0:0:0:
256,192,109486,1,2,0:0:0:0:
256,192,109704,1,0,0:0:0:0:
256,192,109812,1,2,0:0:0:0:
256,192,110030,1,2,0:0:0:0:
256,192,110138,1,0,0:0:0:0:
256,192,110356,1,2,0:0:0:0:
256,192,110573,1,0,0:0:0:0:
256,192,110791,1,2,0:0:0:0:
256,192,110899,1,0,0:0:0:0:
256,192,111008,1,2,0:0:0:0:
256,192,111225,1,2,0:0:0:0:
256,192,111443,5,4,0:0:0:0:
256,192,111660,1,2,0:0:0:0:
256,192,111878,1,0,0:0:0:0:
256,192,112312,1,0,0:0:0:0:
256,192,112421,1,2,0:0:0:0:
256,192,112638,1,2,0:0:0:0:
256,192,112747,1,0,0:0:0:0:
256,192,112965,1,2,0:0:0:0:
256,192,113073,1,2,0:0:0:0:
256,192,113182,1,0,0:0:0:0:
256,192,113291,1,2,0:0:0:0:
256,192,113508,1,2,0:0:0:0:
256,192,113617,1,0,0:0:0:0:
256,192,113834,1,2,0:0:0:0:
256,192,113943,1,0,0:0:0:0:
256,192,114052,1,8,0:0:0:0:
256,192,114160,1,8,0:0:0:0:
256,192,114269,1,0,0:0:0:0:
256,192,114378,1,0,0:0:0:0:
256,192,114486,1,8,0:0:0:0:
256,192,114559,1,8,0:0:0:0:
256,192,114631,1,8,0:0:0:0:
256,192,114704,1,0,0:0:0:0:
256,192,114921,5,4,0:0:0:0:
256,192,115138,1,2,0:0:0:0:
256,192,115356,1,0,0:0:0:0:
256,192,115791,1,0,0:0:0:0:
256,192,115899,1,2,0:0:0:0:
256,192,116117,1,2,0:0:0:0:
256,192,116225,1,0,0:0:0:0:
256,192,116334,1,0,0:0:0:0:
256,192,116443,1,2,0:0:0:0:
256,192,116660,1,0,0:0:0:0:
256,192,116769,1,2,0:0:0:0:
256,192,116986,1,2,0:0:0:0:
256,192,117095,1,0,0:0:0:0:
256,192,117312,1,2,0:0:0:0:
256,192,117530,1,0,0:0:0:0:
256,192,117747,1,2,0:0:0:0:
256,192,117856,1,0,0:0:0:0:
256,192,117965,1,2,0:0:0:0:
256,192,118182,1,0,0:0:0:0:
256,192,118399,5,8,0:0:0:0:
256,192,118508,1,0,0:0:0:0:
256,192,118617,1,0,0:0:0:0:
256,192,118725,1,8,0:0:0:0:
256,192,118834,1,0,0:0:0:0:
256,192,119052,1,8,0:0:0:0:
256,192,119160,1,8,0:0:0:0:
256,192,119269,1,8,0:0:0:0:
256,192,119378,1,0,0:0:0:0:
256,192,119486,1,0,0:0:0:0:
256,192,119595,1,8,0:0:0:0:
256,192,119704,1,0,0:0:0:0:
256,192,119921,1,8,0:0:0:0:
256,192,120030,1,8,0:0:0:0:
256,192,120138,1,0,0:0:0:0:
256,192,120247,1,8,0:0:0:0:
256,192,120356,1,0,0:0:0:0:
256,192,120465,1,0,0:0:0:0:
256,192,120573,1,8,0:0:0:0:
256,192,120682,1,8,0:0:0:0:
256,192,120791,1,0,0:0:0:0:
256,192,120899,1,0,0:0:0:0:
256,192,121008,1,8,0:0:0:0:
256,192,121117,1,0,0:0:0:0:
256,192,121225,1,8,0:0:0:0:
256,192,121334,1,0,0:0:0:0:
256,192,121443,1,8,0:0:0:0:
256,192,121515,1,0,0:0:0:0:
256,192,121588,1,0,0:0:0:0:
256,192,121660,1,8,0:0:0:0:
256,192,121733,1,0,0:0:0:0:
256,192,121805,1,0,0:0:0:0:
256,192,121878,5,8,0:0:0:0:
256,192,123612,1,2,0:0:0:0:
256,192,124481,1,0,0:0:0:0:
256,192,125351,1,2,0:0:0:0:
256,192,127090,1,2,0:0:0:0:
256,192,127959,1,0,0:0:0:0:
256,192,128829,1,2,0:0:0:0:
256,192,130568,1,2,0:0:0:0:
256,192,131438,1,0,0:0:0:0:
256,192,132307,1,0,0:0:0:0:
256,192,133177,1,2,0:0:0:0:
256,192,134046,1,0,0:0:0:0:
256,192,134155,1,0,0:0:0:0:
256,192,134264,1,8,0:0:0:0:
256,192,134372,1,8,0:0:0:0:
256,192,134481,1,0,0:0:0:0:
256,192,134590,1,8,0:0:0:0:
256,192,134698,1,8,0:0:0:0:
256,192,134807,1,8,0:0:0:0:
256,192,134916,1,0,0:0:0:0:
256,192,135025,1,0,0:0:0:0:
256,192,135133,1,8,0:0:0:0:
256,192,135242,1,8,0:0:0:0:
256,192,135351,1,0,0:0:0:0:
256,192,135423,1,0,0:0:0:0:
256,192,135496,1,0,0:0:0:0:
256,192,135568,1,0,0:0:0:0:
256,192,135640,1,0,0:0:0:0:
256,192,135713,1,0,0:0:0:0:
256,192,135785,5,8,0:0:0:0:
256,192,136438,1,0,0:0:0:0:
256,192,136655,1,2,0:0:0:0:
256,192,136981,1,0,0:0:0:0:
256,192,137090,1,8,0:0:0:0:
256,192,137307,1,2,0:0:0:0:
256,192,137525,1,4,0:0:0:0:
256,192,137851,1,2,0:0:0:0:
256,192,138177,1,2,0:0:0:0:
256,192,138394,1,0,0:0:0:0:
256,192,138720,1,0,0:0:0:0:
256,192,138829,1,8,0:0:0:0:
256,192,139046,1,0,0:0:0:0:
256,192,139264,5,6,0:0:0:0:
256,192,139916,1,0,0:0:0:0:
256,192,140133,1,2,0:0:0:0:
256,192,140459,1,0,0:0:0:0:
256,192,140568,1,8,0:0:0:0:
256,192,140785,1,2,0:0:0:0:
256,192,141003,1,4,0:0:0:0:
256,192,141329,1,2,0:0:0:0:
256,192,141655,1,2,0:0:0:0:
256,192,141872,1,0,0:0:0:0:
256,192,141981,1,8,0:0:0:0:
256,192,142090,1,0,0:0:0:0:
256,192,142198,1,0,0:0:0:0:
256,192,142307,1,8,0:0:0:0:
256,192,142380,1,8,0:0:0:0:
256,192,142452,1,8,0:0:0:0:
256,192,142525,1,0,0:0:0:0:
256,192,142742,5,4,0:0:0:0:
256,192,143068,1,2,0:0:0:0:
256,192,143177,1,0,0:0:0:0:
256,192,143394,1,2,0:0:0:0:
256,192,143612,1,0,0:0:0:0:
256,192,143829,1,0,0:0:0:0:
256,192,143938,1,0,0:0:0:0:
256,192,144046,1,2,0:0:0:0:
256,192,144264,1,0,0:0:0:0:
256,192,144481,1,6,0:0:0:0:
256,192,144807,1,0,0:0:0:0:
256,192,144916,1,2,0:0:0:0:
256,192,145133,1,0,0:0:0:0:
256,192,145351,1,2,0:0:0:0:
256,192,145568,1,0,0:0:0:0:
256,192,145677,1,2,0:0:0:0:
256,192,145785,1,2,0:0:0:0:
256,192,146003,1,2,0:0:0:0:
256,192,146220,5,4,0:0:0:0:
256,192,146546,1,2,0:0:0:0:
256,192,146655,1,0,0:0:0:0:
256,192,146872,1,2,0:0:0:0:
256,192,147090,1,0,0:0:0:0:
256,192,147307,1,0,0:0:0:0:
256,192,147416,1,0,0:0:0:0:
256,192,147525,1,2,0:0:0:0:
256,192,147742,1,0,0:0:0:0:
256,192,147959,1,8,0:0:0:0:
256,192,148068,1,0,0:0:0:0:
256,192,148177,1,0,0:0:0:0:
256,192,148285,1,8,0:0:0:0:
256,192,148394,1,0,0:0:0:0:
256,192,148503,1,0,0:0:0:0:
256,192,148612,1,8,0:0:0:0:
256,192,148720,1,0,0:0:0:0:
256,192,148829,1,8,0:0:0:0:
256,192,148938,1,8,0:0:0:0:
256,192,149046,1,0,0:0:0:0:
256,192,149155,1,0,0:0:0:0:
256,192,149264,1,2,0:0:0:0:
256,192,149336,1,2,0:0:0:0:
256,192,149409,1,2,0:0:0:0:
256,192,149481,1,2,0:0:0:0:
256,192,149554,1,2,0:0:0:0:
256,192,149626,1,2,0:0:0:0:
256,192,149698,5,0,0:0:0:0:
256,192,150025,1,2,0:0:0:0:
256,192,150133,1,0,0:0:0:0:
256,192,150242,1,0,0:0:0:0:
256,192,150351,1,8,0:0:0:0:
256,192,150568,1,2,0:0:0:0:
256,192,150677,1,0,0:0:0:0:
256,192,150894,1,0,0:0:0:0:
256,192,151003,1,8,0:0:0:0:
256,192,151220,1,0,0:0:0:0:
256,192,151438,1,2,0:0:0:0:
256,192,151655,1,0,0:0:0:0:
256,192,151764,1,2,0:0:0:0:
256,192,151872,1,0,0:0:0:0:
256,192,151981,1,0,0:0:0:0:
256,192,152090,1,2,0:0:0:0:
256,192,152307,1,0,0:0:0:0:
256,192,152416,1,8,0:0:0:0:
256,192,152633,1,0,0:0:0:0:
256,192,152742,1,8,0:0:0:0:
256,192,152959,1,0,0:0:0:0:
256,192,153177,5,6,0:0:0:0:
256,192,153503,1,0,0:0:0:0:
256,192,153612,1,8,0:0:0:0:
256,192,153720,1,2,0:0:0:0:
256,192,153829,1,0,0:0:0:0:
256,192,154046,1,0,0:0:0:0:
256,192,154155,1,0,0:0:0:0:
256,192,154372,1,0,0:0:0:0:
256,192,154481,1,8,0:0:0:0:
256,192,154698,1,0,0:0:0:0:
256,192,154916,1,2,0:0:0:0:
256,192,155025,1,0,0:0:0:0:
256,192,155242,1,2,0:0:0:0:
256,192,155351,1,0,0:0:0:0:
256,192,155459,1,2,0:0:0:0:
256,192,155568,1,2,0:0:0:0:
256,192,155785,1,0,0:0:0:0:
256,192,155894,1,8,0:0:0:0:
256,192,156003,1,0,0:0:0:0:
256,192,156112,1,0,0:0:0:0:
256,192,156220,1,8,0:0:0:0:
256,192,156438,1,2,0:0:0:0:
256,192,156655,5,4,0:0:0:0:
256,192,156981,1,2,0:0:0:0:
256,192,157090,1,0,0:0:0:0:
256,192,157307,1,2,0:0:0:0:
256,192,157525,1,0,0:0:0:0:
256,192,157851,1,0,0:0:0:0:
256,192,157959,1,2,0:0:0:0:
256,192,158177,1,0,0:0:0:0:
256,192,158394,1,6,0:0:0:0:
256,192,158720,1,0,0:0:0:0:
256,192,158829,1,2,0:0:0:0:
256,192,159046,1,0,0:0:0:0:
256,192,159264,1,2,0:0:0:0:
256,192,159372,1,0,0:0:0:0:
256,192,159590,1,0,0:0:0:0:
256,192,159698,1,2,0:0:0:0:
256,192,159916,1,0,0:0:0:0:
256,192,160133,5,6,0:0:0:0:
256,192,160459,1,2,0:0:0:0:
256,192,160568,1,2,0:0:0:0:
256,192,160785,1,0,0:0:0:0:
256,192,161003,1,6,0:0:0:0:
256,192,161220,1,2,0:0:0:0:
256,192,161329,1,2,0:0:0:0:
256,192,161438,1,0,0:0:0:0:
256,192,161546,1,0,0:0:0:0:
256,192,161655,1,2,0:0:0:0:
256,192,161872,5,0,0:0:0:0:
256,192,161981,1,0,0:0:0:0:
256,192,162090,1,8,0:0:0:0:
256,192,162198,1,0,0:0:0:0:
256,192,162307,1,0,0:0:0:0:
256,192,162416,1,8,0:0:0:0:
256,192,162525,1,0,0:0:0:0:
256,192,162633,1,0,0:0:0:0:
256,192,162742,1,8,0:0:0:0:
256,192,162851,1,0,0:0:0:0:
256,192,162959,1,0,0:0:0:0:
256,192,163068,1,8,0:0:0:0:
256,192,163177,1,0,0:0:0:0:
256,192,163285,1,0,0:0:0:0:
256,192,163394,1,8,0:0:0:0:
256,192,163503,1,8,0:0:0:0:
256,192,163612,5,0,0:0:0:0:
256,192,163684,1,2,0:0:0:0:
256,192,163756,1,8,0:0:0:0:
256,192,163829,1,0,0:0:0:0:
256,192,163901,1,2,0:0:0:0:
256,192,163974,1,8,0:0:0:0:
256,192,164046,1,0,0:0:0:0:
256,192,164119,1,2,0:0:0:0:
256,192,164191,1,2,0:0:0:0:
256,192,164264,1,0,0:0:0:0:
256,192,164336,1,2,0:0:0:0:
256,192,164409,1,2,0:0:0:0:
256,192,164482,1,4,0:0:0:0:
256,192,164808,1,0,0:0:0:0:
256,192,164916,1,8,0:0:0:0:
256,192,165134,1,0,0:0:0:0:
256,192,165351,1,0,0:0:0:0:
256,192,165460,1,8,0:0:0:0:
256,192,165568,1,0,0:0:0:0:
256,192,165677,1,0,0:0:0:0:
256,192,165786,1,8,0:0:0:0:
256,192,165895,1,0,0:0:0:0:
256,192,166003,1,0,0:0:0:0:
256,192,166221,1,8,0:0:0:0:
256,192,166329,1,0,0:0:0:0:
256,192,166547,1,0,0:0:0:0:
256,192,166655,1,8,0:0:0:0:
256,192,166764,1,0,0:0:0:0:
256,192,166873,1,8,0:0:0:0:
256,192,167090,1,8,0:0:0:0:
256,192,167199,1,0,0:0:0:0:
256,192,167308,1,0,0:0:0:0:
256,192,167416,1,8,0:0:0:0:
256,192,167525,1,0,0:0:0:0:
256,192,167742,1,8,0:0:0:0:
256,192,167960,5,4,0:0:0:0:
256,192,168286,1,0,0:0:0:0:
256,192,168395,1,8,0:0:0:0:
256,192,168612,1,8,0:0:0:0:
256,192,168829,1,4,0:0:0:0:
256,192,169047,1,0,0:0:0:0:
256,192,169155,1,0,0:0:0:0:
256,192,169264,1,8,0:0:0:0:
256,192,169482,1,0,0:0:0:0:
256,192,169699,1,12,0:0:0:0:
256,192,170025,1,8,0:0:0:0:
256,192,170134,1,0,0:0:0:0:
256,192,170242,1,0,0:0:0:0:
256,192,170351,1,8,0:0:0:0:
256,192,170568,1,0,0:0:0:0:
256,192,170677,1,2,0:0:0:0:
256,192,170786,1,0,0:0:0:0:
256,192,170895,1,2,0:0:0:0:
256,192,171003,1,0,0:0:0:0:
256,192,171112,1,2,0:0:0:0:
256,192,171221,1,8,0:0:0:0:
256,192,171329,1,8,0:0:0:0:
256,192,171438,1,0,0:0:0:0:
256,192,171764,1,0,0:0:0:0:
256,192,171873,1,8,0:0:0:0:
256,192,172090,1,8,0:0:0:0:
256,192,172308,1,0,0:0:0:0:
256,192,172416,1,0,0:0:0:0:
256,192,172525,1,8,0:0:0:0:
256,192,172634,1,0,0:0:0:0:
256,192,172742,1,8,0:0:0:0:
256,192,172851,1,8,0:0:0:0:
256,192,172960,1,8,0:0:0:0:
256,192,173177,1,0,0:0:0:0:
256,192,173286,1,8,0:0:0:0:
256,192,173503,1,8,0:0:0:0:
256,192,173612,1,0,0:0:0:0:
256,192,173721,1,8,0:0:0:0:
256,192,173829,1,8,0:0:0:0:
256,192,174047,1,0,0:0:0:0:
256,192,174155,1,8,0:0:0:0:
256,192,174264,1,0,0:0:0:0:
256,192,174373,1,0,0:0:0:0:
256,192,174482,1,8,0:0:0:0:
256,192,174699,1,8,0:0:0:0:
256,192,174916,5,4,0:0:0:0:
256,192,175134,1,0,0:0:0:0:
256,192,175242,1,0,0:0:0:0:
256,192,175351,1,8,0:0:0:0:
256,192,175460,1,0,0:0:0:0:
256,192,175568,1,8,0:0:0:0:
256,192,175786,1,4,0:0:0:0:
256,192,176003,1,0,0:0:0:0:
256,192,176112,1,8,0:0:0:0:
256,192,176221,1,8,0:0:0:0:
256,192,176438,1,8,0:0:0:0:
256,192,176655,1,0,0:0:0:0:
256,192,176764,1,8,0:0:0:0:
256,192,176873,1,8,0:0:0:0:
256,192,176982,1,8,0:0:0:0:
256,192,177090,1,0,0:0:0:0:
256,192,177199,1,0,0:0:0:0:
256,192,177308,1,8,0:0:0:0:
256,192,177380,1,8,0:0:0:0:
256,192,177453,1,8,0:0:0:0:
256,192,177525,1,0,0:0:0:0:
256,192,177634,1,8,0:0:0:0:
256,192,177742,1,0,0:0:0:0:
256,192,177851,1,8,0:0:0:0:
256,192,177960,1,0,0:0:0:0:
256,192,178068,1,0,0:0:0:0:
256,192,178177,1,8,0:0:0:0:
256,192,178250,1,8,0:0:0:0:
256,192,178322,1,8,0:0:0:0:
256,192,178395,5,0,0:0:0:0:
256,192,178721,1,0,0:0:0:0:
256,192,178829,1,8,0:0:0:0:
256,192,179047,1,8,0:0:0:0:
256,192,179264,1,0,0:0:0:0:
256,192,179373,1,8,0:0:0:0:
256,192,179482,1,0,0:0:0:0:
256,192,179590,1,0,0:0:0:0:
256,192,179699,1,8,0:0:0:0:
256,192,179808,1,8,0:0:0:0:
256,192,179916,1,0,0:0:0:0:
256,192,180134,1,8,0:0:0:0:
256,192,180242,1,0,0:0:0:0:
256,192,180351,1,0,0:0:0:0:
256,192,180460,1,0,0:0:0:0:
256,192,180568,1,8,0:0:0:0:
256,192,180677,1,8,0:0:0:0:
256,192,180786,1,0,0:0:0:0:
256,192,181003,1,8,0:0:0:0:
256,192,181112,1,0,0:0:0:0:
256,192,181221,1,0,0:0:0:0:
256,192,181329,1,8,0:0:0:0:
256,192,181438,1,0,0:0:0:0:
256,192,181655,1,8,0:0:0:0:
256,192,181873,5,4,0:0:0:0:
256,192,182199,1,0,0:0:0:0:
256,192,182308,1,8,0:0:0:0:
256,192,182525,1,8,0:0:0:0:
256,192,182742,1,4,0:0:0:0:
256,192,182960,1,0,0:0:0:0:
256,192,183068,1,0,0:0:0:0:
256,192,183177,1,8,0:0:0:0:
256,192,183286,1,8,0:0:0:0:
256,192,183395,1,0,0:0:0:0:
256,192,183612,1,12,0:0:0:0:
256,192,183829,1,0,0:0:0:0:
256,192,183938,1,8,0:0:0:0:
256,192,184047,1,0,0:0:0:0:
256,192,184155,1,0,0:0:0:0:
256,192,184264,1,8,0:0:0:0:
256,192,184482,1,0,0:0:0:0:
256,192,184590,1,2,0:0:0:0:
256,192,184699,1,0,0:0:0:0:
256,192,184808,1,2,0:0:0:0:
256,192,184916,1,0,0:0:0:0:
256,192,185025,1,2,0:0:0:0:
256,192,185134,1,0,0:0:0:0:
256,192,185242,1,0,0:0:0:0:
256,192,185351,1,2,0:0:0:0:
256,192,185677,1,0,0:0:0:0:
256,192,185786,1,8,0:0:0:0:
256,192,186003,1,0,0:0:0:0:
256,192,186221,1,0,0:0:0:0:
256,192,186329,1,0,0:0:0:0:
256,192,186438,1,8,0:0:0:0:
256,192,186547,1,0,0:0:0:0:
256,192,186655,1,8,0:0:0:0:
256,192,186764,1,8,0:0:0:0:
256,192,186873,1,8,0:0:0:0:
256,192,187090,1,0,0:0:0:0:
256,192,187199,1,8,0:0:0:0:
256,192,187308,1,8,0:0:0:0:
256,192,187416,1,8,0:0:0:0:
256,192,187525,1,0,0:0:0:0:
256,192,187634,1,8,0:0:0:0:
256,192,187742,1,0,0:0:0:0:
256,192,187960,1,0,0:0:0:0:
256,192,188068,1,8,0:0:0:0:
256,192,188177,1,0,0:0:0:0:
256,192,188286,1,0,0:0:0:0:
256,192,188395,1,8,0:0:0:0:
256,192,188612,1,0,0:0:0:0:
256,192,188829,5,8,0:0:0:0:
256,192,188938,1,0,0:0:0:0:
256,192,189047,1,0,0:0:0:0:
256,192,189155,1,8,0:0:0:0:
256,192,189264,1,0,0:0:0:0:
256,192,189373,1,0,0:0:0:0:
256,192,189482,1,8,0:0:0:0:
256,192,189590,1,0,0:0:0:0:
256,192,189699,1,8,0:0:0:0:
256,192,189808,1,8,0:0:0:0:
256,192,189916,1,0,0:0:0:0:
256,192,190025,1,0,0:0:0:0:
256,192,190134,1,8,0:0:0:0:
256,192,190242,1,8,0:0:0:0:
256,192,190351,1,8,0:0:0:0:
256,192,190460,1,8,0:0:0:0:
256,192,190568,1,0,0:0:0:0:
256,192,190677,1,0,0:0:0:0:
256,192,190786,1,8,0:0:0:0:
256,192,190895,1,0,0:0:0:0:
256,192,191003,1,8,0:0:0:0:
256,192,191112,1,8,0:0:0:0:
256,192,191221,1,0,0:0:0:0:
256,192,191329,1,0,0:0:0:0:
256,192,191438,1,0,0:0:0:0:
256,192,191547,1,8,0:0:0:0:
256,192,191655,1,0,0:0:0:0:
256,192,191764,1,2,0:0:0:0:
256,192,191873,1,0,0:0:0:0:
256,192,191945,1,8,0:0:0:0:
256,192,192018,1,2,0:0:0:0:
256,192,192090,1,0,0:0:0:0:
256,192,192163,1,8,0:0:0:0:
256,192,192235,1,2,0:0:0:0:
256,192,192308,5,0,0:0:0:0:
256,192,195786,1,2,0:0:0:0:
256,192,197525,1,8,0:0:0:0:
256,192,197634,1,8,0:0:0:0:
256,192,197742,1,8,0:0:0:0:
256,192,197851,1,8,0:0:0:0:
256,192,198068,1,8,0:0:0:0:
256,192,198286,1,8,0:0:0:0:
256,192,198395,1,8,0:0:0:0:
256,192,198612,1,8,0:0:0:0:
256,192,198829,1,8,0:0:0:0:
256,192,198938,1,8,0:0:0:0:
256,192,199155,1,8,0:0:0:0:
256,192,199264,5,0,0:0:0:0:
256,192,199482,1,2,0:0:0:0:
256,192,199699,1,0,0:0:0:0:
256,192,200134,1,0,0:0:0:0:
256,192,200242,1,2,0:0:0:0:
256,192,200351,1,2,0:0:0:0:
256,192,200568,1,0,0:0:0:0:
256,192,201003,1,0,0:0:0:0:
256,192,201112,1,2,0:0:0:0:
256,192,201221,1,2,0:0:0:0:
256,192,201329,1,2,0:0:0:0:
256,192,201438,1,0,0:0:0:0:
256,192,201655,1,2,0:0:0:0:
256,192,201873,1,0,0:0:0:0:
256,192,201982,1,2,0:0:0:0:
256,192,202090,1,2,0:0:0:0:
256,192,202308,1,0,0:0:0:0:
256,192,202525,1,0,0:0:0:0:
256,192,202634,1,2,0:0:0:0:
256,192,202742,5,0,0:0:0:0:
256,192,202960,1,2,0:0:0:0:
256,192,203177,1,0,0:0:0:0:
256,192,203612,1,0,0:0:0:0:
256,192,203721,1,2,0:0:0:0:
256,192,203829,1,2,0:0:0:0:
256,192,204047,1,0,0:0:0:0:
256,192,204482,1,0,0:0:0:0:
256,192,204590,1,8,0:0:0:0:
256,192,204699,1,0,0:0:0:0:
256,192,204808,1,0,0:0:0:0:
256,192,204916,1,0,0:0:0:0:
256,192,205025,1,8,0:0:0:0:
256,192,205134,1,0,0:0:0:0:
256,192,205242,1,8,0:0:0:0:
256,192,205351,1,0,0:0:0:0:
256,192,205460,1,0,0:0:0:0:
256,192,205568,1,0,0:0:0:0:
256,192,205677,1,0,0:0:0:0:
256,192,205786,1,2,0:0:0:0:
256,192,205895,1,2,0:0:0:0:
256,192,206003,1,2,0:0:0:0:
256,192,206112,1,2,0:0:0:0:
256,192,206221,5,0,0:0:0:0:
256,192,206438,1,2,0:0:0:0:
256,192,206655,1,0,0:0:0:0:
256,192,206873,1,2,0:0:0:0:
256,192,206982,1,0,0:0:0:0:
256,192,207090,1,0,0:0:0:0:
256,192,207199,1,2,0:0:0:0:
256,192,207416,1,2,0:0:0:0:
256,192,207525,1,0,0:0:0:0:
256,192,207742,1,2,0:0:0:0:
256,192,207960,1,0,0:0:0:0:
256,192,208068,1,0,0:0:0:0:
256,192,208177,1,0,0:0:0:0:
256,192,208286,1,0,0:0:0:0:
256,192,208395,1,2,0:0:0:0:
256,192,208612,1,2,0:0:0:0:
256,192,208829,1,0,0:0:0:0:
256,192,208938,1,8,0:0:0:0:
256,192,209047,1,0,0:0:0:0:
256,192,209155,1,0,0:0:0:0:
256,192,209264,1,8,0:0:0:0:
256,192,209482,1,0,0:0:0:0:
256,192,209699,5,4,0:0:0:0:
256,192,209916,1,2,0:0:0:0:
256,192,210134,1,0,0:0:0:0:
256,192,210351,1,2,0:0:0:0:
256,192,210460,1,2,0:0:0:0:
256,192,210568,1,0,0:0:0:0:
256,192,210677,1,2,0:0:0:0:
256,192,210895,1,2,0:0:0:0:
256,192,211003,1,0,0:0:0:0:
256,192,211221,1,2,0:0:0:0:
256,192,211329,1,2,0:0:0:0:
256,192,211438,1,0,0:0:0:0:
256,192,211547,1,2,0:0:0:0:
256,192,211764,1,2,0:0:0:0:
256,192,211873,1,0,0:0:0:0:
256,192,212090,1,2,0:0:0:0:
256,192,212199,1,0,0:0:0:0:
256,192,212308,1,8,0:0:0:0:
256,192,212416,1,8,0:0:0:0:
256,192,212525,1,0,0:0:0:0:
256,192,212634,1,0,0:0:0:0:
256,192,212742,1,8,0:0:0:0:
256,192,212815,1,8,0:0:0:0:
256,192,212887,1,8,0:0:0:0:
256,192,212960,1,0,0:0:0:0:
256,192,213177,5,4,0:0:0:0:
256,192,213395,1,2,0:0:0:0:
256,192,213612,1,0,0:0:0:0:
256,192,213829,1,2,0:0:0:0:
256,192,213938,1,2,0:0:0:0:
256,192,214047,1,0,0:0:0:0:
256,192,214264,1,2,0:0:0:0:
256,192,214373,1,2,0:0:0:0:
256,192,214482,1,0,0:0:0:0:
256,192,214590,1,2,0:0:0:0:
256,192,214699,1,0,0:0:0:0:
256,192,214916,1,2,0:0:0:0:
256,192,215025,1,0,0:0:0:0:
256,192,215242,1,0,0:0:0:0:
256,192,215351,1,2,0:0:0:0:
256,192,215460,1,0,0:0:0:0:
256,192,215568,1,2,0:0:0:0:
256,192,215677,1,2,0:0:0:0:
256,192,215786,1,0,0:0:0:0:
256,192,215895,1,8,0:0:0:0:
256,192,216003,1,2,0:0:0:0:
256,192,216112,1,0,0:0:0:0:
256,192,216221,1,8,0:0:0:0:
256,192,216438,1,0,0:0:0:0:
256,192,216655,5,8,0:0:0:0:
256,192,216764,1,0,0:0:0:0:
256,192,216873,1,0,0:0:0:0:
256,192,216981,1,8,0:0:0:0:
256,192,217090,1,0,0:0:0:0:
256,192,217308,1,8,0:0:0:0:
256,192,217416,1,0,0:0:0:0:
256,192,217525,1,8,0:0:0:0:
256,192,217634,1,0,0:0:0:0:
256,192,217742,1,0,0:0:0:0:
256,192,217851,1,8,0:0:0:0:
256,192,217960,1,0,0:0:0:0:
256,192,218177,1,8,0:0:0:0:
256,192,218286,1,8,0:0:0:0:
256,192,218395,1,0,0:0:0:0:
256,192,218503,1,0,0:0:0:0:
256,192,218612,1,8,0:0:0:0:
256,192,218721,1,8,0:0:0:0:
256,192,218829,1,0,0:0:0:0:
256,192,218938,1,8,0:0:0:0:
256,192,219047,1,0,0:0:0:0:
256,192,219155,1,8,0:0:0:0:
256,192,219264,1,0,0:0:0:0:
256,192,219373,1,8,0:0:0:0:
256,192,219481,1,8,0:0:0:0:
256,192,219590,1,8,0:0:0:0:
256,192,219699,1,0,0:0:0:0:
256,192,219771,1,8,0:0:0:0:
256,192,219844,1,8,0:0:0:0:
256,192,219916,1,0,0:0:0:0:
256,192,219989,1,8,0:0:0:0:
256,192,220061,1,8,0:0:0:0:
256,192,220134,5,0,0:0:0:0:
256,192,220351,1,2,0:0:0:0:
256,192,220568,1,0,0:0:0:0:
256,192,220677,1,2,0:0:0:0:
256,192,221003,1,2,0:0:0:0:
256,192,221329,1,2,0:0:0:0:
256,192,221655,1,2,0:0:0:0:
256,192,221873,1,0,0:0:0:0:
256,192,222090,1,2,0:0:0:0:
256,192,222308,1,0,0:0:0:0:
256,192,222416,1,2,0:0:0:0:
256,192,222525,1,0,0:0:0:0:
256,192,222742,1,2,0:0:0:0:
256,192,223068,1,2,0:0:0:0:
256,192,223395,1,2,0:0:0:0:
256,192,223612,5,0,0:0:0:0:
256,192,223829,1,2,0:0:0:0:
256,192,224047,1,0,0:0:0:0:
256,192,224155,1,2,0:0:0:0:
256,192,224481,1,2,0:0:0:0:
256,192,224808,1,2,0:0:0:0:
256,192,225134,1,2,0:0:0:0:
256,192,225351,1,0,0:0:0:0:
256,192,225568,1,2,0:0:0:0:
256,192,225786,1,0,0:0:0:0:
256,192,225895,1,2,0:0:0:0:
256,192,226003,1,0,0:0:0:0:
256,192,226221,1,2,0:0:0:0:
256,192,226547,1,2,0:0:0:0:
256,192,226873,1,2,0:0:0:0:
256,192,227090,5,4,0:0:0:0:
256,192,227308,1,2,0:0:0:0:
256,192,227525,1,0,0:0:0:0:
256,192,227634,1,2,0:0:0:0:
256,192,227742,1,0,0:0:0:0:
256,192,227960,1,2,0:0:0:0:
256,192,228177,1,0,0:0:0:0:
256,192,228286,1,2,0:0:0:0:
256,192,228612,1,2,0:0:0:0:
256,192,228829,1,0,0:0:0:0:
256,192,229047,1,2,0:0:0:0:
256,192,229264,1,0,0:0:0:0:
256,192,229373,1,2,0:0:0:0:
256,192,229481,1,0,0:0:0:0:
256,192,229699,1,2,0:0:0:0:
256,192,229916,1,0,0:0:0:0:
256,192,230025,1,2,0:0:0:0:
256,192,230242,1,0,0:0:0:0:
256,192,230351,1,2,0:0:0:0:
256,192,230568,5,0,0:0:0:0:
256,192,230786,1,2,0:0:0:0:
256,192,231003,1,0,0:0:0:0:
256,192,231112,1,2,0:0:0:0:
256,192,231221,1,0,0:0:0:0:
256,192,231438,1,2,0:0:0:0:
256,192,231655,1,0,0:0:0:0:
256,192,231764,1,2,0:0:0:0:
256,192,231873,1,0,0:0:0:0:
256,192,231981,1,0,0:0:0:0:
256,192,232090,1,2,0:0:0:0:
256,192,232308,1,0,0:0:0:0:
256,192,232525,1,2,0:0:0:0:
256,192,232742,1,0,0:0:0:0:
256,192,232851,1,2,0:0:0:0:
256,192,232960,1,0,0:0:0:0:
256,192,233177,1,2,0:0:0:0:
256,192,233395,1,0,0:0:0:0:
256,192,233503,1,2,0:0:0:0:
256,192,233612,1,0,0:0:0:0:
256,192,233721,1,0,0:0:0:0:
256,192,233829,1,2,0:0:0:0:
256,192,233938,1,2,0:0:0:0:
256,192,234047,5,0,0:0:0:0:
256,192,234155,1,0,0:0:0:0:
256,192,234264,1,8,0:0:0:0:
256,192,234373,1,0,0:0:0:0:
256,192,234481,1,0,0:0:0:0:
256,192,234590,1,8,0:0:0:0:
256,192,234699,1,0,0:0:0:0:
256,192,234808,1,0,0:0:0:0:
256,192,234916,1,8,0:0:0:0:
256,192,235025,1,0,0:0:0:0:
256,192,235134,1,0,0:0:0:0:
256,192,235242,1,8,0:0:0:0:
256,192,235351,1,0,0:0:0:0:
256,192,235424,1,0,0:0:0:0:
256,192,235496,1,0,0:0:0:0:
256,192,235568,1,8,0:0:0:0:
256,192,235641,1,8,0:0:0:0:
256,192,235713,1,8,0:0:0:0:
256,192,236384,1,2,0:0:0:0:
256,192,236655,5,4,0:0:0:0:
256,192,236982,1,0,0:0:0:0:
256,192,237090,1,8,0:0:0:0:
256,192,237199,1,8,0:0:0:0:
256,192,237308,1,0,0:0:0:0:
256,192,237525,1,0,0:0:0:0:
256,192,237634,1,8,0:0:0:0:
256,192,237742,1,0,0:0:0:0:
256,192,237851,1,0,0:0:0:0:
256,192,237960,1,8,0:0:0:0:
256,192,238177,1,0,0:0:0:0:
256,192,238286,1,0,0:0:0:0:
256,192,238395,1,8,0:0:0:0:
256,192,238503,1,0,0:0:0:0:
256,192,238721,1,0,0:0:0:0:
256,192,238829,1,8,0:0:0:0:
256,192,238938,1,8,0:0:0:0:
256,192,239047,1,0,0:0:0:0:
256,192,239264,1,8,0:0:0:0:
256,192,239373,1,0,0:0:0:0:
256,192,239482,1,0,0:0:0:0:
256,192,239590,1,8,0:0:0:0:
256,192,239699,1,0,0:0:0:0:
256,192,239916,1,8,0:0:0:0:
256,192,240134,5,4,0:0:0:0:
256,192,240460,1,0,0:0:0:0:
256,192,240569,1,8,0:0:0:0:
256,192,240786,1,8,0:0:0:0:
256,192,241003,1,4,0:0:0:0:
256,192,241221,5,0,0:0:0:0:
256,192,241329,1,0,0:0:0:0:
256,192,241438,1,8,0:0:0:0:
256,192,241656,1,8,0:0:0:0:
256,192,241873,1,4,0:0:0:0:
256,192,242199,1,8,0:0:0:0:
256,192,242308,1,0,0:0:0:0:
256,192,242416,1,0,0:0:0:0:
256,192,242525,1,8,0:0:0:0:
256,192,242742,1,0,0:0:0:0:
256,192,242851,1,2,0:0:0:0:
256,192,242960,1,0,0:0:0:0:
256,192,243069,1,2,0:0:0:0:
256,192,243177,1,0,0:0:0:0:
256,192,243286,1,2,0:0:0:0:
256,192,243395,1,8,0:0:0:0:
256,192,243503,1,8,0:0:0:0:
256,192,243612,1,0,0:0:0:0:
256,192,243938,1,0,0:0:0:0:
256,192,244047,1,8,0:0:0:0:
256,192,244156,1,0,0:0:0:0:
256,192,244264,1,8,0:0:0:0:
256,192,244482,1,0,0:0:0:0:
256,192,244590,1,0,0:0:0:0:
256,192,244699,1,8,0:0:0:0:
256,192,244808,1,0,0:0:0:0:
256,192,244916,1,8,0:0:0:0:
256,192,245134,1,8,0:0:0:0:
256,192,245242,1,8,0:0:0:0:
256,192,245351,1,0,0:0:0:0:
256,192,245460,1,8,0:0:0:0:
256,192,245677,1,8,0:0:0:0:
256,192,245786,1,0,0:0:0:0:
256,192,245895,1,0,0:0:0:0:
256,192,246003,1,8,0:0:0:0:
256,192,246221,1,0,0:0:0:0:
256,192,246329,1,8,0:0:0:0:
256,192,246438,1,0,0:0:0:0:
256,192,246547,1,0,0:0:0:0:
256,192,246656,1,8,0:0:0:0:
256,192,246873,1,8,0:0:0:0:
256,192,247090,5,4,0:0:0:0:
256,192,247308,1,0,0:0:0:0:
256,192,247416,1,0,0:0:0:0:
256,192,247525,1,8,0:0:0:0:
256,192,247634,1,8,0:0:0:0:
256,192,247742,1,0,0:0:0:0:
256,192,247960,1,4,0:0:0:0:
256,192,248177,1,0,0:0:0:0:
256,192,248286,1,0,0:0:0:0:
256,192,248395,1,8,0:0:0:0:
248,185,248612,1,8,0:0:0:0:
256,192,248829,1,0,0:0:0:0:
256,192,248938,1,8,0:0:0:0:
256,192,249047,1,8,0:0:0:0:
256,192,249156,1,8,0:0:0:0:
256,192,249264,1,0,0:0:0:0:
256,192,249373,1,0,0:0:0:0:
256,192,249482,1,8,0:0:0:0:
256,192,249554,1,8,0:0:0:0:
256,192,249627,1,8,0:0:0:0:
256,192,249699,1,0,0:0:0:0:
256,192,249808,1,8,0:0:0:0:
256,192,249916,1,0,0:0:0:0:
256,192,250025,1,8,0:0:0:0:
256,192,250134,1,0,0:0:0:0:
256,192,250242,1,0,0:0:0:0:
256,192,250351,1,8,0:0:0:0:
256,192,250424,1,8,0:0:0:0:
256,192,250496,1,8,0:0:0:0:
256,192,250569,5,0,0:0:0:0:
256,192,250895,1,0,0:0:0:0:
256,192,251003,1,8,0:0:0:0:
256,192,251112,1,0,0:0:0:0:
256,192,251221,1,8,0:0:0:0:
256,192,251438,1,0,0:0:0:0:
256,192,251547,1,8,0:0:0:0:
256,192,251656,1,0,0:0:0:0:
256,192,251764,1,0,0:0:0:0:
256,192,251873,1,8,0:0:0:0:
256,192,251982,1,8,0:0:0:0:
256,192,252090,1,0,0:0:0:0:
256,192,252199,1,0,0:0:0:0:
256,192,252308,1,8,0:0:0:0:
256,192,252416,1,0,0:0:0:0:
256,192,252634,1,0,0:0:0:0:
256,192,252742,1,8,0:0:0:0:
256,192,252851,1,0,0:0:0:0:
256,192,252960,1,8,0:0:0:0:
256,192,253177,1,8,0:0:0:0:
256,192,253286,1,0,0:0:0:0:
256,192,253395,1,0,0:0:0:0:
256,192,253503,1,8,0:0:0:0:
256,192,253612,1,0,0:0:0:0:
256,192,253829,1,8,0:0:0:0:
256,192,254047,5,4,0:0:0:0:
256,192,254373,1,0,0:0:0:0:
256,192,254482,1,8,0:0:0:0:
256,192,254699,1,8,0:0:0:0:
256,192,254916,1,4,0:0:0:0:
256,192,255134,5,0,0:0:0:0:
256,192,255242,1,0,0:0:0:0:
256,192,255351,1,8,0:0:0:0:
256,192,255460,1,0,0:0:0:0:
256,192,255569,1,8,0:0:0:0:
256,192,255786,1,4,0:0:0:0:
256,192,256003,1,0,0:0:0:0:
256,192,256112,1,8,0:0:0:0:
256,192,256221,1,0,0:0:0:0:
256,192,256329,1,0,0:0:0:0:
256,192,256438,1,8,0:0:0:0:
256,192,256656,1,0,0:0:0:0:
256,192,256764,1,2,0:0:0:0:
256,192,256873,1,0,0:0:0:0:
256,192,256982,1,2,0:0:0:0:
256,192,257090,1,0,0:0:0:0:
256,192,257199,1,2,0:0:0:0:
256,192,257308,1,0,0:0:0:0:
256,192,257416,1,0,0:0:0:0:
256,192,257525,1,2,0:0:0:0:
256,192,257851,1,0,0:0:0:0:
256,192,257960,1,8,0:0:0:0:
256,192,258069,1,0,0:0:0:0:
256,192,258177,1,0,0:0:0:0:
256,192,258395,1,0,0:0:0:0:
256,192,258503,1,0,0:0:0:0:
256,192,258612,1,8,0:0:0:0:
256,192,258721,1,0,0:0:0:0:
256,192,258829,1,8,0:0:0:0:
256,192,258938,1,8,0:0:0:0:
256,192,259047,1,8,0:0:0:0:
256,192,259156,1,0,0:0:0:0:
256,192,259264,1,0,0:0:0:0:
256,192,259373,1,8,0:0:0:0:
256,192,259590,1,8,0:0:0:0:
256,192,259699,1,0,0:0:0:0:
256,192,259808,1,8,0:0:0:0:
256,192,259916,1,0,0:0:0:0:
256,192,260134,1,0,0:0:0:0:
256,192,260242,1,8,0:0:0:0:
256,192,260351,1,0,0:0:0:0:
256,192,260460,1,0,0:0:0:0:
256,192,260569,1,8,0:0:0:0:
256,192,260786,1,0,0:0:0:0:
256,192,261003,5,8,0:0:0:0:
256,192,261112,1,0,0:0:0:0:
256,192,261221,1,0,0:0:0:0:
256,192,261329,1,8,0:0:0:0:
256,192,261438,1,0,0:0:0:0:
256,192,261547,1,0,0:0:0:0:
256,192,261656,1,8,0:0:0:0:
256,192,261764,1,0,0:0:0:0:
256,192,261873,1,8,0:0:0:0:
256,192,261982,1,8,0:0:0:0:
256,192,262090,1,0,0:0:0:0:
256,192,262199,1,0,0:0:0:0:
256,192,262308,1,8,0:0:0:0:
256,192,262416,1,8,0:0:0:0:
256,192,262525,1,8,0:0:0:0:
256,192,262634,1,8,0:0:0:0:
256,192,262742,1,0,0:0:0:0:
256,192,262851,1,0,0:0:0:0:
256,192,262960,1,0,0:0:0:0:
256,192,263069,1,0,0:0:0:0:
256,192,263177,1,8,0:0:0:0:
256,192,263286,1,0,0:0:0:0:
256,192,263395,1,8,0:0:0:0:
256,192,263503,1,8,0:0:0:0:
256,192,263612,1,0,0:0:0:0:
256,192,263721,1,8,0:0:0:0:
256,192,263829,1,8,0:0:0:0:
256,192,263938,1,0,0:0:0:0:
256,192,264047,1,8,0:0:0:0:
256,192,264156,1,8,0:0:0:0:
256,192,264264,1,0,0:0:0:0:
256,192,264373,1,0,0:0:0:0:
256,192,264482,5,8,0:0:0:0:
256,192,264554,1,0,0:0:0:0:
256,192,264627,1,0,0:0:0:0:
256,192,264699,1,8,0:0:0:0:
256,192,264771,1,0,0:0:0:0:
256,192,264844,1,0,0:0:0:0:
256,192,264916,1,8,0:0:0:0:
256,192,265025,1,8,0:0:0:0:
256,192,265134,1,0,0:0:0:0:
256,192,265242,1,0,0:0:0:0:
256,192,265351,1,8,0:0:0:0:
256,192,265424,1,0,0:0:0:0:
256,192,265496,1,0,0:0:0:0:
256,192,265569,1,8,0:0:0:0:
256,192,265641,1,0,0:0:0:0:
256,192,265713,1,0,0:0:0:0:
256,192,265786,1,8,0:0:0:0:
256,192,265858,1,0,0:0:0:0:
256,192,265931,1,0,0:0:0:0:
256,192,266003,1,8,0:0:0:0:
256,192,266076,1,8,0:0:0:0:
256,192,266148,1,8,0:0:0:0:
256,192,266221,1,0,0:0:0:0:
256,192,267090,1,2,0:0:0:0:
256,192,267308,1,2,0:0:0:0:
256,192,267525,1,0,0:0:0:0:
256,192,267634,1,0,0:0:0:0:
256,192,267742,1,8,0:0:0:0:
256,192,267851,1,2,0:0:0:0:
256,192,267960,5,4,0:0:0:0:
256,192,268177,1,2,0:0:0:0:
256,192,268395,1,2,0:0:0:0:
256,192,268503,1,0,0:0:0:0:
256,192,268612,1,0,0:0:0:0:
256,192,268829,1,0,0:0:0:0:
256,192,268938,1,2,0:0:0:0:
256,192,269156,1,2,0:0:0:0:
256,192,269264,1,0,0:0:0:0:
256,192,269482,1,2,0:0:0:0:
256,192,269590,1,2,0:0:0:0:
256,192,269699,1,0,0:0:0:0:
256,192,269808,1,0,0:0:0:0:
256,192,269916,1,2,0:0:0:0:
256,192,270025,1,0,0:0:0:0:
256,192,270134,1,2,0:0:0:0:
256,192,270351,1,0,0:0:0:0:
256,192,270569,1,2,0:0:0:0:
256,192,270786,1,0,0:0:0:0:
256,192,270858,1,2,0:0:0:0:
256,192,270931,1,0,0:0:0:0:
256,192,271003,1,0,0:0:0:0:
256,192,271221,1,2,0:0:0:0:
256,192,271438,5,0,0:0:0:0:
256,192,271656,1,2,0:0:0:0:
256,192,271873,1,2,0:0:0:0:
256,192,271982,1,0,0:0:0:0:
256,192,272090,1,0,0:0:0:0:
256,192,272308,1,2,0:0:0:0:
256,192,272416,1,0,0:0:0:0:
256,192,272634,1,0,0:0:0:0:
256,192,272742,1,2,0:0:0:0:
256,192,272960,1,2,0:0:0:0:
256,192,273177,1,0,0:0:0:0:
256,192,273286,1,0,0:0:0:0:
256,192,273395,1,2,0:0:0:0:
256,192,273503,1,0,0:0:0:0:
256,192,273612,1,2,0:0:0:0:
256,192,273829,1,2,0:0:0:0:
256,192,273938,1,0,0:0:0:0:
256,192,274047,1,8,0:0:0:0:
256,192,274156,1,8,0:0:0:0:
256,192,274264,1,0,0:0:0:0:
256,192,274373,1,0,0:0:0:0:
256,192,274482,1,8,0:0:0:0:
256,192,274554,1,0,0:0:0:0:
256,192,274627,1,0,0:0:0:0:
256,192,274699,1,8,0:0:0:0:
256,192,274771,1,0,0:0:0:0:
256,192,274844,1,0,0:0:0:0:
256,192,274916,5,0,0:0:0:0:
256,192,275134,1,2,0:0:0:0:
256,192,275351,1,2,0:0:0:0:
256,192,275460,1,0,0:0:0:0:
256,192,275569,1,0,0:0:0:0:
256,192,275786,1,0,0:0:0:0:
256,192,275895,1,2,0:0:0:0:
256,192,276112,1,2,0:0:0:0:
256,192,276221,1,0,0:0:0:0:
256,192,276438,1,2,0:0:0:0:
256,192,276547,1,2,0:0:0:0:
256,192,276656,1,0,0:0:0:0:
256,192,276764,1,2,0:0:0:0:
256,192,276873,1,0,0:0:0:0:
256,192,276982,1,0,0:0:0:0:
256,192,277090,1,2,0:0:0:0:
256,192,277308,1,0,0:0:0:0:
256,192,277525,1,2,0:0:0:0:
256,192,277742,1,0,0:0:0:0:
256,192,277851,1,2,0:0:0:0:
256,192,277960,1,0,0:0:0:0:
256,192,278177,1,2,0:0:0:0:
256,192,278395,5,0,0:0:0:0:
256,192,278612,1,2,0:0:0:0:
256,192,278829,1,2,0:0:0:0:
256,192,278938,1,0,0:0:0:0:
256,192,279047,1,0,0:0:0:0:
256,192,279264,1,2,0:0:0:0:
256,192,279373,1,0,0:0:0:0:
256,192,279590,1,0,0:0:0:0:
256,192,279699,1,2,0:0:0:0:
256,192,279916,1,2,0:0:0:0:
256,192,280134,1,0,0:0:0:0:
256,192,280242,1,2,0:0:0:0:
256,192,280351,1,2,0:0:0:0:
256,192,280460,1,0,0:0:0:0:
256,192,280569,1,2,0:0:0:0:
256,192,280786,1,2,0:0:0:0:
256,192,280895,1,2,0:0:0:0:
256,192,281003,1,0,0:0:0:0:
256,192,281112,1,0,0:0:0:0:
256,192,281221,1,8,0:0:0:0:
256,192,281329,1,0,0:0:0:0:
256,192,281438,1,8,0:0:0:0:
256,192,281511,1,0,0:0:0:0:
256,192,281583,1,0,0:0:0:0:
256,192,281656,1,8,0:0:0:0:
256,192,281728,1,8,0:0:0:0:
256,192,281800,1,8,0:0:0:0:
256,192,281873,5,0,0:0:0:0:
256,192,282090,1,2,0:0:0:0:
256,192,282308,1,2,0:0:0:0:
256,192,282416,1,0,0:0:0:0:
256,192,282525,1,0,0:0:0:0:
256,192,282742,1,0,0:0:0:0:
256,192,282851,1,2,0:0:0:0:
256,192,283069,1,2,0:0:0:0:
256,192,283177,1,0,0:0:0:0:
256,192,283395,1,2,0:0:0:0:
256,192,283503,1,2,0:0:0:0:
256,192,283612,1,0,0:0:0:0:
256,192,283721,1,0,0:0:0:0:
256,192,283829,1,2,0:0:0:0:
256,192,283938,1,0,0:0:0:0:
256,192,284047,1,2,0:0:0:0:
256,192,284264,1,0,0:0:0:0:
256,192,284482,1,2,0:0:0:0:
256,192,284590,1,0,0:0:0:0:
256,192,284699,1,0,0:0:0:0:
256,192,284808,1,2,0:0:0:0:
256,192,284916,1,2,0:0:0:0:
256,192,285134,1,2,0:0:0:0:
256,192,285351,5,4,0:0:0:0:
256,192,285569,1,2,0:0:0:0:
256,192,285786,1,2,0:0:0:0:
256,192,285895,1,0,0:0:0:0:
256,192,286003,1,0,0:0:0:0:
256,192,286221,1,2,0:0:0:0:
256,192,286366,1,0,0:0:0:0:
256,192,286511,1,0,0:0:0:0:
256,192,286656,1,2,0:0:0:0:
256,192,286800,1,0,0:0:0:0:
256,192,286945,1,0,0:0:0:0:
256,192,287090,1,2,0:0:0:0:
256,192,287235,1,2,0:0:0:0:
256,192,287380,1,0,0:0:0:0:
256,192,287525,1,2,0:0:0:0:
256,192,287670,1,2,0:0:0:0:
256,192,287815,1,0,0:0:0:0:
256,192,287960,1,8,0:0:0:0:
256,192,288069,1,8,0:0:0:0:
256,192,288177,1,0,0:0:0:0:
256,192,288286,1,0,0:0:0:0:
256,192,288395,1,8,0:0:0:0:
256,192,288467,1,0,0:0:0:0:
256,192,288540,1,0,0:0:0:0:
256,192,288612,1,8,0:0:0:0:
256,192,288684,1,0,0:0:0:0:
256,192,288757,1,0,0:0:0:0:
256,192,288829,5,0,0:0:0:0:
256,192,289047,1,2,0:0:0:0:
256,192,289264,1,2,0:0:0:0:
256,192,289373,1,0,0:0:0:0:
256,192,289482,1,0,0:0:0:0:
256,192,289699,1,0,0:0:0:0:
256,192,289808,1,2,0:0:0:0:
256,192,290025,1,2,0:0:0:0:
256,192,290134,1,0,0:0:0:0:
256,192,290351,1,2,0:0:0:0:
256,192,290460,1,2,0:0:0:0:
256,192,290569,1,0,0:0:0:0:
256,192,290677,1,2,0:0:0:0:
256,192,290786,1,0,0:0:0:0:
256,192,290895,1,0,0:0:0:0:
256,192,291003,1,2,0:0:0:0:
256,192,291221,1,0,0:0:0:0:
256,192,291438,1,2,0:0:0:0:
256,192,291547,1,0,0:0:0:0:
256,192,291656,1,2,0:0:0:0:
256,192,291764,1,2,0:0:0:0:
256,192,291873,1,0,0:0:0:0:
256,192,292090,1,2,0:0:0:0:
256,192,292308,5,0,0:0:0:0:
256,192,292416,1,8,0:0:0:0:
256,192,292525,1,8,0:0:0:0:
256,192,292634,1,0,0:0:0:0:
256,192,292742,1,8,0:0:0:0:
256,192,292851,1,8,0:0:0:0:
256,192,292960,1,0,0:0:0:0:
256,192,293069,1,0,0:0:0:0:
256,192,293177,1,8,0:0:0:0:
256,192,293286,1,0,0:0:0:0:
256,192,293395,1,0,0:0:0:0:
256,192,293503,1,8,0:0:0:0:
256,192,293612,1,0,0:0:0:0:
256,192,293721,1,0,0:0:0:0:
256,192,293829,1,8,0:0:0:0:
256,192,293938,1,8,0:0:0:0:
256,192,294047,1,0,0:0:0:0:
256,192,294156,1,8,0:0:0:0:
256,192,294264,1,8,0:0:0:0:
256,192,294373,1,0,0:0:0:0:
256,192,294482,1,8,0:0:0:0:
256,192,294590,1,8,0:0:0:0:
256,192,294699,1,0,0:0:0:0:
256,192,294808,1,0,0:0:0:0:
256,192,294916,1,8,0:0:0:0:
256,192,295025,1,0,0:0:0:0:
256,192,295134,1,8,0:0:0:0:
256,192,295242,1,0,0:0:0:0:
256,192,295351,1,8,0:0:0:0:
256,192,295424,1,8,0:0:0:0:
256,192,295496,1,0,0:0:0:0:
256,192,295569,1,8,0:0:0:0:
256,192,295641,1,8,0:0:0:0:
256,192,295713,1,0,0:0:0:0:
256,192,295786,12,0,301003,0:0:0:0:
