osu file format v14

[General]
AudioFilename: audio.mp3
AudioLeadIn: 0
PreviewTime: 50937
Countdown: 0
SampleSet: Soft
StackLeniency: 0.7
Mode: 0
LetterboxInBreaks: 0
WidescreenStoryboard: 1

[Editor]
Bookmarks: 70081
DistanceSpacing: 1.7
BeatDivisor: 4
GridSize: 4
TimelineZoom: 1

[Metadata]
Title:a little christmas time
TitleUnicode:a little christmas time
Artist:fripSide
ArtistUnicode:fripSide
Creator:nyu -
Version:Normal
Source:メリ☆クリ ~10年ぶりのホワイトクリスマス~
Tags:Meri * Chri ~Juu Nen Buri no White Christmas~ Whirlpool Visual Novel Eroge Ending ED Version nao xmas Nanachii Japanese Video Game VN short cut ver
BeatmapID:1131074
BeatmapSetID:533603

[Difficulty]
HPDrainRate:4
CircleSize:3
OverallDifficulty:4.5
ApproachRate:4
SliderMultiplier:1.1
SliderTickRate:1

[Events]
//Background and Video events
0,0,"merry.png",0,0
//Break Periods
//Storyboard Layer 0 (Background)
//Storyboard Layer 1 (Fail)
//Storyboard Layer 2 (Pass)
//Storyboard Layer 3 (Foreground)
//Storyboard Layer 4 (Overlay)
//Storyboard Sound Samples

[TimingPoints]
2937,600,4,2,1,75,1,0
21237,-100,4,2,2,75,0,0
21387,-100,4,2,1,75,0,0
50937,-100,4,2,1,75,0,1
70137,-100,4,2,1,75,0,0
70737,-100,4,2,1,70,0,0
71337,-100,4,2,1,65,0,0
71937,-100,4,2,1,60,0,0
72537,-100,4,2,1,55,0,0

[Colours]
Combo1 : 150,132,255
Combo2 : 160,160,160
Combo3 : 226,226,226
Combo4 : 255,206,112
Combo5 : 94,141,253
Combo6 : 41,103,245
Combo7 : 255,122,182

[HitObjects]
75,83,2937,22,0,P|127:61|197:79,1,110,2|2,0:0|0:0,0:0:0:0:
255,122,3837,1,0,0:0:0:0:
333,68,4137,2,0,P|387:61|437:83,1,110,2|2,0:0|0:0,0:0:0:0:
498,153,5037,1,2,0:0:0:0:
494,246,5337,2,0,L|479:320,1,55,2|2,0:0|0:0,0:0:0:0:
302,349,6237,86,0,L|287:227,1,110,2|2,0:0|0:0,0:0:0:0:
277,147,7137,1,2,0:0:0:0:
209,82,7437,1,2,0:0:0:0:
131,132,7737,6,0,P|80:141|25:101,1,110,2|2,0:0|0:0,0:0:0:0:
98,46,8637,1,0,0:0:0:0:
190,62,8937,2,0,P|241:53|296:93,1,110,2|2,0:0|0:0,0:0:0:0:
436,197,10137,86,0,L|435:127,1,55,2|2,0:0|0:0,0:0:0:0:
292,71,11037,2,0,L|290:189,1,110,2|0,0:0|0:0,0:0:0:0:
251,265,11937,1,8,0:0:0:0:
162,295,12237,1,2,0:0:0:0:
85,240,12537,86,0,L|90:122,1,110,6|8,0:0|0:0,0:0:0:0:
157,64,13437,1,0,0:0:0:0:
231,122,13737,2,0,L|235:231,1,110,2|8,0:0|0:0,0:0:0:0:
298,301,14637,1,0,0:0:0:0:
391,304,14937,2,0,P|446:274|453:261,1,55,2|2,0:0|0:0,0:0:0:0:
483,199,15537,1,8,0:0:0:0:
468,106,15837,86,0,L|345:95,1,110,2|2,0:0|0:0,0:0:0:0:
265,84,16737,1,8,0:0:0:0:
172,69,17037,1,2,0:0:0:0:
109,134,17337,86,0,P|93:186|110:249,1,110,2|8,0:0|0:0,0:0:0:0:
182,291,18237,1,0,0:0:0:0:
269,256,18537,2,0,P|280:202|264:150,1,110,2|8,0:0|0:0,0:0:0:0:
194,88,19437,1,0,0:0:0:0:
233,63,19587,1,0,0:0:0:0:
278,52,19737,70,0,L|342:62,1,55,2|2,0:0|0:0,0:0:0:0:
422,85,20337,1,8,0:0:0:0:
461,169,20637,2,0,P|472:233|412:313,1,165,2|8,0:0|0:0,0:0:0:0:
300,326,22137,6,0,P|260:304|183:306,1,110,6|8,0:0|0:0,0:0:0:0:
104,316,23037,1,0,0:0:0:0:
64,231,23337,2,0,P|61:167|91:109,1,110,2|8,0:0|0:0,0:0:0:0:
131,48,24237,1,0,0:0:0:0:
173,66,24387,1,0,0:0:0:0:
218,73,24537,38,0,P|289:76|345:51,1,110,2|8,0:0|0:0,0:0:0:0:
412,22,25437,1,0,0:0:0:0:
470,94,25737,2,0,L|477:152,1,55,2|0,0:0|0:0,0:0:0:0:
491,240,26337,86,0,P|444:237|419:247,1,55,10|0,0:1|0:0,0:0:0:0:
352,280,26937,1,8,0:1:0:0:
263,242,27237,86,0,L|257:167,1,55,0|8,0:0|0:0,0:0:0:0:
301,103,27837,1,0,0:0:0:0:
387,138,28137,2,0,P|439:131|484:73,1,110,2|8,0:0|0:0,0:0:0:0:
396,44,29037,1,0,0:0:0:0:
304,24,29337,70,0,L|185:38,1,110,2|8,0:0|0:0,0:0:0:0:
113,82,30237,1,0,0:0:0:0:
58,157,30537,2,0,L|71:226,1,55,2|0,0:0|0:0,0:0:0:0:
155,244,31137,6,0,L|142:313,1,55,8|0,0:1|0:0,0:0:0:0:
210,365,31737,1,10,0:1:0:0:
277,299,32037,1,2,0:0:0:0:
366,325,32337,38,0,P|371:277|362:253,1,55,8|0,0:0|0:0,0:0:0:0:
316,193,32937,2,0,P|246:162|205:163,1,110,2|8,0:0|0:0,0:0:0:0:
120,168,33837,1,0,0:0:0:0:
111,74,34137,86,0,L|237:82,1,110,2|8,0:0|0:0,0:0:0:0:
286,14,35037,2,0,P|312:79|291:138,1,110,0|0,0:0|0:0,0:0:0:0:
246,184,35937,86,0,L|171:181,1,55,8|0,0:1|0:0,0:0:0:0:
97,177,36537,1,10,0:1:0:0:
46,257,36837,70,0,P|61:289|88:309,1,55,2|8,0:0|0:0,0:0:0:0:
163,334,37437,1,0,0:0:0:0:
215,256,37737,2,0,L|217:147,1,110,0|8,0:0|0:0,0:0:0:0:
263,64,38637,1,0,0:0:0:0:
323,135,38937,6,0,P|374:151|437:125,1,110,0|8,0:0|0:0,0:0:0:0:
495,71,39837,1,0,0:0:0:0:
506,163,40137,2,0,L|500:240,1,55,2|0,0:0|0:0,0:0:0:0:
409,237,40737,38,0,L|415:314,1,55,10|0,0:1|0:0,0:0:0:0:
478,358,41337,1,10,0:1:0:0:
387,380,41637,85,0,0:0:0:0:
313,322,41937,1,8,0:0:0:0:
223,295,42237,1,2,0:0:0:0:
130,306,42537,1,2,0:0:0:0:
68,235,42837,2,0,P|63:186|75:162,1,55,2|8,0:0|0:0,0:0:0:0:
108,98,43437,1,0,0:0:0:0:
181,39,43737,86,0,P|236:36|306:68,1,110,2|8,0:0|0:0,0:0:0:0:
367,7,44637,2,0,P|382:39|383:78,1,55,0|2,0:0|0:0,0:0:0:0:
354,149,45237,1,0,0:0:0:0:
363,242,45537,2,0,P|358:268|345:293,1,55,8|2,0:0|0:0,0:0:0:0:
282,360,46137,70,0,P|342:384|394:369,1,110,2|8,0:0|0:0,0:0:0:0:
460,321,47037,1,2,0:0:0:0:
416,241,47337,2,0,P|441:230|469:228,1,55,2|2,0:0|0:0,0:0:0:0:
475,134,47937,2,0,P|440:147|410:145,1,55,2|0,0:0|0:0,0:0:0:0:
330,152,48537,6,0,P|349:99|338:34,1,110,2|8,0:0|0:0,0:0:0:0:
256,10,49437,1,0,0:0:0:0:
199,84,49737,2,0,P|193:136|200:158,1,55,2|0,0:0|0:0,0:0:0:0:
267,194,50337,2,0,P|273:220|272:247,1,55,10|0,0:1|0:0,0:0:0:0:
200,308,50937,38,0,P|248:342|309:335,1,110,6|8,0:0|0:0,0:0:0:0:
381,299,51837,1,0,0:0:0:0:
344,212,52137,2,0,L|347:144,1,55,0|2,0:0|0:0,0:0:0:0:
260,119,52737,2,0,L|257:64,1,55,8|2,0:0|0:0,0:0:0:0:
175,18,53337,86,0,P|130:47|57:41,1,110,8|8,0:1|0:0,0:0:0:0:
22,125,54237,2,0,L|33:234,1,110,2|2,0:0|0:0,0:0:0:0:
51,326,55137,1,8,0:0:0:0:
140,352,55437,1,2,0:0:0:0:
189,272,55737,86,0,P|250:223|298:226,1,110,8|8,0:1|0:0,0:0:0:0:
371,233,56637,1,2,0:0:0:0:
327,315,56937,2,0,L|265:311,1,55
192,360,57537,2,0,L|137:363,1,55,10|2,0:0|0:0,0:0:0:0:
75,292,58137,70,0,P|39:238|39:175,1,110,8|8,0:1|0:0,0:0:0:0:
67,106,59037,1,0,0:0:0:0:
153,142,59337,2,0,P|186:149|218:140,1,55,2|2,0:0|0:0,0:0:0:0:
242,58,59937,2,0,P|209:51|177:60,1,55,10|2,0:0|0:0,0:0:0:0:
206,145,60537,6,0,L|222:278,1,110,4|8,0:2|0:0,0:0:0:0:
224,347,61437,2,0,P|174:324|122:335,1,110,0|2,0:0|0:0,0:0:0:0:
34,359,62337,1,8,0:0:0:0:
58,268,62637,1,2,0:0:0:0:
91,180,62937,6,0,P|144:196|199:195,1,110,8|8,0:1|0:0,0:0:0:0:
283,150,63837,2,0,P|338:149|397:169,1,110,2|2,0:0|0:0,0:0:0:0:
476,200,64737,1,8,0:0:0:0:
504,114,65037,1,2,0:0:0:0:
443,42,65337,6,0,L|329:61,1,110,8|8,0:1|0:0,0:0:0:0:
243,37,66237,1,0,0:0:0:0:
176,103,66537,2,0,P|167:156|132:198,1,110,2|8,0:0|0:0,0:0:0:0:
59,257,67437,1,2,0:0:0:0:
139,304,67737,6,0,P|193:299|242:323,1,110,8|8,0:1|0:0,0:0:0:0:
330,355,68637,1,0,0:0:0:0:
317,262,68937,2,0,P|308:220|315:189,1,55,2|2,0:0|0:0,0:0:0:0:
234,152,69537,2,0,P|243:110|236:79,1,55,8|2,0:0|0:0,0:0:0:0:
256,192,70137,12,0,72537,0:0:0:0:
