osu file format v14

[General]
AudioFilename: audio.mp3
AudioLeadIn: 0
PreviewTime: 50937
Countdown: 0
SampleSet: Soft
StackLeniency: 0.7
Mode: 0
LetterboxInBreaks: 0
WidescreenStoryboard: 0

[Editor]
Bookmarks: 70081
DistanceSpacing: 1.5
BeatDivisor: 4
GridSize: 4
TimelineZoom: 1

[Metadata]
Title:a little christmas time
TitleUnicode:a little christmas time
Artist:fripSide
ArtistUnicode:fripSide
Creator:nyu -
Version:Hard
Source:メリ☆クリ ~10年ぶりのホワイトクリスマス~
Tags:Meri * Chri ~Juu Nen Buri no White Christmas~ Whirlpool Visual Novel Eroge Ending ED Version nao xmas Nanachii Japanese Video Game VN short cut ver
BeatmapID:1130467
BeatmapSetID:533603

[Difficulty]
HPDrainRate:6
CircleSize:4.2
OverallDifficulty:6
ApproachRate:6.5
SliderMultiplier:1.5
SliderTickRate:1

[Events]
//Background and Video events
0,0,"merry.png",0,0
//Break Periods
//Storyboard Layer 0 (Background)
//Storyboard Layer 1 (Fail)
//Storyboard Layer 2 (Pass)
//Storyboard Layer 3 (Foreground)
//Storyboard Layer 4 (Overlay)
//Storyboard Sound Samples

[TimingPoints]
2937,600,4,2,1,75,1,0
2937,-117.647058823529,4,2,1,75,0,0
12537,-100,4,2,1,75,0,0
50937,-86.9565217391304,4,2,1,75,0,1
70137,-100,4,2,1,75,0,0
70737,-100,4,2,1,70,0,0
71337,-100,4,2,1,65,0,0
71937,-100,4,2,1,60,0,0
72537,-100,4,2,1,55,0,0

[Colours]
Combo1 : 150,132,255
Combo2 : 160,160,160
Combo3 : 226,226,226
Combo4 : 255,206,112
Combo5 : 94,141,253
Combo6 : 41,103,245
Combo7 : 255,122,182

[HitObjects]
40,198,2937,22,0,P|70:188|119:196,1,63.7500012159348,2|0,0:0|0:0,0:0:0:0:
180,231,3537,2,0,P|214:231|248:220,1,63.7500012159348,2|0,0:0|0:0,0:0:0:0:
303,144,4137,2,0,P|331:177|325:274,1,127.50000243187,2|2,0:0|0:0,0:0:0:0:
278,337,5037,1,2,0:0:0:0:
202,373,5337,2,0,L|123:362,1,63.7500012159348,2|2,0:0|0:0,0:0:0:0:
52,211,6237,2,0,L|162:222,1,95.6250018239022,2|0,0:0|0:0,0:0:0:0:
182,223,6837,85,2,0:0:0:0:
266,178,7137,1,2,0:0:0:0:
322,101,7437,1,2,0:0:0:0:
412,70,7737,6,0,P|412:133|403:152,1,63.7500012159348,2|0,0:0|0:0,0:0:0:0:
342,198,8337,2,0,P|342:261|351:280,1,63.7500012159348,2|0,0:0|0:0,0:0:0:0:
297,342,8937,2,0,P|349:357|417:320,1,127.50000243187,2|2,0:0|0:0,0:0:0:0:
454,218,10137,86,0,P|457:180|447:138,1,63.7500012159348,2|2,0:0|0:0,0:0:0:0:
371,57,11037,2,0,P|357:121|371:185,1,127.50000243187,2|0,0:0|0:0,0:0:0:0:
289,275,11937,1,8,0:0:0:0:
383,316,12237,1,2,0:0:0:0:
470,175,12537,86,0,L|483:263,1,75,6|0,0:0|0:0,0:0:0:0:
383,316,13137,2,0,L|394:234,1,75,8|0,0:0|0:0,0:0:0:0:
353,177,13587,1,0,0:0:0:0:
353,177,13737,2,0,P|287:195|213:164,1,150,2|8,0:0|0:0,0:0:0:0:
147,127,14637,1,0,0:0:0:0:
77,180,14937,86,0,P|72:237|89:279,1,75,2|2,0:0|0:0,0:0:0:0:
147,318,15537,1,8,0:0:0:0:
210,254,15837,2,0,P|220:170|204:87,1,150,2|2,0:0|0:0,0:0:0:0:
116,63,16737,1,8,0:0:0:0:
67,156,17037,1,2,0:0:0:0:
210,254,17337,86,0,P|259:245|299:254,1,75,2|0,0:0|0:0,0:0:0:0:
349,185,17937,2,8,P|389:187|430:176,1,75,8|0,0:0|0:0,0:0:0:0:
475,113,18387,1,0,0:0:0:0:
475,113,18537,2,0,P|497:145|472:246,1,150,2|8,0:0|0:0,0:0:0:0:
394,299,19437,1,0,0:0:0:0:
353,293,19587,1,0,0:0:0:0:
312,286,19737,69,2,0:0:0:0:
152,242,20037,1,2,0:0:0:0:
274,125,20337,1,8,0:0:0:0:
312,286,20637,6,0,P|357:267|446:319,1,150,2|2,0:0|0:0,0:0:0:0:
364,370,21537,1,8,0:0:0:0:
164,284,22137,38,0,P|136:224|166:150,1,150,6|8,0:0|0:0,0:0:0:0:
239,95,23037,1,0,0:0:0:0:
328,140,23337,1,2,0:0:0:0:
328,140,23487,2,0,L|352:264,1,112.5,0|8,0:0|0:0,0:0:0:0:
376,348,24237,1,0,0:0:0:0:
412,329,24387,1,0,0:0:0:0:
445,305,24537,86,0,P|457:270|418:168,1,150,2|8,0:0|0:0,0:0:0:0:
328,140,25437,1,0,0:0:0:0:
352,47,25737,2,0,P|315:61|261:51,1,75,2|0,0:0|0:0,0:0:0:0:
186,37,26337,86,0,B|158:45|133:34|133:34|122:58|71:73,1,112.5,10|0,0:1|0:0,0:0:0:0:
29,107,26937,1,8,0:1:0:0:
72,215,27237,70,0,L|164:208,1,75,0|8,0:0|0:0,0:0:0:0:
230,149,27837,1,0,0:0:0:0:
230,149,28137,2,0,L|345:158,1,112.5,2|0,0:0|0:0,0:0:0:0:
383,161,28737,1,8,0:0:0:0:
431,257,29037,1,0,0:0:0:0:
353,311,29337,6,0,P|304:294|216:327,1,150,2|8,0:0|0:0,0:0:0:0:
156,380,30237,1,0,0:0:0:0:
92,318,30537,2,0,P|107:276|104:232,1,75,2|0,0:0|0:0,0:0:0:0:
173,194,31137,38,0,B|177:163|167:142|167:142|181:121|174:84,1,112.5,8|0,0:1|0:0,0:0:0:0:
218,29,31737,1,10,0:1:0:0:
320,137,32037,85,2,0:0:0:0:
320,137,32337,2,0,L|316:222,1,75,8|0,0:0|0:0,0:0:0:0:
230,227,32937,1,0,0:0:0:0:
230,227,33087,2,0,P|258:275|329:283,1,112.5,0|8,0:0|0:0,0:0:0:0:
389,253,33837,1,0,0:0:0:0:
482,283,34137,86,0,B|493:196|458:214|473:132,1,150,2|8,0:0|0:0,0:0:0:0:
495,60,35037,2,0,P|441:61|391:144,1,150,0|0,0:0|0:0,0:0:0:0:
288,199,35937,70,0,B|255:208|232:194|232:194|205:208|154:188,1,112.5,8|0,0:1|0:0,0:0:0:0:
112,169,36537,1,10,0:1:0:0:
74,57,36837,6,0,P|118:67|155:61,1,75,2|8,0:0|0:0,0:0:0:0:
223,44,37437,1,0,0:0:0:0:
223,44,37587,2,0,P|257:42|332:78,1,112.5,0|0,0:0|0:0,0:0:0:0:
393,130,38337,1,8,0:0:0:0:
362,220,38637,1,0,0:0:0:0:
362,220,38787,38,0,P|327:221|252:185,1,112.5,0|0,0:0|0:0,0:0:0:0:
188,131,39537,1,8,0:0:0:0:
127,208,39837,1,0,0:0:0:0:
52,284,40137,2,0,L|38:200,1,75,2|0,0:0|0:0,0:0:0:0:
24,110,40737,86,0,B|48:116|75:139|75:139|96:123|142:128,1,112.5,10|0,0:1|0:0,0:0:0:0:
196,124,41337,1,10,0:1:0:0:
297,226,41637,86,0,P|339:217|367:186,1,75,0|0,0:0|0:0,0:0:0:0:
404,137,42237,1,2,0:0:0:0:
389,61,42537,1,2,0:0:0:0:
320,25,42837,1,2,0:0:0:0:
249,54,43137,2,0,P|203:64|173:58,1,75,8|0,0:0|0:0,0:0:0:0:
117,171,43737,70,0,P|208:149|266:162,1,150,2|8,0:0|0:0,0:0:0:0:
337,188,44637,1,0,0:0:0:0:
359,153,44787,1,0,0:0:0:0:
388,122,44937,2,0,L|397:228,1,75,2|0,0:0|0:0,0:0:0:0:
331,277,45537,2,0,L|325:376,1,75,8|0,0:0|0:0,0:0:0:0:
237,380,46137,6,0,P|175:323|115:332,1,150,2|8,0:0|0:0,0:0:0:0:
47,365,47037,1,2,0:0:0:0:
4,269,47337,1,2,0:0:0:0:
26,166,47637,1,2,0:0:0:0:
97,121,47937,2,0,L|188:105,1,75,2|0,0:0|0:0,0:0:0:0:
210,99,48387,1,0,0:0:0:0:
250,92,48537,38,0,P|303:85|339:56,1,75,2|0,0:0|0:0,0:0:0:0:
180,26,49137,2,0,P|126:32|90:61,1,75,8|0,0:0|0:0,0:0:0:0:
17,145,49737,2,0,P|70:138|106:109,1,75,2|0,0:0|0:0,0:0:0:0:
250,72,50337,86,0,B|260:104|252:125|252:125|264:149|255:186,1,112.5,10|0,0:1|0:0,0:0:0:0:
241,254,50937,1,6,0:0:0:0:
329,324,51237,86,0,P|372:308|409:321,2,86.2500016450882,0|8|0,0:0|0:0|0:0,0:0:0:0:
265,372,51987,1,0,0:0:0:0:
265,372,52137,2,0,P|250:332|261:283,1,86.2500016450882,0|2,0:0|0:0,0:0:0:0:
185,239,52737,2,8,P|198:186|189:150,1,86.2500016450882,8|2,0:0|0:0,0:0:0:0:
87,66,53337,70,0,P|144:14|237:32,1,172.500003290176,8|8,0:1|0:0,0:0:0:0:
299,84,54237,1,2,0:0:0:0:
385,105,54537,2,0,P|428:103|467:87,1,86.2500016450882,0|2,0:0|0:0,0:0:0:0:
492,222,55137,2,0,P|452:205|409:203,1,86.2500016450882,8|2,0:0|0:0,0:0:0:0:
264,200,55737,6,0,P|202:201|146:222,1,86.2500016450882,8|2,0:1|0:0,0:0:0:0:
128,276,56337,1,8,0:0:0:0:
57,335,56637,2,0,L|45:222,1,86.2500016450882,2|0,0:0|0:0,0:0:0:0:
12,161,57237,2,0,P|62:154|100:170,1,86.2500016450882,0|10,0:0|0:0,0:0:0:0:
174,195,57837,1,2,0:0:0:0:
306,96,58137,38,0,P|319:131|314:180,1,86.2500016450882,8|0,0:1|0:0,0:0:0:0:
298,254,58737,1,8,0:0:0:0:
263,247,58887,1,0,0:0:0:0:
228,251,59037,1,0,0:0:0:0:
124,287,59337,2,0,P|79:283|39:258,1,86.2500016450882,2|2,0:0|0:0,0:0:0:0:
84,102,59937,2,0,P|126:104|163:125,1,86.2500016450882,10|2,0:0|0:0,0:0:0:0:
275,253,60537,86,0,L|282:159,2,86.2500016450882,4|2|8,0:2|0:0|0:0,0:0:0:0:
307,330,61437,1,0,0:0:0:0:
272,336,61587,1,0,0:0:0:0:
235,332,61737,2,0,P|174:319|151:295,1,86.2500016450882,0|2,0:0|0:0,0:0:0:0:
201,229,62337,2,0,P|262:242|285:266,1,86.2500016450882,8|2,0:0|0:0,0:0:0:0:
364,324,62937,86,0,L|381:238,1,86.2500016450882,8|2,0:1|0:0,0:0:0:0:
460,143,63537,2,0,L|477:227,1,86.2500016450882,8|2,0:0|0:0,0:0:0:0:
485,269,63987,1,0,0:0:0:0:
493,309,64137,1,0,0:0:0:0:
432,376,64437,2,0,B|330:325|374:391|265:335,1,172.500003290176,2|2,0:0|0:0,0:0:0:0:
158,231,65337,70,0,P|153:150|212:75,1,172.500003290176,8|8,0:1|0:0,0:0:0:0:
320,86,66237,1,0,0:0:0:0:
339,114,66387,1,0,0:0:0:0:
357,143,66537,2,0,P|362:178|354:233,1,86.2500016450882,0|2,0:0|0:0,0:0:0:0:
311,306,67137,1,8,0:0:0:0:
212,343,67437,1,2,0:0:0:0:
110,316,67737,6,0,P|52:290|17:187,1,172.500003290176,8|8,0:1|0:0,0:0:0:0:
44,107,68637,1,0,0:0:0:0:
68,66,68787,1,0,0:0:0:0:
95,27,68937,2,0,P|133:48|186:37,1,86.2500016450882,2|2,0:0|0:0,0:0:0:0:
247,214,69537,2,0,P|209:194|156:205,1,86.2500016450882,8|2,0:0|0:0,0:0:0:0:
256,192,70137,12,0,72537,0:0:0:0:
