osu file format v14

[General]
AudioFilename: audio.mp3
AudioLeadIn: 0
PreviewTime: 192296
Countdown: 0
SampleSet: None
StackLeniency: 0.5
Mode: 0
LetterboxInBreaks: 0
WidescreenStoryboard: 0

[Editor]
DistanceSpacing: 0.8
BeatDivisor: 4
GridSize: 32
TimelineZoom: 2.4

[Metadata]
Title:Two souls -toward the truth-
TitleUnicode:Two souls -toward the truth-
Artist:fripSide
ArtistUnicode:fripSide
Creator:Nevertary
Version:Judgement Day
Source:終わりのセラフ 名古屋決戦編
Tags:owari no seraph kessen hen of the end battle in nagoya
BeatmapID:1911140
BeatmapSetID:915103

[Difficulty]
HPDrainRate:6
CircleSize:4
OverallDifficulty:9
ApproachRate:9
SliderMultiplier:1.9
SliderTickRate:1

[Events]
//Background and Video events
0,0,"BG.png",0,0
//Break Periods
2,123023,132841
2,230841,239568
//Storyboard Layer 0 (Background)
//Storyboard Layer 1 (Fail)
//Storyboard Layer 2 (Pass)
//Storyboard Layer 3 (Foreground)
//Storyboard Sound Samples

[TimingPoints]
478,363.636363636364,4,2,1,55,1,0
478,-117.647058823529,4,2,1,55,0,0
6296,-111.111111111111,4,2,1,60,0,0
29568,-142.857142857143,4,2,1,40,0,0
41205,-133.333333333333,4,2,1,45,0,0
52114,-105.263157894737,4,2,1,65,0,0
52841,-125,4,2,1,50,0,0
64478,-117.647058823529,4,2,1,55,0,0
75387,-181.818181818181,4,2,1,60,0,0
75750,-181.818181818181,4,2,1,65,0,0
76114,-100,4,2,1,70,0,1
99387,-111.111111111111,4,2,1,60,0,0
122659,-153.846153846154,4,2,1,35,0,0
134296,-133.333333333333,4,2,1,45,0,0
145205,-105.263157894737,4,2,1,65,0,0
145932,-125,4,2,1,50,0,0
157568,-117.647058823529,4,2,1,55,0,0
168478,-181.818181818181,4,2,1,60,0,0
168841,-181.818181818181,4,2,1,65,0,0
169205,-100,4,2,1,70,0,1
192478,-100,4,2,1,70,0,0
207023,-111.111111111111,4,2,1,60,0,0
218659,-105.263157894737,4,2,1,65,0,0
224478,-100,4,2,1,70,0,0
227387,-83.3333333333333,4,2,1,90,0,0
228114,-90.9090909090909,4,2,1,80,0,0
228659,-76.9230769230769,4,2,1,95,0,0
229205,-100,4,2,1,70,0,0
230296,-166.666666666667,4,2,1,30,0,0
240296,-125,4,2,1,50,0,0
241387,-111.111111111111,4,2,1,60,0,0
241932,-100,4,2,1,70,0,1
252841,-100,4,2,1,70,0,0
253568,-90.9090909090909,4,2,1,80,0,1
276841,-100,4,2,1,70,0,0

[Colours]
Combo1 : 128,128,192
Combo2 : 34,124,179
SliderBorder : 191,21,115

[HitObjects]
256,192,3387,12,0,4659,0:0:0:0:
137,38,5023,5,2,0:0:0:0:
194,181,5205,1,2,0:0:0:0:
336,71,5387,1,8,0:0:0:0:
336,71,5478,1,8,0:0:0:0:
336,71,5568,2,0,P|287:76|249:81,1,80.750001540184,8|0,0:0|0:0,0:0:0:0:
67,167,5932,2,0,L|61:122,1,40.375000770092,6|2,0:0|0:0,0:0:0:0:
194,181,6114,2,0,L|200:226,1,40.375000770092,2|2,0:0|0:0,0:0:0:0:
52,319,6296,6,0,P|93:310|136:304,1,85.4999973907472,4|0,0:0|0:0,0:0:0:0:
279,361,6659,2,0,P|287:319|293:276,1,85.4999973907472,8|0,0:0|0:0,0:0:0:0:
288,100,7023,1,2,0:0:0:0:
389,232,7205,1,2,0:0:0:0:
194,181,7387,1,8,0:0:0:0:
52,356,7568,6,0,P|42:286|35:184,1,170.999994781494,6|2,0:0|0:0,0:0:0:0:
144,28,8114,2,0,P|136:81|127:123,1,85.4999973907472,8|2,0:0|0:0,0:0:0:0:
118,156,8387,1,2,0:0:0:0:
118,156,8478,1,2,0:0:0:0:
241,64,8659,1,2,0:0:0:0:
351,223,8841,2,0,P|392:214|435:208,1,85.4999973907472,8|0,0:0|0:0,0:0:0:0:
263,366,9205,6,0,P|225:373|165:351,1,85.4999973907472,6|0,0:0|0:0,0:0:0:0:
21,283,9568,2,0,P|29:336|38:378,1,85.4999973907472,8|0,0:0|0:0,0:0:0:0:
98,198,9932,1,2,0:0:0:0:
227,280,10114,1,2,0:0:0:0:
312,122,10296,1,8,0:0:0:0:
456,267,10478,6,0,P|414:258|371:252,1,85.4999973907472,6|0,0:0|0:0,0:0:0:0:
218,172,10841,1,2,0:0:0:0:
306,331,11023,1,8,0:0:0:0:
121,264,11205,1,2,0:0:0:0:
121,264,11296,1,2,0:0:0:0:
121,264,11387,1,2,0:0:0:0:
297,205,11568,1,2,0:0:0:0:
190,355,11750,1,8,0:0:0:0:
133,141,11932,1,8,0:0:0:0:
133,141,12023,1,8,0:0:0:0:
133,141,12114,6,0,P|159:102|209:78,1,85.4999973907472,6|0,0:0|0:0,0:0:0:0:
371,34,12478,2,0,P|363:75|357:118,1,85.4999973907472,8|0,0:0|0:0,0:0:0:0:
341,287,12841,1,2,0:0:0:0:
218,172,13023,1,2,0:0:0:0:
409,204,13205,1,8,0:0:0:0:
217,359,13387,6,0,P|208:317|202:274,1,85.4999973907472,6|0,0:0|0:0,0:0:0:0:
58,110,13750,1,2,0:0:0:0:
116,263,13932,1,8,0:0:0:0:
199,101,14114,1,2,0:0:0:0:
199,101,14205,1,2,0:0:0:0:
199,101,14296,1,2,0:0:0:0:
254,257,14478,1,2,0:0:0:0:
84,187,14659,1,8,0:0:0:0:
282,121,14841,1,0,0:0:0:0:
421,331,15023,6,0,P|430:289|436:246,1,85.4999973907472,6|0,0:0|0:0,0:0:0:0:
392,44,15387,2,0,P|383:86|377:129,1,85.4999973907472,8|0,0:0|0:0,0:0:0:0:
254,257,15750,1,2,0:0:0:0:
282,121,15932,1,2,0:0:0:0:
350,292,16114,1,8,0:0:0:0:
140,367,16296,6,0,P|131:325|125:282,1,85.4999973907472,6|0,0:0|0:0,0:0:0:0:
321,206,16659,1,2,0:0:0:0:
244,345,16841,1,8,0:0:0:0:
180,147,17023,1,2,0:0:0:0:
40,290,17205,1,8,0:0:0:0:
11,252,17296,1,8,0:0:0:0:
0,206,17387,1,8,0:0:0:0:
13,161,17478,1,8,0:0:0:0:
41,125,17568,2,0,P|51:90|54:73,1,42.7499986953736,8|8,0:0|0:0,0:0:0:0:
137,254,17750,2,0,P|141:274|148:295,1,42.7499986953736,8|8,0:0|0:0,0:0:0:0:
232,88,17932,6,0,P|267:65|326:68,1,85.4999973907472,6|0,0:0|0:0,0:0:0:0:
474,129,18296,2,0,P|468:86|459:44,1,85.4999973907472,8|0,0:0|0:0,0:0:0:0:
419,256,18659,1,2,0:0:0:0:
294,146,18841,1,2,0:0:0:0:
289,323,19023,1,8,0:0:0:0:
126,164,19205,6,0,P|131:249|142:334,1,170.999994781494,6|2,0:0|0:0,0:0:0:0:
290,233,19750,2,0,P|332:239|374:247,1,85.4999973907472,8|2,0:0|0:0,0:0:0:0:
419,256,20023,1,2,0:0:0:0:
419,256,20114,1,2,0:0:0:0:
340,144,20296,1,2,0:0:0:0:
219,320,20478,2,0,P|210:278|204:235,1,85.4999973907472,8|0,0:0|0:0,0:0:0:0:
238,29,20841,6,0,P|250:69|235:126,1,85.4999973907472,6|0,0:0|0:0,0:0:0:0:
19,27,21205,2,0,P|61:31|103:40,1,85.4999973907472,8|0,0:0|0:0,0:0:0:0:
47,230,21568,1,2,0:0:0:0:
190,172,21750,1,2,0:0:0:0:
5,126,21932,1,8,0:0:0:0:
22,343,22114,6,0,P|64:337|106:328,1,85.4999973907472,6|0,0:0|0:0,0:0:0:0:
279,217,22478,1,2,0:0:0:0:
205,372,22659,1,8,0:0:0:0:
140,193,22841,1,2,0:0:0:0:
140,193,22932,1,2,0:0:0:0:
140,193,23023,1,2,0:0:0:0:
275,313,23205,1,2,0:0:0:0:
281,122,23387,1,8,0:0:0:0:
115,283,23568,1,8,0:0:0:0:
115,283,23659,1,8,0:0:0:0:
115,283,23750,6,0,P|76:264|51:230,1,85.4999973907472,6|0,0:0|0:0,0:0:0:0:
155,20,24114,2,0,P|160:62|170:104,1,85.4999973907472,8|0,0:0|0:0,0:0:0:0:
344,195,24478,1,2,0:0:0:0:
140,193,24659,1,2,0:0:0:0:
281,122,24841,1,8,0:0:0:0:
400,313,25023,6,0,P|442:307|484:298,1,85.4999973907472,6|0,0:0|0:0,0:0:0:0:
194,279,25387,1,2,0:0:0:0:
344,195,25568,1,8,0:0:0:0:
277,367,25750,1,2,0:0:0:0:
277,367,25841,1,2,0:0:0:0:
277,367,25932,1,2,0:0:0:0:
241,187,26114,1,2,0:0:0:0:
400,313,26296,1,8,0:0:0:0:
432,123,26478,1,0,0:0:0:0:
194,279,26659,5,6,0:0:0:0:
113,72,26841,1,0,0:0:0:0:
344,195,27023,1,8,0:0:0:0:
93,261,27205,2,0,P|85:219|80:176,1,85.4999973907472,0|2,0:0|0:0,0:0:0:0:
285,105,27568,1,2,0:0:0:0:
194,279,27750,1,8,0:0:0:0:
240,34,27932,6,0,P|280:22|337:37,1,85.4999973907472,6|0,0:0|0:0,0:0:0:0:
388,232,28296,2,0,P|348:244|291:229,1,85.4999973907472,2|8,0:0|0:0,0:0:0:0:
128,77,28659,1,8,0:0:0:0:
128,77,28750,1,8,0:0:0:0:
128,77,28841,2,0,P|126:52|125:28,1,42.7499986953736,2|0,0:0|0:0,0:0:0:0:
16,145,29023,1,8,0:0:0:0:
0,183,29114,1,8,0:0:0:0:
0,224,29205,1,8,0:0:0:0:
11,264,29296,1,8,0:0:0:0:
35,298,29387,1,8,0:0:0:0:
68,317,29478,1,8,0:0:0:0:
105,321,29568,6,0,L|174:310,1,66.4999979705811,6|0,0:0|0:0,0:0:0:0:
247,243,29932,2,0,L|316:254,1,66.4999979705811,2|0,0:0|0:0,0:0:0:0:
424,275,30296,2,0,P|416:309|422:345,2,66.4999979705811,2|0|2,0:0|0:0|0:0,0:0:0:0:
466,170,30841,6,0,P|486:101|456:39,1,132.999995941162
359,22,31387,1,2,0:0:0:0:
290,104,31568,2,0,P|298:174|311:244,2,132.999995941162
203,37,32478,6,0,P|169:29|133:35,1,66.4999979705811,2|0,0:0|0:0,0:0:0:0:
9,113,32841,2,0,P|43:105|79:111,1,66.4999979705811,2|0,0:0|0:0,0:0:0:0:
186,144,33205,2,0,L|175:213,2,66.4999979705811,2|0|2,0:0|0:0|0:0,0:0:0:0:
112,277,33750,6,0,P|173:299|235:279,1,132.999995941162
319,207,34296,1,2,0:0:0:0:
424,237,34478,2,0,B|416:307|403:377,2,132.999995941162
354,135,35387,6,0,P|320:127|284:133,1,66.4999979705811,2|0,0:0|0:0,0:0:0:0:
208,195,35750,1,2,0:0:0:0:
86,132,35932,2,0,L|97:201,2,66.4999979705811,0|2|0,0:0|0:0|0:0,0:0:0:0:
65,298,36478,2,0,P|97:305|129:301,1,66.4999979705811,2|0,0:0|0:0,0:0:0:0:
208,195,36841,6,0,P|204:227|212:260,1,66.4999979705811,2|0,0:0|0:0,0:0:0:0:
258,359,37205,1,2,0:0:0:0:
357,283,37387,2,0,P|427:291|497:304,2,132.999995941162
212,260,38296,6,0,P|204:227|208:195,1,66.4999979705811,2|0,0:0|0:0,0:0:0:0:
272,103,38659,1,2,0:0:0:0:
353,174,38841,2,0,P|414:196|476:176,1,132.999995941162
415,107,39387,1,2,0:0:0:0:
405,274,39568,1,0,0:0:0:0:
270,203,39750,6,0,P|200:197|130:193,1,132.999995941162,2|2,0:0|0:0,0:0:0:0:
32,155,40296,1,0,0:0:0:0:
19,298,40478,2,0,P|89:292|159:288,1,132.999995941162,2|2,0:0|0:0,0:0:0:0:
258,333,41023,1,2,0:0:0:0:
344,216,41205,6,0,P|352:182|345:147,1,71.2500027179719,6|0,0:0|0:0,0:0:0:0:
205,182,41568,2,0,P|239:190|274:183,1,71.2500027179719,2|0,0:0|0:0,0:0:0:0:
230,42,41932,2,0,L|240:112,2,71.2500027179719,2|0|2,0:0|0:0|0:0,0:0:0:0:
366,75,42478,6,0,L|343:220,1,142.500005435944
261,300,43023,1,2,0:0:0:0:
178,210,43205,2,0,P|107:184|45:213,1,142.500005435944
104,341,43750,2,0,L|114:271,1,71.2500027179719,2|0,0:0|0:0,0:0:0:0:
254,152,44114,6,0,L|264:222,1,71.2500027179719,2|0,0:0|0:0,0:0:0:0:
372,117,44478,2,0,L|362:187,1,71.2500027179719,2|0,0:0|0:0,0:0:0:0:
336,45,44841,2,0,P|370:37|405:44,2,71.2500027179719,2|0|2,0:0|0:0|0:0,0:0:0:0:
254,152,45387,6,0,P|183:178|121:149,1,142.500005435944
43,84,45932,1,2,0:0:0:0:
13,214,46114,1,0,0:0:0:0:
13,214,46296,2,0,L|36:359,1,142.500005435944,2|2,0:0|0:0,0:0:0:0:
114,270,46841,1,0,0:0:0:0:
197,350,47023,6,0,P|231:358|266:351,2,71.2500027179719,6|0|2,0:0|0:0|0:0,0:0:0:0:
114,270,47568,2,0,B|132:223|132:223|115:118,1,142.500005435944
151,23,48114,1,2,0:0:0:0:
228,107,48296,1,0,0:0:0:0:
307,23,48478,6,0,P|341:15|376:22,2,71.2500027179719,2|0|2,0:0|0:0|0:0,0:0:0:0:
228,107,49023,1,2,0:0:0:0:
228,107,49114,1,2,0:0:0:0:
228,107,49205,2,0,B|210:154|210:154|227:259,1,142.500005435944,2|2,0:0|0:0,0:0:0:0:
326,161,49750,1,0,0:0:0:0:
412,246,49932,6,0,P|447:255|481:247,1,71.2500027179719,6|0,0:0|0:0,0:0:0:0:
447,110,50296,2,0,P|438:145|446:179,1,71.2500027179719,2|0,0:0|0:0,0:0:0:0:
410,314,50659,2,0,P|419:279|411:245,1,71.2500027179719,2|0,0:0|0:0,0:0:0:0:
326,161,51023,1,2,0:0:0:0:
217,270,51205,6,0,L|147:258,1,71.2500027179719,0|6,0:0|0:0,0:0:0:0:
234,182,51568,1,0,0:0:0:0:
307,307,51750,1,2,0:0:0:0:
406,206,51932,1,2,0:0:0:0:
406,206,52023,1,2,0:0:0:0:
406,206,52114,2,0,L|424:113,1,90.2499975900651,6|0,0:0|0:0,0:0:0:0:
205,53,52478,2,0,L|222:141,1,90.2499975900651,6|0,0:0|0:0,0:0:0:0:
227,366,52841,5,6,0:0:0:0:
61,300,53023,2,0,P|105:290|146:282,1,76,2|0,0:0|0:0,0:0:0:0:
251,221,53387,5,2,0:0:0:0:
85,155,53569,2,0,P|129:145|170:137,1,76,2|0,0:0|0:0,0:0:0:0:
333,129,53932,5,2,0:0:0:0:
267,295,54114,2,0,P|257:251|249:210,1,76,2|0,0:0|0:0,0:0:0:0:
420,108,54478,2,0,P|412:145|403:182,1,76,2|0,0:0|0:0,0:0:0:0:
360,42,54841,1,2,0:0:0:0:
360,42,54932,1,2,0:0:0:0:
360,42,55023,1,2,0:0:0:0:
54,215,55750,5,6,0:0:0:0:
32,34,55932,2,0,L|20:113,1,76,2|0,0:0|0:0,0:0:0:0:
152,240,56296,5,2,0:0:0:0:
130,59,56478,2,0,L|118:138,1,76,2|0,0:0|0:0,0:0:0:0:
86,349,56841,5,2,0:0:0:0:
267,327,57023,2,0,L|188:315,1,76,2|0,0:0|0:0,0:0:0:0:
28,254,57387,2,0,L|107:242,1,76,2|0,0:0|0:0,0:0:0:0:
223,145,57750,1,2,0:0:0:0:
358,271,57932,5,2,0:0:0:0:
386,268,58023,1,0,0:0:0:0:
409,252,58114,1,0,0:0:0:0:
428,227,58205,1,0,0:0:0:0:
433,196,58296,2,0,P|429:179|426:150,1,38,2|0,0:0|0:0,0:0:0:0:
327,75,58478,2,0,P|326:94|323:113,1,38,2|0,0:0|0:0,0:0:0:0:
267,327,58659,5,6,0:0:0:0:
101,261,58841,2,0,P|145:251|186:243,1,76,2|0,0:0|0:0,0:0:0:0:
9,209,59205,5,2,0:0:0:0:
175,143,59387,2,0,P|131:133|90:125,1,76,2|0,0:0|0:0,0:0:0:0:
261,229,59750,5,2,0:0:0:0:
327,63,59932,2,0,P|337:107|345:148,1,76,2|0,0:0|0:0,0:0:0:0:
188,309,60296,2,0,P|178:265|170:224,1,76,2|0,0:0|0:0,0:0:0:0:
286,345,60659,1,2,0:0:0:0:
286,345,60750,1,2,0:0:0:0:
286,345,60841,1,2,0:0:0:0:
302,27,61568,5,6,0:0:0:0:
379,190,61750,2,0,P|388:155|379:112,1,76,2|0,0:0|0:0,0:0:0:0:
209,26,62114,5,2,0:0:0:0:
132,189,62296,2,0,P|123:154|132:111,1,76,2|0,0:0|0:0,0:0:0:0:
209,266,62659,5,2,0:0:0:0:
379,190,62841,2,0,P|344:181|301:190,1,76,2|0,0:0|0:0,0:0:0:0:
428,346,63205,2,0,P|463:355|506:346,1,76,2|0,0:0|0:0,0:0:0:0:
472,233,63568,1,2,0:0:0:0:
472,233,63659,1,2,0:0:0:0:
472,233,63750,6,0,L|467:271,1,38,8|0,0:0|0:0,0:0:0:0:
383,152,63932,2,0,L|378:190,1,38,8|0,0:0|0:0,0:0:0:0:
473,110,64114,2,0,L|468:148,1,38,8|0,0:0|0:0,0:0:0:0:
384,29,64296,2,0,L|379:67,1,38,8|0,0:0|0:0,0:0:0:0:
338,277,64478,6,0,P|296:268|256:262,1,80.750001540184,6|0,0:0|0:0,0:0:0:0:
100,221,64841,2,0,P|106:260|114:300,1,80.750001540184,8|0,0:0|0:0,0:0:0:0:
245,171,65205,2,0,P|253:129|260:89,1,80.750001540184,2|0,0:0|0:0,0:0:0:0:
133,54,65568,1,8,0:0:0:0:
353,35,65750,6,0,P|346:74|338:114,1,80.750001540184,0|2,0:0|0:0,0:0:0:0:
303,264,66114,1,0,0:0:0:0:
440,207,66296,1,8,0:0:0:0:
245,171,66478,2,0,P|203:162|163:156,1,80.750001540184,0|2,0:0|0:0,0:0:0:0:
0,106,66841,1,0,0:0:0:0:
76,245,67023,1,8,0:0:0:0:
107,44,67205,1,8,0:0:0:0:
107,44,67296,1,8,0:0:0:0:
107,44,67387,6,0,P|143:35|191:48,1,80.750001540184,6|0,0:0|0:0,0:0:0:0:
242,205,67750,2,0,P|233:168|246:121,1,80.750001540184,8|0,0:0|0:0,0:0:0:0:
450,182,68114,1,2,0:0:0:0:
314,166,68296,1,0,0:0:0:0:
456,69,68478,1,8,0:0:0:0:
443,273,68659,6,0,L|354:260,1,80.750001540184,0|2,0:0|0:0,0:0:0:0:
192,205,69023,1,0,0:0:0:0:
296,324,69205,1,8,0:0:0:0:
314,166,69387,1,8,0:0:0:0:
314,166,69478,1,8,0:0:0:0:
314,166,69568,1,2,0:0:0:0:
175,311,69750,1,0,0:0:0:0:
304,243,69932,1,8,0:0:0:0:
115,173,70114,1,8,0:0:0:0:
115,173,70205,1,8,0:0:0:0:
115,173,70296,6,0,P|75:165|36:174,1,80.750001540184,6|0,0:0|0:0,0:0:0:0:
193,213,70659,2,0,P|202:178|194:133,1,80.750001540184,8|0,0:0|0:0,0:0:0:0:
123,34,71023,1,2,0:0:0:0:
299,84,71205,2,0,P|341:75|381:69,1,80.750001540184,0|8,0:0|0:0,0:0:0:0:
448,241,71568,6,0,P|409:233|369:226,1,80.750001540184,4|2,0:0|0:0,0:0:0:0:
188,186,71932,1,0,0:0:0:0:
293,303,72114,1,8,0:0:0:0:
108,372,72296,2,0,P|100:333|93:293,1,80.750001540184,0|2,0:0|0:0,0:0:0:0:
136,127,72659,1,0,0:0:0:0:
241,244,72841,1,8,0:0:0:0:
80,208,73023,1,2,0:0:0:0:
251,111,73205,5,6,0:0:0:0:
268,103,73296,1,0,0:0:0:0:
294,96,73387,1,0,0:0:0:0:
325,97,73478,1,0,0:0:0:0:
359,113,73568,1,8,0:0:0:0:
397,127,73659,1,0,0:0:0:0:
441,129,73750,1,0,0:0:0:0:
484,111,73841,1,0,0:0:0:0:
512,70,73932,6,0,P|508:49|501:30,1,40.375000770092,2|0,0:0|0:0,0:0:0:0:
412,205,74114,2,0,P|415:224|422:243,1,40.375000770092
307,58,74296,2,0,P|303:37|296:18,1,40.375000770092,8|0,0:0|0:0,0:0:0:0:
203,292,74478,6,0,P|209:331|217:371,1,80.750001540184,6|0,0:0|0:0,0:0:0:0:
51,140,74841,2,0,P|44:179|36:219,1,80.750001540184,6|0,0:0|0:0,0:0:0:0:
311,97,75205,2,0,P|307:73|306:54,1,40.375000770092,2|2,0:0|0:0,0:0:0:0:
412,205,75387,6,0,P|370:196|327:208,1,78.3750023918153,12|0,0:0|0:0,0:0:0:0:
296,231,75750,1,8,0:0:0:0:
270,273,75841,1,8,0:0:0:0:
230,300,75932,1,8,0:0:0:0:
181,300,76023,1,8,0:0:0:0:
136,279,76114,6,0,P|128:229|121:171,1,95,6|0,0:0|0:0,0:0:0:0:
191,41,76478,1,8,0:0:0:0:
340,159,76659,2,0,P|390:151|448:144,1,95,0|2,0:0|0:0,0:0:0:0:
270,273,77023,1,2,0:0:0:0:
285,69,77205,1,8,0:0:0:0:
87,239,77387,6,0,P|42:208|34:121,1,142.5,6|0,0:0|0:0,0:0:0:0:
54,80,77750,1,2,0:0:0:0:
180,214,77932,1,8,0:0:0:0:
285,69,78114,1,2,0:0:0:0:
285,69,78205,1,2,0:0:0:0:
285,69,78296,1,2,0:0:0:0:
109,158,78478,1,2,0:0:0:0:
263,319,78659,2,0,P|275:264|260:217,1,95,8|0,0:0|0:0,0:0:0:0:
55,237,79023,5,6,0:0:0:0:
200,118,79205,1,0,0:0:0:0:
153,317,79387,1,8,0:0:0:0:
42,66,79568,2,0,P|34:116|27:174,1,95,0|2,0:0|0:0,0:0:0:0:
269,34,79932,2,0,P|277:84|284:142,1,95,2|8,0:0|0:0,0:0:0:0:
66,307,80296,6,0,P|93:254|182:233,1,142.5,6|0,0:0|0:0,0:0:0:0:
218,245,80659,1,2,0:0:0:0:
129,89,80841,1,8,0:0:0:0:
311,212,81023,1,2,0:0:0:0:
311,212,81114,1,2,0:0:0:0:
311,212,81205,1,2,0:0:0:0:
325,45,81387,1,2,0:0:0:0:
173,168,81568,1,8,0:0:0:0:
389,127,81750,1,2,0:0:0:0:
389,127,81841,1,2,0:0:0:0:
389,127,81932,5,6,0:0:0:0:
311,332,82114,1,0,0:0:0:0:
445,200,82296,1,8,0:0:0:0:
238,271,82478,2,0,P|188:263|130:256,1,95,0|2,0:0|0:0,0:0:0:0:
264,106,82841,1,2,0:0:0:0:
376,268,83023,1,8,0:0:0:0:
383,62,83205,1,6,0:0:0:0:
187,175,83387,5,0,0:0:0:0:
382,165,83568,1,2,0:0:0:0:
209,40,83750,1,8,0:0:0:0:
264,267,83932,1,2,0:0:0:0:
264,267,84023,1,2,0:0:0:0:
264,267,84114,1,2,0:0:0:0:
101,148,84296,1,2,0:0:0:0:
4,324,84478,2,0,P|54:316|112:309,1,95,8|0,0:0|0:0,0:0:0:0:
27,58,84841,5,6,0:0:0:0:
181,209,85023,1,0,0:0:0:0:
145,41,85205,1,8,0:0:0:0:
25,236,85387,2,0,P|17:186|10:128,1,95,0|2,0:0|0:0,0:0:0:0:
247,30,85750,2,0,P|241:77|233:124,1,95,2|8,0:0|0:0,0:0:0:0:
101,335,86114,6,0,P|171:322|241:312,1,142.5,6|0,0:0|0:0,0:0:0:0:
294,310,86478,1,2,0:0:0:0:
149,215,86659,1,8,0:0:0:0:
367,140,86841,2,0,L|302:148,1,47.5,2|2,0:0|0:0,0:0:0:0:
135,32,87023,1,8,0:0:0:0:
377,54,87205,6,0,L|312:62,1,47.5,8|8,0:0|0:0,0:0:0:0:
141,122,87387,2,0,L|205:130,1,47.5,8|8,0:0|0:0,0:0:0:0:
361,227,87568,2,0,L|296:236,1,47.5,8|8,0:0|0:0,0:0:0:0:
79,274,87750,6,0,P|84:321|92:368,1,95,6|0,0:0|0:0,0:0:0:0:
229,204,88114,1,8,0:0:0:0:
62,48,88296,2,0,P|54:98|47:156,1,95,0|2,0:0|0:0,0:0:0:0:
182,290,88659,1,2,0:0:0:0:
145,97,88841,1,8,0:0:0:0:
403,73,89023,6,0,P|392:143|379:213,1,142.5,6|0,0:0|0:0,0:0:0:0:
369,266,89387,1,2,0:0:0:0:
256,122,89568,1,8,0:0:0:0:
181,284,89750,1,2,0:0:0:0:
181,284,89841,1,2,0:0:0:0:
181,284,89932,1,2,0:0:0:0:
68,137,90114,1,2,0:0:0:0:
0,333,90296,2,0,P|50:325|108:318,1,95,8|0,0:0|0:0,0:0:0:0:
164,127,90659,5,6,0:0:0:0:
291,271,90841,1,0,0:0:0:0:
344,79,91023,1,8,0:0:0:0:
216,319,91205,2,0,P|204:264|219:217,1,95,0|2,0:0|0:0,0:0:0:0:
417,133,91568,2,0,P|429:188|414:235,1,95,2|8,0:0|0:0,0:0:0:0:
158,51,91932,6,0,B|245:43|211:95|304:84,1,142.5,6|0,0:0|0:0,0:0:0:0:
344,79,92296,1,2,0:0:0:0:
177,134,92478,1,8,0:0:0:0:
323,265,92659,1,2,0:0:0:0:
323,265,92750,1,2,0:0:0:0:
323,265,92841,1,2,0:0:0:0:
157,317,93023,1,2,0:0:0:0:
281,163,93205,1,8,0:0:0:0:
59,105,93387,1,8,0:0:0:0:
59,105,93478,1,8,0:0:0:0:
59,105,93568,6,0,P|64:152|72:199,1,95,6|0,0:0|0:0,0:0:0:0:
230,368,93932,2,0,P|237:321|243:273,1,95,8|0,0:0|0:0,0:0:0:0:
206,101,94296,1,2,0:0:0:0:
368,229,94478,2,0,P|414:221|462:215,1,95,2|8,0:0|0:0,0:0:0:0:
251,34,94841,6,0,P|186:26|129:82,1,142.5,6|0,0:0|0:0,0:0:0:0:
113,123,95205,1,2,0:0:0:0:
312,124,95387,1,8,0:0:0:0:
162,268,95568,1,2,0:0:0:0:
162,268,95659,1,2,0:0:0:0:
162,268,95750,1,2,0:0:0:0:
206,101,95932,1,2,0:0:0:0:
280,296,96114,1,8,0:0:0:0:
420,143,96296,1,0,0:0:0:0:
411,352,96478,5,6,0:0:0:0:
312,124,96659,1,0,0:0:0:0:
199,351,96841,1,8,0:0:0:0:
101,125,97023,2,0,P|94:78|88:30,1,95,0|2,0:0|0:0,0:0:0:0:
296,210,97387,1,2,0:0:0:0:
196,65,97568,1,8,0:0:0:0:
60,256,97750,6,0,P|107:249|155:243,1,95,6|0,0:0|0:0,0:0:0:0:
296,29,98114,2,0,P|289:76|283:124,1,95,2|8,0:0|0:0,0:0:0:0:
256,278,98478,1,8,0:0:0:0:
256,278,98568,1,8,0:0:0:0:
256,278,98659,1,2,0:0:0:0:
164,97,98841,1,8,0:0:0:0:
164,97,98932,1,8,0:0:0:0:
164,97,99023,2,0,P|166:122|165:148,1,47.5,8|8,0:0|0:0,0:0:0:0:
79,279,99205,2,0,P|77:254|78:228,1,47.5,8|8,0:0|0:0,0:0:0:0:
276,18,99387,6,0,P|288:58|273:115,1,85.4999973907472,6|0,0:0|0:0,0:0:0:0:
256,278,99750,2,0,P|297:269|340:263,1,85.4999973907472,8|0,0:0|0:0,0:0:0:0:
494,244,100114,1,2,0:0:0:0:
338,169,100296,1,2,0:0:0:0:
406,331,100478,1,8,0:0:0:0:
511,140,100659,6,0,P|459:69|378:73,1,170.999994781494,6|2,0:0|0:0,0:0:0:0:
238,173,101205,2,0,P|197:164|154:158,1,85.4999973907472,8|2,0:0|0:0,0:0:0:0:
114,153,101478,1,2,0:0:0:0:
114,153,101568,1,2,0:0:0:0:
0,68,101750,1,2,0:0:0:0:
0,267,101932,2,0,P|32:239|73:230,1,85.4999973907472,8|0,0:0|0:0,0:0:0:0:
256,347,102296,6,0,P|265:306|271:263,1,85.4999973907472,6|0,0:0|0:0,0:0:0:0:
191,72,102659,2,0,P|196:114|206:156,1,85.4999973907472,8|0,0:0|0:0,0:0:0:0:
305,32,103023,1,2,0:0:0:0:
340,188,103205,1,2,0:0:0:0:
454,65,103387,1,8,0:0:0:0:
486,281,103568,6,0,P|445:272|402:266,1,85.4999973907472,6|0,0:0|0:0,0:0:0:0:
248,246,103932,1,2,0:0:0:0:
388,361,104114,1,8,0:0:0:0:
340,188,104296,1,2,0:0:0:0:
340,188,104387,1,2,0:0:0:0:
340,188,104478,1,2,0:0:0:0:
229,346,104659,1,2,0:0:0:0:
179,155,104841,1,8,0:0:0:0:
61,337,105023,1,8,0:0:0:0:
61,337,105114,1,8,0:0:0:0:
61,337,105205,6,0,P|51:295|45:252,1,85.4999973907472,6|0,0:0|0:0,0:0:0:0:
165,74,105568,2,0,P|182:112|179:154,1,85.4999973907472,8|0,0:0|0:0,0:0:0:0:
38,53,105932,1,2,0:0:0:0:
107,201,106114,1,2,0:0:0:0:
264,101,106296,1,8,0:0:0:0:
340,306,106478,6,0,P|350:264|356:221,1,85.4999973907472,6|0,0:0|0:0,0:0:0:0:
178,154,106841,1,2,0:0:0:0:
132,340,107023,1,8,0:0:0:0:
262,228,107205,1,2,0:0:0:0:
262,228,107296,1,2,0:0:0:0:
262,228,107387,1,2,0:0:0:0:
78,200,107568,1,2,0:0:0:0:
230,318,107750,1,8,0:0:0:0:
300,124,107932,1,0,0:0:0:0:
478,304,108114,6,0,P|440:321|398:318,1,85.4999973907472,6|0,0:0|0:0,0:0:0:0:
262,228,108478,2,0,P|224:211|182:214,1,85.4999973907472,8|0,0:0|0:0,0:0:0:0:
68,343,108841,1,2,0:0:0:0:
210,292,109023,1,2,0:0:0:0:
38,228,109205,1,8,0:0:0:0:
182,369,109387,6,0,P|224:372|262:355,1,85.4999973907472,6|0,0:0|0:0,0:0:0:0:
404,204,109750,1,2,0:0:0:0:
366,371,109932,1,8,0:0:0:0:
272,191,110114,1,2,0:0:0:0:
92,305,110296,1,8,0:0:0:0:
58,271,110387,1,8,0:0:0:0:
38,228,110478,1,8,0:0:0:0:
43,181,110568,1,8,0:0:0:0:
73,143,110659,2,0,P|94:132|116:126,1,42.7499986953736,8|8,0:0|0:0,0:0:0:0:
259,40,110841,2,0,P|248:61|242:83,1,42.7499986953736,8|8,0:0|0:0,0:0:0:0:
195,293,111023,6,0,P|237:283|280:277,1,85.4999973907472,6|0,0:0|0:0,0:0:0:0:
437,352,111387,2,0,P|454:314|453:271,1,85.4999973907472,8|0,0:0|0:0,0:0:0:0:
314,132,111750,1,2,0:0:0:0:
375,299,111932,1,2,0:0:0:0:
436,130,112114,1,8,0:0:0:0:
264,255,112296,6,0,B|172:260|195:203|101:209,1,170.999994781494,6|2,0:0|0:0,0:0:0:0:
263,48,112841,2,0,P|273:88|264:130,1,85.4999973907472,8|2,0:0|0:0,0:0:0:0:
250,172,113114,1,2,0:0:0:0:
250,172,113205,1,2,0:0:0:0:
133,71,113387,1,2,0:0:0:0:
33,252,113568,2,0,P|22:211|31:169,1,85.4999973907472,8|0,0:0|0:0,0:0:0:0:
226,348,113932,6,0,P|235:306|241:264,1,85.4999973907472,6|0,0:0|0:0,0:0:0:0:
133,71,114296,2,0,P|138:113|148:154,1,85.4999973907472,8|0,0:0|0:0,0:0:0:0:
342,230,114659,1,2,0:0:0:0:
232,108,114841,1,2,0:0:0:0:
147,288,115023,1,8,0:0:0:0:
323,133,115205,6,0,P|365:124|407:118,1,85.4999973907472,6|0,0:0|0:0,0:0:0:0:
258,305,115568,1,2,0:0:0:0:
417,230,115750,1,8,0:0:0:0:
229,211,115932,1,2,0:0:0:0:
229,211,116023,1,2,0:0:0:0:
229,211,116114,1,2,0:0:0:0:
347,45,116296,1,2,0:0:0:0:
328,236,116478,1,8,0:0:0:0:
183,68,116659,1,8,0:0:0:0:
183,68,116750,1,8,0:0:0:0:
183,68,116841,6,0,P|141:59|99:53,1,85.4999973907472,6|0,0:0|0:0,0:0:0:0:
12,240,117205,2,0,P|1:199|10:157,1,85.4999973907472,8|0,0:0|0:0,0:0:0:0:
227,205,117568,1,2,0:0:0:0:
82,335,117750,1,2,0:0:0:0:
104,141,117932,1,8,0:0:0:0:
294,353,118114,6,0,P|305:312|296:270,1,85.4999973907472,6|0,0:0|0:0,0:0:0:0:
198,123,118478,1,2,0:0:0:0:
216,313,118659,1,8,0:0:0:0:
343,181,118841,1,2,0:0:0:0:
343,181,118932,1,2,0:0:0:0:
343,181,119023,1,2,0:0:0:0:
174,225,119205,1,2,0:0:0:0:
313,83,119387,1,8,0:0:0:0:
368,280,119568,1,0,0:0:0:0:
419,43,119750,5,6,0:0:0:0:
258,206,119932,1,0,0:0:0:0:
473,234,120114,1,8,0:0:0:0:
240,120,120296,2,0,P|198:111|156:105,1,85.4999973907472,0|2,0:0|0:0,0:0:0:0:
0,214,120659,1,2,0:0:0:0:
64,34,120841,1,8,0:0:0:0:
123,278,121023,6,0,P|132:236|138:194,1,85.4999973907472,6|0,0:0|0:0,0:0:0:0:
307,34,121387,2,0,P|313:76|322:118,1,85.4999973907472,2|8,0:0|0:0,0:0:0:0:
386,323,121750,1,8,0:0:0:0:
386,323,121841,1,8,0:0:0:0:
386,323,121932,2,0,P|411:323|435:320,1,42.7499986953736,2|0,0:0|0:0,0:0:0:0:
263,214,122114,1,8,0:0:0:0:
220,201,122205,1,8,0:0:0:0:
176,206,122296,1,8,0:0:0:0:
142,234,122387,1,8,0:0:0:0:
111,264,122478,1,8,0:0:0:0:
69,274,122568,1,8,0:0:0:0:
27,263,122659,5,6,0:0:0:0:
468,88,133568,6,0,L|477:155,1,61.7499971733095,2|0,0:0|0:0,0:0:0:0:
383,38,133932,1,2,0:0:0:0:
383,38,134114,1,2,0:0:0:0:
313,126,134296,6,0,P|279:134|244:127,1,71.2500027179719,6|0,0:0|0:0,0:0:0:0:
125,71,134659,2,0,P|91:63|56:70,1,71.2500027179719,2|0,0:0|0:0,0:0:0:0:
10,211,135023,2,0,L|0:141,2,71.2500027179719,2|0|2,0:0|0:0|0:0,0:0:0:0:
39,313,135568,6,0,P|110:339|172:310,1,142.500005435944
255,220,136114,1,2,0:0:0:0:
338,316,136296,2,0,P|408:302|480:295,1,142.500005435944
412,208,136841,2,0,L|402:138,1,71.2500027179719,2|0,0:0|0:0,0:0:0:0:
305,38,137205,6,0,P|313:72|306:107,1,71.2500027179719,2|0,0:0|0:0,0:0:0:0:
163,77,137568,2,0,P|197:69|232:76,1,71.2500027179719,2|0,0:0|0:0,0:0:0:0:
299,191,137932,2,0,L|289:261,2,71.2500027179719,2|0|2,0:0|0:0|0:0,0:0:0:0:
162,172,138478,6,0,L|185:317,1,142.500005435944
282,368,139023,1,2,0:0:0:0:
382,301,139205,1,0,0:0:0:0:
382,301,139387,2,0,P|408:230|379:168,1,142.500005435944,2|2,0:0|0:0,0:0:0:0:
296,95,139932,1,0,0:0:0:0:
211,185,140114,6,0,P|177:193|142:186,2,71.2500027179719,6|0|2,0:0|0:0|0:0,0:0:0:0:
296,95,140659,2,0,B|382:93|349:140|436:141,1,142.500005435944
423,57,141205,1,2,0:0:0:0:
512,149,141387,1,0,0:0:0:0:
424,241,141568,6,0,L|414:311,2,71.2500027179719,2|0|2,0:0|0:0|0:0,0:0:0:0:
314,171,142114,1,2,0:0:0:0:
314,171,142205,1,2,0:0:0:0:
314,171,142296,2,0,P|280:163|245:170,1,71.2500027179719,2|0,0:0|0:0,0:0:0:0:
144,220,142659,1,2,0:0:0:0:
48,170,142841,1,0,0:0:0:0:
29,318,143023,6,0,L|39:248,1,71.2500027179719,6|0,0:0|0:0,0:0:0:0:
165,367,143387,2,0,L|155:297,1,71.2500027179719,2|0,0:0|0:0,0:0:0:0:
293,248,143750,2,0,L|283:318,1,71.2500027179719,2|0,0:0|0:0,0:0:0:0:
218,197,144114,1,2,0:0:0:0:
378,262,144296,6,0,P|412:270|447:263,1,71.2500027179719,0|6,0:0|0:0,0:0:0:0:
493,106,144659,1,0,0:0:0:0:
412,189,144841,1,2,0:0:0:0:
316,109,145023,1,2,0:0:0:0:
316,109,145114,1,2,0:0:0:0:
316,109,145205,6,0,P|263:100|218:119,1,90.2499975900651,6|0,0:0|0:0,0:0:0:0:
53,211,145568,2,0,P|106:202|151:221,1,90.2499975900651,6|0,0:0|0:0,0:0:0:0:
302,328,145932,5,6,0:0:0:0:
454,229,146114,2,0,L|442:308,1,76,2|0,0:0|0:0,0:0:0:0:
323,165,146478,5,2,0:0:0:0:
475,66,146660,2,0,L|463:145,1,76,2|0,0:0|0:0,0:0:0:0:
343,25,147023,5,2,0:0:0:0:
191,124,147205,2,0,L|203:45,1,76,2|0,0:0|0:0,0:0:0:0:
334,240,147568,2,0,L|322:161,1,76,2|0,0:0|0:0,0:0:0:0:
259,311,147932,1,2,0:0:0:0:
259,311,148023,1,2,0:0:0:0:
259,311,148114,1,2,0:0:0:0:
212,72,148841,5,6,0:0:0:0:
29,37,149023,2,0,P|20:72|29:115,1,76,2|0,0:0|0:0,0:0:0:0:
211,236,149387,5,2,0:0:0:0:
28,201,149569,2,0,P|19:236|28:279,1,76,2|0,0:0|0:0,0:0:0:0:
159,144,149932,5,2,0:0:0:0:
293,276,150114,2,0,P|302:241|293:198,1,76,2|0,0:0|0:0,0:0:0:0:
137,350,150478,2,0,P|128:315|137:272,1,76,2|0,0:0|0:0,0:0:0:0:
263,372,150841,1,2,0:0:0:0:
400,290,151023,1,2,0:0:0:0:
419,267,151114,1,0,0:0:0:0:
428,236,151205,1,0,0:0:0:0:
428,206,151296,1,0,0:0:0:0:
415,177,151387,2,0,P|411:160|408:131,1,38,2|0,0:0|0:0,0:0:0:0:
305,48,151569,2,0,P|304:67|301:86,1,38,2|0,0:0|0:0,0:0:0:0:
272,292,151750,5,6,0:0:0:0:
95,233,151932,2,0,P|102:270|111:307,1,76,2|0,0:0|0:0,0:0:0:0:
188,121,152296,5,2,0:0:0:0:
11,180,152478,2,0,P|18:142|27:105,1,76,2|0,0:0|0:0,0:0:0:0:
186,219,152841,5,2,0:0:0:0:
322,99,153023,2,0,P|330:136|338:173,1,76,2|0,0:0|0:0,0:0:0:0:
120,68,153387,2,0,P|111:105|103:142,1,76,2|0,0:0|0:0,0:0:0:0:
236,36,153750,1,2,0:0:0:0:
236,36,153841,1,2,0:0:0:0:
236,36,153932,1,2,0:0:0:0:
211,366,154659,5,6,0:0:0:0:
379,276,154841,2,0,P|388:311|379:354,1,76,2|0,0:0|0:0,0:0:0:0:
292,140,155205,5,2,0:0:0:0:
460,230,155387,2,0,P|469:195|460:152,1,76,2|0,0:0|0:0,0:0:0:0:
332,38,155750,5,2,0:0:0:0:
214,179,155932,2,0,P|205:144|214:101,1,76,2|0,0:0|0:0,0:0:0:0:
379,276,156296,2,0,P|388:241|379:198,1,76,2|0,0:0|0:0,0:0:0:0:
242,328,156659,1,2,0:0:0:0:
242,328,156750,1,2,0:0:0:0:
242,328,156841,6,0,P|247:358|252:372,1,38,8|0,0:0|0:0,0:0:0:0:
137,281,157023,2,0,P|132:311|127:325,1,38,8|0,0:0|0:0,0:0:0:0:
243,203,157205,2,0,P|248:233|253:247,1,38,8|0,0:0|0:0,0:0:0:0:
138,156,157387,2,0,P|133:186|128:200,1,38,8|0,0:0|0:0,0:0:0:0:
15,373,157568,6,0,P|6:331|0:291,1,80.750001540184,6|0,0:0|0:0,0:0:0:0:
31,121,157932,2,0,P|40:163|46:203,1,80.750001540184,8|0,0:0|0:0,0:0:0:0:
138,346,158296,2,0,P|180:337|220:331,1,80.750001540184,2|0,0:0|0:0,0:0:0:0:
313,254,158659,1,8,0:0:0:0:
183,138,158841,6,0,P|174:173|182:218,1,80.750001540184,0|2,0:0|0:0,0:0:0:0:
394,269,159205,1,0,0:0:0:0:
260,180,159387,1,8,0:0:0:0:
390,40,159568,2,0,P|399:75|391:120,1,80.750001540184,0|2,0:0|0:0,0:0:0:0:
248,55,159932,1,0,0:0:0:0:
348,196,160114,1,8,0:0:0:0:
184,285,160296,1,8,0:0:0:0:
184,285,160387,1,8,0:0:0:0:
184,285,160478,6,0,P|142:276|102:270,1,80.750001540184,6|0,0:0|0:0,0:0:0:0:
242,353,160841,2,0,P|263:324|274:279,1,80.750001540184,8|0,0:0|0:0,0:0:0:0:
192,118,161205,1,2,0:0:0:0:
348,196,161387,1,0,0:0:0:0:
278,81,161568,1,8,0:0:0:0:
184,285,161750,6,0,P|175:243|169:203,1,80.750001540184,0|2,0:0|0:0,0:0:0:0:
53,86,162114,1,0,0:0:0:0:
41,253,162296,1,8,0:0:0:0:
148,117,162478,1,8,0:0:0:0:
148,117,162568,1,8,0:0:0:0:
148,117,162659,1,2,0:0:0:0:
260,212,162841,1,2,0:0:0:0:
92,183,163023,1,8,0:0:0:0:
237,56,163205,1,8,0:0:0:0:
237,56,163296,1,8,0:0:0:0:
237,56,163387,6,0,P|279:47|319:41,1,80.750001540184,6|0,0:0|0:0,0:0:0:0:
492,25,163750,2,0,P|485:64|477:104,1,80.750001540184,8|0,0:0|0:0,0:0:0:0:
440,262,164114,1,2,0:0:0:0:
310,160,164296,2,0,P|275:151|230:159,1,80.750001540184,0|8,0:0|0:0,0:0:0:0:
63,270,164659,6,0,P|54:228|48:188,1,80.750001540184,4|2,0:0|0:0,0:0:0:0:
192,64,165023,1,0,0:0:0:0:
142,204,165205,1,8,0:0:0:0:
255,319,165387,2,0,P|264:277|270:237,1,80.750001540184,0|2,0:0|0:0,0:0:0:0:
151,310,165750,1,0,0:0:0:0:
231,158,165932,1,8,0:0:0:0:
352,296,166114,1,2,0:0:0:0:
404,71,166296,5,6,0:0:0:0:
388,80,166387,1,0,0:0:0:0:
362,88,166478,1,0,0:0:0:0:
330,89,166569,1,0,0:0:0:0:
296,74,166659,1,8,0:0:0:0:
257,61,166750,1,0,0:0:0:0:
213,60,166841,1,0,0:0:0:0:
171,79,166932,1,0,0:0:0:0:
141,116,167023,6,0,P|145:137|152:156,1,40.375000770092,2|0,0:0|0:0,0:0:0:0:
58,320,167205,2,0,P|64:301|68:281,1,40.375000770092
7,75,167387,2,0,P|11:96|18:115,1,40.375000770092,8|0,0:0|0:0,0:0:0:0:
226,309,167568,6,0,P|235:267|241:227,1,80.750001540184,6|0,0:0|0:0,0:0:0:0:
418,31,167932,2,0,P|424:70|432:110,1,80.750001540184,6|0,0:0|0:0,0:0:0:0:
360,332,168296,2,0,P|364:353|371:372,1,40.375000770092,2|2,0:0|0:0,0:0:0:0:
490,239,168478,6,0,P|448:248|405:236,1,78.3750023918153,12|0,0:0|0:0,0:0:0:0:
374,213,168841,1,8,0:0:0:0:
348,171,168932,1,8,0:0:0:0:
308,144,169023,1,8,0:0:0:0:
259,144,169114,1,8,0:0:0:0:
216,165,169205,6,0,P|221:212|229:259,1,95,6|0,0:0|0:0,0:0:0:0:
284,59,169568,1,8,0:0:0:0:
95,160,169750,2,0,P|102:113|108:65,1,95,0|2,0:0|0:0,0:0:0:0:
148,246,170114,1,2,0:0:0:0:
14,98,170296,1,8,0:0:0:0:
0,357,170478,6,0,P|39:318|125:327,1,142.5,6|0,0:0|0:0,0:0:0:0:
162,354,170841,1,2,0:0:0:0:
256,187,171023,1,8,0:0:0:0:
359,358,171205,1,2,0:0:0:0:
359,358,171296,1,2,0:0:0:0:
359,358,171387,1,2,0:0:0:0:
208,272,171568,1,2,0:0:0:0:
351,111,171750,2,0,P|359:157|365:205,1,95,8|0,0:0|0:0,0:0:0:0:
178,94,172114,5,6,0:0:0:0:
288,241,172296,1,0,0:0:0:0:
285,28,172478,1,8,0:0:0:0:
95,198,172659,2,0,P|87:152|81:104,1,95,0|2,0:0|0:0,0:0:0:0:
274,334,173023,2,0,P|282:288|288:240,1,95,2|8,0:0|0:0,0:0:0:0:
30,370,173387,6,0,P|17:300|7:230,1,142.5,6|0,0:0|0:0,0:0:0:0:
5,177,173751,1,2,0:0:0:0:
136,309,173932,1,8,0:0:0:0:
216,112,174114,1,2,0:0:0:0:
216,112,174205,1,2,0:0:0:0:
216,112,174296,1,2,0:0:0:0:
91,229,174478,1,2,0:0:0:0:
131,37,174659,1,8,0:0:0:0:
257,222,174841,1,2,0:0:0:0:
257,222,174932,1,2,0:0:0:0:
257,222,175023,5,6,0:0:0:0:
381,37,175205,1,0,0:0:0:0:
216,112,175387,1,8,0:0:0:0:
384,257,175568,2,0,P|396:202|381:155,1,95,0|2,0:0|0:0,0:0:0:0:
158,199,175932,1,2,0:0:0:0:
297,76,176114,1,8,0:0:0:0:
305,298,176296,1,6,0:0:0:0:
216,112,176478,5,0,0:0:0:0:
64,263,176659,1,2,0:0:0:0:
264,206,176841,1,8,0:0:0:0:
103,50,177023,1,2,0:0:0:0:
103,50,177114,1,2,0:0:0:0:
103,50,177205,1,2,0:0:0:0:
159,237,177387,1,2,0:0:0:0:
332,114,177568,2,0,P|387:102|434:117,1,95,8|0,0:0|0:0,0:0:0:0:
259,298,177932,5,6,0:0:0:0:
131,144,178114,1,0,0:0:0:0:
111,343,178296,1,8,0:0:0:0:
233,120,178478,2,0,P|241:166|246:213,1,95,0|2,0:0|0:0,0:0:0:0:
40,76,178841,2,0,P|32:122|26:170,1,95,2|8,0:0|0:0,0:0:0:0:
309,24,179205,6,0,P|322:94|332:164,1,142.5,6|0,0:0|0:0,0:0:0:0:
334,217,179569,1,2,0:0:0:0:
149,115,179750,1,8,0:0:0:0:
214,361,179932,2,0,L|219:313,1,47.5,2|2,0:0|0:0,0:0:0:0:
243,159,180114,1,8,0:0:0:0:
62,303,180296,6,0,L|67:350,1,47.5,8|8,0:0|0:0,0:0:0:0:
229,238,180478,2,0,L|221:303,1,47.5,8|8,0:0|0:0,0:0:0:0:
43,136,180659,2,0,L|51:201,1,47.5,8|8,0:0|0:0,0:0:0:0:
261,40,180841,6,0,P|255:87|247:133,1,95,6|0,0:0|0:0,0:0:0:0:
110,53,181205,1,8,0:0:0:0:
229,238,181387,2,0,P|275:230|323:224,1,95,0|2,0:0|0:0,0:0:0:0:
118,293,181750,1,2,0:0:0:0:
247,133,181932,1,8,0:0:0:0:
393,338,182114,6,0,P|438:307|446:220,1,142.5,6|0,0:0|0:0,0:0:0:0:
426,179,182477,1,2,0:0:0:0:
291,317,182659,1,8,0:0:0:0:
247,133,182841,1,2,0:0:0:0:
247,133,182932,1,2,0:0:0:0:
247,133,183023,1,2,0:0:0:0:
370,257,183205,1,2,0:0:0:0:
154,229,183387,2,0,P|160:276|168:322,1,95,8|0,0:0|0:0,0:0:0:0:
368,131,183750,5,6,0:0:0:0:
291,317,183932,1,0,0:0:0:0:
247,133,184114,1,8,0:0:0:0:
76,276,184296,2,0,P|64:221|79:174,1,95,0|2,0:0|0:0,0:0:0:0:
244,41,184659,2,0,P|256:96|241:143,1,95,2|8,0:0|0:0,0:0:0:0:
151,369,185023,6,0,P|221:356|291:346,1,142.5,6|0,0:0|0:0,0:0:0:0:
344,344,185387,1,2,0:0:0:0:
175,228,185568,1,8,0:0:0:0:
363,190,185750,1,2,0:0:0:0:
363,190,185841,1,2,0:0:0:0:
363,190,185932,1,2,0:0:0:0:
180,67,186114,1,2,0:0:0:0:
277,254,186296,1,8,0:0:0:0:
379,53,186478,1,8,0:0:0:0:
379,53,186568,1,8,0:0:0:0:
379,53,186659,6,0,P|426:59|472:67,1,95,6|0,0:0|0:0,0:0:0:0:
486,295,187023,2,0,P|498:240|483:193,1,95,8|0,0:0|0:0,0:0:0:0:
314,113,187387,1,2,0:0:0:0:
201,294,187568,2,0,P|153:287|107:279,1,95,2|8,0:0|0:0,0:0:0:0:
194,33,187932,6,0,P|227:76|207:161,1,142.5,6|0,0:0|0:0,0:0:0:0:
176,194,188295,1,2,0:0:0:0:
25,79,188478,1,8,0:0:0:0:
14,277,188659,1,2,0:0:0:0:
14,277,188750,1,2,0:0:0:0:
14,277,188841,1,2,0:0:0:0:
117,114,189023,1,2,0:0:0:0:
187,322,189205,1,8,0:0:0:0:
312,152,189387,1,0,0:0:0:0:
472,358,189568,5,6,0:0:0:0:
246,241,189750,1,0,0:0:0:0:
472,147,189932,1,8,0:0:0:0:
247,31,190114,2,0,P|200:37|154:45,1,95,0|2,0:0|0:0,0:0:0:0:
0,213,190478,1,2,0:0:0:0:
59,28,190659,1,8,0:0:0:0:
152,255,190841,6,0,P|198:246|245:240,1,95,6|0,0:0|0:0,0:0:0:0:
472,147,191205,2,0,P|425:138|378:132,1,95,2|8,0:0|0:0,0:0:0:0:
184,126,191568,1,8,0:0:0:0:
184,126,191659,1,8,0:0:0:0:
184,126,191750,1,2,0:0:0:0:
339,262,191932,1,8,0:0:0:0:
339,262,192023,1,8,0:0:0:0:
339,262,192114,2,0,L|333:214,1,47.5,8|8,0:0|0:0,0:0:0:0:
286,26,192296,2,0,L|278:91,1,47.5,8|8,0:0|0:0,0:0:0:0:
242,300,192478,5,6,0:0:0:0:
184,126,192659,1,0,0:0:0:0:
95,284,192841,1,8,0:0:0:0:
262,155,193023,2,0,P|308:146|355:140,1,95,2|0,0:0|0:0,0:0:0:0:
173,254,193387,1,2,0:0:0:0:
91,95,193568,1,8,0:0:0:0:
17,333,193750,6,0,P|5:278|20:231,1,95,6|0,0:0|0:0,0:0:0:0:
184,126,194114,1,2,0:0:0:0:
95,284,194296,1,8,0:0:0:0:
288,336,194478,1,2,0:0:0:0:
288,336,194568,1,2,0:0:0:0:
288,336,194659,1,2,0:0:0:0:
138,204,194841,1,2,0:0:0:0:
350,157,195023,2,0,P|359:203|365:250,1,95,8|0,0:0|0:0,0:0:0:0:
184,126,195387,5,6,0:0:0:0:
340,42,195568,1,0,0:0:0:0:
261,203,195750,1,8,0:0:0:0:
71,120,195932,2,0,P|62:166|56:213,1,95,2|0,0:0|0:0,0:0:0:0:
276,111,196296,1,2,0:0:0:0:
109,31,196478,1,8,0:0:0:0:
140,294,196659,6,0,P|186:303|231:291,1,95,6|0,0:0|0:0,0:0:0:0:
362,173,197023,1,2,0:0:0:0:
183,212,197205,1,8,0:0:0:0:
350,303,197387,1,2,0:0:0:0:
350,303,197478,1,2,0:0:0:0:
350,303,197568,1,2,0:0:0:0:
276,111,197750,1,2,0:0:0:0:
451,241,197932,2,0,P|460:195|466:148,1,95,12|0,0:0|0:0,0:0:0:0:
266,252,198296,5,6,0:0:0:0:
382,107,198478,1,0,0:0:0:0:
350,303,198659,1,8,0:0:0:0:
200,149,198841,2,0,P|153:139|108:151,1,95,2|0,0:0|0:0,0:0:0:0:
365,206,199205,1,2,0:0:0:0:
256,47,199387,1,8,0:0:0:0:
171,322,199568,6,0,P|162:276|156:229,1,95,6|0,0:0|0:0,0:0:0:0:
350,303,199932,1,2,0:0:0:0:
308,128,200114,1,8,0:0:0:0:
504,259,200296,1,2,0:0:0:0:
504,259,200387,1,2,0:0:0:0:
504,259,200478,1,2,0:0:0:0:
415,91,200659,1,2,0:0:0:0:
249,243,200841,2,0,P|203:234|156:228,1,95,8|0,0:0|0:0,0:0:0:0:
10,90,201205,5,6,0:0:0:0:
193,144,201387,1,0,0:0:0:0:
85,33,201568,1,8,0:0:0:0:
14,267,201750,2,0,P|4:220|16:175,1,95,2|0,0:0|0:0,0:0:0:0:
190,52,202114,2,0,P|202:97|192:143,1,95,2|8,0:0|0:0,0:0:0:0:
99,343,202478,6,0,P|145:334|192:328,1,95,6|0,0:0|0:0,0:0:0:0:
314,236,202841,1,2,0:0:0:0:
116,236,203023,1,8,0:0:0:0:
296,338,203205,1,2,0:0:0:0:
296,338,203296,1,2,0:0:0:0:
296,338,203387,1,2,0:0:0:0:
275,126,203568,1,2,0:0:0:0:
206,279,203750,1,8,0:0:0:0:
166,78,203932,1,2,0:0:0:0:
380,217,204114,5,6,0:0:0:0:
187,179,204296,1,0,0:0:0:0:
362,73,204478,1,8,0:0:0:0:
465,262,204659,2,0,P|474:215|462:170,1,95,2|0,0:0|0:0,0:0:0:0:
267,75,205023,5,2,0:0:0:0:
380,217,205205,1,8,0:0:0:0:
438,40,205387,1,2,0:0:0:0:
287,173,205568,1,0,0:0:0:0:
132,41,205750,2,0,P|123:88|135:133,1,95,2|8,0:0|0:0,0:0:0:0:
267,320,206114,5,8,0:0:0:0:
267,320,206205,1,8,0:0:0:0:
267,320,206296,2,0,L|275:255,1,47.5,8|8,0:0|0:0,0:0:0:0:
380,217,206478,2,0,L|385:169,1,47.5,8|8,0:0|0:0,0:0:0:0:
360,364,206659,2,0,L|368:299,1,47.5,8|8,0:0|0:0,0:0:0:0:
287,173,206841,2,0,L|292:125,1,47.5,8|8,0:0|0:0,0:0:0:0:
184,363,207023,6,0,P|174:318|186:273,1,85.4999973907472,6|0,0:0|0:0,0:0:0:0:
292,125,207387,1,8,0:0:0:0:
131,199,207568,1,0,0:0:0:0:
202,26,207750,2,0,P|212:71|200:116,1,85.4999973907472,2|2,0:0|0:0,0:0:0:0:
33,90,208114,1,8,0:0:0:0:
0,294,208296,6,0,P|41:285|84:279,1,85.4999973907472,6|0,0:0|0:0,0:0:0:0:
256,298,208659,1,2,0:0:0:0:
131,199,208841,1,8,0:0:0:0:
176,359,209023,1,2,0:0:0:0:
176,359,209114,1,2,0:0:0:0:
176,359,209205,1,2,0:0:0:0:
255,191,209387,1,2,0:0:0:0:
336,359,209568,1,8,0:0:0:0:
381,199,209750,1,0,0:0:0:0:
176,359,209932,5,6,0:0:0:0:
131,199,210114,1,0,0:0:0:0:
256,298,210296,1,8,0:0:0:0:
62,354,210478,2,0,P|52:312|46:270,1,85.4999973907472,0|2,0:0|0:0,0:0:0:0:
168,93,210841,1,2,0:0:0:0:
151,281,211023,1,8,0:0:0:0:
339,177,211205,6,0,P|348:218|354:260,1,85.4999973907472,6|0,0:0|0:0,0:0:0:0:
255,36,211568,2,0,P|260:62|266:83,1,42.7499986953736,2|0,0:0|0:0,0:0:0:0:
439,133,211750,1,8,0:0:0:0:
261,234,211932,1,2,0:0:0:0:
261,234,212023,1,2,0:0:0:0:
261,234,212114,2,0,P|240:239|219:243,1,42.7499986953736,2|0,0:0|0:0,0:0:0:0:
142,136,212296,2,0,P|147:156|151:177,1,42.7499986953736,2|0,0:0|0:0,0:0:0:0:
28,297,212478,2,0,P|54:292|75:286,1,42.7499986953736,8|0,0:0|0:0,0:0:0:0:
69,154,212659,2,0,P|74:180|80:201,1,42.7499986953736,2|0,0:0|0:0,0:0:0:0:
193,367,212841,5,6,0:0:0:0:
339,276,213023,2,0,P|349:231|337:186,1,85.4999973907472,0|8,0:0|0:0,0:0:0:0:
210,60,213387,1,0,0:0:0:0:
261,234,213568,1,2,0:0:0:0:
344,82,213750,1,2,0:0:0:0:
344,82,213841,1,2,0:0:0:0:
344,82,213932,1,8,0:0:0:0:
156,202,214114,6,0,P|114:192|72:186,1,85.4999973907472,6|0,0:0|0:0,0:0:0:0:
204,308,214478,1,2,0:0:0:0:
268,140,214659,1,8,0:0:0:0:
332,310,214841,1,2,0:0:0:0:
332,310,214932,1,2,0:0:0:0:
332,310,215023,1,2,0:0:0:0:
389,139,215205,1,2,0:0:0:0:
453,307,215387,1,8,0:0:0:0:
268,140,215568,1,0,0:0:0:0:
96,308,215750,6,0,P|51:318|6:306,1,85.4999973907472,6|0,0:0|0:0,0:0:0:0:
129,140,216114,1,8,0:0:0:0:
249,308,216296,2,0,P|294:318|339:306,1,85.4999973907472,0|2,0:0|0:0,0:0:0:0:
486,181,216659,1,2,0:0:0:0:
439,362,216841,1,8,0:0:0:0:
274,147,217023,6,0,P|279:189|289:231,1,85.4999973907472,6|0,0:0|0:0,0:0:0:0:
413,63,217387,1,2,0:0:0:0:
413,63,217478,1,2,0:0:0:0:
413,63,217569,2,0,P|408:83|404:104,1,42.7499986953736,8|0,0:0|0:0,0:0:0:0:
411,276,217750,2,0,P|406:255|402:234,1,42.7499986953736,2|0,0:0|0:0,0:0:0:0:
236,52,217932,5,8,0:0:0:0:
190,28,218023,1,8,0:0:0:0:
138,25,218114,1,8,0:0:0:0:
92,49,218205,1,8,0:0:0:0:
64,92,218296,1,8,0:0:0:0:
59,165,218387,1,8,0:0:0:0:
106,221,218478,1,8,0:0:0:0:
178,240,218568,1,8,0:0:0:0:
247,209,218659,6,0,P|288:199|336:193,1,90.2499975900651,6|0,0:0|0:0,0:0:0:0:
159,130,219023,1,8,0:0:0:0:
36,322,219205,2,0,P|26:277|39:228,1,90.2499975900651,0|2,0:0|0:0,0:0:0:0:
92,49,219568,1,2,0:0:0:0:
178,240,219750,1,8,0:0:0:0:
236,52,219932,1,6,0:0:0:0:
345,228,220114,5,0,0:0:0:0:
159,130,220296,1,2,0:0:0:0:
229,312,220478,1,8,0:0:0:0:
318,128,220659,1,2,0:0:0:0:
318,128,220750,1,2,0:0:0:0:
318,128,220841,1,2,0:0:0:0:
178,240,221023,1,2,0:0:0:0:
390,309,221205,2,0,P|422:276|435:229,1,90.2499975900651,8|0,0:0|0:0,0:0:0:0:
248,182,221568,5,6,0:0:0:0:
310,354,221750,1,0,0:0:0:0:
377,178,221932,1,8,0:0:0:0:
221,319,222114,2,0,P|177:330|128:317,1,90.2499975900651,0|2,0:0|0:0,0:0:0:0:
10,188,222478,1,2,0:0:0:0:
178,240,222659,1,8,0:0:0:0:
91,37,222841,6,0,P|80:85|92:130,1,90.2499975900651,6|0,0:0|0:0,0:0:0:0:
275,210,223205,1,2,0:0:0:0:
170,83,223387,1,8,0:0:0:0:
91,279,223568,1,2,0:0:0:0:
91,279,223659,1,2,0:0:0:0:
91,279,223750,1,2,0:0:0:0:
223,147,223932,1,2,0:0:0:0:
342,336,224114,2,0,P|383:326|431:320,1,90.2499975900651,8|0,0:0|0:0,0:0:0:0:
315,87,224478,6,0,L|310:134,1,47.5,6|0,0:0|0:0,0:0:0:0:
424,133,224659,2,0,L|429:180,1,47.5
389,20,224841,1,8,0:0:0:0:
197,87,225023,6,0,L|202:134,1,47.5
88,133,225205,2,0,L|83:183,1,47.5,2|0,0:0|0:0,0:0:0:0:
123,20,225386,1,2,0:0:0:0:
71,302,225568,6,0,L|76:255,1,47.5,8|0,0:0|0:0,0:0:0:0:
217,257,225750,2,0,L|212:210,1,47.5,6|0,0:0|0:0,0:0:0:0:
152,375,225932,1,0,0:0:0:0:
441,302,226114,6,0,L|436:255,1,47.5,2|0,0:0|0:0,0:0:0:0:
295,257,226296,2,0,L|300:210,1,47.5,8|0,0:0|0:0,0:0:0:0:
360,375,226478,1,2,0:0:0:0:
345,81,226659,6,0,L|340:128,1,47.5,2|0,0:0|0:0,0:0:0:0:
164,122,226841,2,0,L|169:169,1,47.5,2|0,0:0|0:0,0:0:0:0:
257,23,227023,1,8,0:0:0:0:
166,336,227205,5,0,0:0:0:0:
166,336,227296,1,0,0:0:0:0:
166,336,227387,6,0,B|203:262|133:244|174:160,1,170.999994781494,6|0,0:0|0:0,0:0:0:0:
164,122,227750,1,8,0:0:0:0:
77,266,227932,1,0,0:0:0:0:
77,266,228023,1,0,0:0:0:0:
77,266,228114,2,0,L|82:329,1,52.2500015945435,2|0,0:0|0:0,0:0:0:0:
254,217,228296,2,0,L|247:273,1,52.2500015945435,2|0,0:0|0:0,0:0:0:0:
58,110,228478,2,0,L|64:169,1,52.2500015945435,8|0,0:0|0:0,0:0:0:0:
262,46,228659,6,0,P|327:64|253:110,1,185.249991519928,6|0,0:0|0:0,0:0:0:0:
197,90,229023,1,2,0:0:0:0:
336,271,229205,2,0,L|341:224,1,47.5,8|0,0:0|0:0,0:0:0:0:
180,359,229387,1,8,0:0:0:0:
180,359,229478,1,8,0:0:0:0:
180,359,229568,2,0,L|175:312,1,47.5,2|0,0:0|0:0,0:0:0:0:
61,71,229750,2,0,P|79:92|89:116,1,47.5,8|8,0:0|0:0,0:0:0:0:
38,282,229932,2,0,P|47:254|63:234,1,47.5,8|8,0:0|0:0,0:0:0:0:
231,193,230114,2,0,P|202:198|177:194,1,47.5,8|8,0:0|0:0,0:0:0:0:
0,159,230296,5,6,0:0:0:0:
506,87,240296,6,0,P|465:67|399:85,1,114
371,116,240659,1,2,0:0:0:0:
292,254,240841,1,8,0:0:0:0:
265,79,241023,1,2,0:0:0:0:
265,79,241114,1,2,0:0:0:0:
265,79,241205,1,10,0:0:0:0:
152,227,241387,6,0,L|146:275,1,42.7499986953736,8|8,0:0|0:0,0:0:0:0:
55,138,241568,2,0,L|60:187,1,42.7499986953736,8|8,0:0|0:0,0:0:0:0:
173,57,241750,2,0,L|167:101,1,42.7499986953736,8|8,0:0|0:0,0:0:0:0:
233,318,241932,6,0,P|280:312|327:305,1,95,6|0,0:0|0:0,0:0:0:0:
463,205,242296,1,8,0:0:0:0:
298,76,242478,2,0,P|304:123|311:170,1,95,0|2,0:0|0:0,0:0:0:0:
453,51,242841,1,2,0:0:0:0:
378,231,243023,1,8,0:0:0:0:
184,57,243205,6,0,P|115:45|62:89,1,142.5,6|0,0:0|0:0,0:0:0:0:
33,130,243568,1,2,0:0:0:0:
215,203,243750,1,8,0:0:0:0:
53,283,243932,1,2,0:0:0:0:
53,283,244023,1,2,0:0:0:0:
53,283,244114,1,2,0:0:0:0:
137,125,244296,1,2,0:0:0:0:
254,302,244478,2,0,P|300:295|348:288,1,95,8|0,0:0|0:0,0:0:0:0:
357,80,244841,5,6,0:0:0:0:
215,203,245023,1,0,0:0:0:0:
428,179,245205,1,8,0:0:0:0:
229,29,245387,2,0,P|217:84|232:131,1,95,0|2,0:0|0:0,0:0:0:0:
339,351,245750,2,0,P|351:296|336:249,1,95,2|8,0:0|0:0,0:0:0:0:
93,119,246114,6,0,P|103:189|116:259,1,142.5,6|0,0:0|0:0,0:0:0:0:
126,310,246478,1,2,0:0:0:0:
282,190,246659,1,8,0:0:0:0:
221,358,246841,1,2,0:0:0:0:
221,358,246932,1,2,0:0:0:0:
221,358,247023,1,2,0:0:0:0:
206,155,247205,1,2,0:0:0:0:
337,325,247387,1,8,0:0:0:0:
446,118,247568,1,8,0:0:0:0:
446,118,247659,1,8,0:0:0:0:
446,118,247750,6,0,P|440:165|433:212,1,95,6|0,0:0|0:0,0:0:0:0:
259,370,248114,2,0,P|247:324|257:278,1,95,8|0,0:0|0:0,0:0:0:0:
322,128,248478,1,2,0:0:0:0:
146,256,248659,2,0,P|139:209|132:161,1,95,2|8,0:0|0:0,0:0:0:0:
361,52,249023,6,0,P|400:91|391:177,1,142.5,6|0,0:0|0:0,0:0:0:0:
364,214,249386,1,2,0:0:0:0:
194,93,249568,1,8,0:0:0:0:
56,231,249750,1,2,0:0:0:0:
56,231,249841,1,2,0:0:0:0:
56,231,249932,1,2,0:0:0:0:
237,201,250114,1,2,0:0:0:0:
87,54,250296,1,8,0:0:0:0:
146,256,250478,1,0,0:0:0:0:
353,42,250659,5,6,0:0:0:0:
117,154,250841,1,0,0:0:0:0:
374,236,251023,1,8,0:0:0:0:
148,348,251205,2,0,P|101:342|54:335,1,95,0|2,0:0|0:0,0:0:0:0:
220,170,251568,1,2,0:0:0:0:
28,224,251750,1,8,0:0:0:0:
234,346,251932,6,0,P|246:291|231:244,1,95,6|0,0:0|0:0,0:0:0:0:
119,62,252296,2,0,P|107:117|122:164,1,95,2|8,0:0|0:0,0:0:0:0:
274,36,252659,1,8,0:0:0:0:
274,36,252750,1,8,0:0:0:0:
274,36,252841,6,0,L|305:39,7,23.75,2|0|0|0|2|0|0|0,0:0|0:0|0:0|0:0|0:0|0:0|0:0|0:0,0:0:0:0:
327,67,253205,2,0,P|330:98|335:126,1,47.5,8|8,0:0|0:0,0:0:0:0:
217,270,253387,2,0,P|220:246|222:222,1,47.5,8|8,0:0|0:0,0:0:0:0:
436,88,253568,6,0,P|430:135|420:194,1,104.500003189087,6|0,0:0|0:0,0:0:0:0:
220,111,253932,1,8,0:0:0:0:
316,362,254114,2,0,P|324:310|331:258,1,104.500003189087,0|2,0:0|0:0,0:0:0:0:
120,267,254478,1,2,0:0:0:0:
312,157,254659,1,8,0:0:0:0:
103,355,254841,6,0,P|50:324|38:230,1,156.750004783631,6|0,0:0|0:0,0:0:0:0:
68,166,255205,1,2,0:0:0:0:
221,320,255387,1,8,0:0:0:0:
226,101,255568,1,2,0:0:0:0:
226,101,255659,1,2,0:0:0:0:
226,101,255750,1,2,0:0:0:0:
120,267,255932,1,2,0:0:0:0:
343,184,256114,2,0,P|351:235|358:287,1,104.500003189087,8|0,0:0|0:0,0:0:0:0:
291,30,256478,5,6,0:0:0:0:
219,232,256659,1,0,0:0:0:0:
434,106,256841,1,8,0:0:0:0:
146,47,257023,2,0,P|134:102|152:155,1,104.500003189087,0|2,0:0|0:0,0:0:0:0:
366,356,257387,2,0,P|378:301|360:248,1,104.500003189087,2|8,0:0|0:0,0:0:0:0:
56,299,257750,6,0,B|101:330|101:330|220:317,1,156.750004783631,6|0,0:0|0:0,0:0:0:0:
278,309,258114,1,2,0:0:0:0:
94,196,258296,1,8,0:0:0:0:
317,129,258478,1,2,0:0:0:0:
317,129,258568,1,2,0:0:0:0:
317,129,258659,1,2,0:0:0:0:
112,18,258841,1,2,0:0:0:0:
187,252,259023,1,8,0:0:0:0:
373,60,259205,1,2,0:0:0:0:
362,330,259387,5,6,0:0:0:0:
217,139,259568,1,0,0:0:0:0:
159,359,259750,1,8,0:0:0:0:
15,167,259932,2,0,P|21:218|30:270,1,104.500003189087,0|2,0:0|0:0,0:0:0:0:
272,214,260296,1,2,0:0:0:0:
111,73,260478,1,8,0:0:0:0:
121,277,260659,1,6,0:0:0:0:
320,77,260841,5,0,0:0:0:0:
116,174,261023,1,2,0:0:0:0:
327,266,261205,1,8,0:0:0:0:
226,39,261387,1,2,0:0:0:0:
226,39,261478,1,2,0:0:0:0:
226,39,261568,1,2,0:0:0:0:
426,136,261750,1,2,0:0:0:0:
230,276,261932,2,0,P|221:224|214:172,1,104.500003189087,8|0,0:0|0:0,0:0:0:0:
21,37,262296,5,6,0:0:0:0:
114,259,262478,1,0,0:0:0:0:
226,39,262659,1,8,0:0:0:0:
35,309,262841,2,0,P|23:254|41:201,1,104.500003189087,0|2,0:0|0:0,0:0:0:0:
288,100,263205,2,0,P|301:149|289:200,1,104.500003189087,2|8,0:0|0:0,0:0:0:0:
1,51,263568,6,0,B|46:20|46:20|165:33,1,156.750004783631,6|0,0:0|0:0,0:0:0:0:
226,39,263932,1,2,0:0:0:0:
36,208,264114,1,8,0:0:0:0:
326,346,264296,1,8,0:0:0:0:
326,346,264387,1,8,0:0:0:0:
326,346,264478,6,0,L|321:292,1,52.2500015945435,8|8,0:0|0:0,0:0:0:0:
151,124,264659,2,0,L|155:178,1,52.2500015945435,8|8,0:0|0:0,0:0:0:0:
229,361,264841,2,0,L|224:302,1,52.2500015945435,8|8,0:0|0:0,0:0:0:0:
354,83,265023,2,0,L|360:137,1,52.2500015945435,8|8,0:0|0:0,0:0:0:0:
98,367,265205,6,0,P|49:347|17:305,1,104.500003189087,6|0,0:0|0:0,0:0:0:0:
256,160,265568,1,8,0:0:0:0:
414,367,265750,2,0,P|463:347|495:305,1,104.500003189087,0|2,0:0|0:0,0:0:0:0:
354,83,266114,1,2,0:0:0:0:
257,315,266296,1,8,0:0:0:0:
62,69,266478,6,0,P|72:139|86:225,1,156.750004783631,6|0,0:0|0:0,0:0:0:0:
102,299,266841,1,2,0:0:0:0:
192,91,267023,1,8,0:0:0:0:
354,253,267205,1,2,0:0:0:0:
354,253,267296,1,2,0:0:0:0:
354,253,267387,1,2,0:0:0:0:
431,31,267568,1,2,0:0:0:0:
512,302,267750,2,0,P|525:253|513:202,1,104.500003189087,8|0,0:0|0:0,0:0:0:0:
293,32,268114,5,6,0:0:0:0:
209,247,268296,1,0,0:0:0:0:
423,138,268478,1,8,0:0:0:0:
136,25,268659,2,0,P|142:76|150:128,1,104.500003189087,0|2,0:0|0:0,0:0:0:0:
361,359,269023,2,0,P|368:307|375:255,1,104.500003189087,2|8,0:0|0:0,0:0:0:0:
46,326,269387,6,0,P|99:369|187:352,1,156.750004783631,6|0,0:0|0:0,0:0:0:0:
245,313,269750,1,2,0:0:0:0:
52,178,269932,1,8,0:0:0:0:
297,123,270114,1,2,0:0:0:0:
297,123,270205,1,2,0:0:0:0:
297,123,270296,1,2,0:0:0:0:
128,284,270478,1,2,0:0:0:0:
199,38,270659,1,8,0:0:0:0:
339,292,270841,1,2,0:0:0:0:
498,21,271023,6,0,P|511:70|499:121,1,104.500003189087,6|0,0:0|0:0,0:0:0:0:
259,343,271387,2,0,P|246:294|258:243,1,104.500003189087,8|0,0:0|0:0,0:0:0:0:
314,84,271750,1,2,0:0:0:0:
138,255,271932,2,0,P|86:248|34:240,1,104.500003189087,2|8,0:0|0:0,0:0:0:0:
369,18,272296,6,0,B|400:63|400:63|387:182,1,156.750004783631,6|0,0:0|0:0,0:0:0:0:
377,240,272660,1,2,0:0:0:0:
180,136,272841,1,8,0:0:0:0:
268,346,273023,1,2,0:0:0:0:
268,346,273114,1,2,0:0:0:0:
268,346,273205,1,2,0:0:0:0:
68,242,273387,1,2,0:0:0:0:
289,110,273568,1,8,0:0:0:0:
138,332,273750,1,0,0:0:0:0:
51,57,273932,5,6,0:0:0:0:
354,231,274114,1,0,0:0:0:0:
23,343,274296,1,8,0:0:0:0:
239,36,274478,2,0,P|286:22|339:35,1,104.500003189087,0|2,0:0|0:0,0:0:0:0:
493,257,274841,1,2,0:0:0:0:
289,110,275023,1,8,0:0:0:0:
122,341,275205,6,0,P|75:355|22:342,1,104.500003189087,6|0,0:0|0:0,0:0:0:0:
22,41,275568,2,0,P|72:28|122:43,1,104.500003189087,2|8,0:0|0:0,0:0:0:0:
299,221,275932,1,8,0:0:0:0:
299,221,276023,1,8,0:0:0:0:
299,221,276114,2,0,L|305:167,1,52.2500015945435,8|2,0:0|0:0,0:0:0:0:
70,115,276296,1,8,0:0:0:0:
70,115,276387,1,8,0:0:0:0:
70,115,276478,2,0,L|76:169,1,52.2500015945435,8|8,0:0|0:0,0:0:0:0:
190,370,276659,2,0,L|196:316,1,52.2500015945435,8|8,0:0|0:0,0:0:0:0:
318,75,276841,6,0,P|312:122|305:169,1,95,6|0,0:0|0:0,0:0:0:0:
107,358,277205,2,0,P|112:310|119:263,1,95,8|0,0:0|0:0,0:0:0:0:
194,97,277568,1,2,0:0:0:0:
256,277,277750,1,2,0:0:0:0:
86,153,277932,1,8,0:0:0:0:
320,26,278114,6,0,P|365:97|318:194,1,190,6|2,0:0|0:0,0:0:0:0:
165,368,278659,2,0,P|158:321|152:273,1,95,8|2,0:0|0:0,0:0:0:0:
144,227,278932,1,2,0:0:0:0:
144,227,279023,1,2,0:0:0:0:
277,369,279205,1,2,0:0:0:0:
420,182,279387,2,0,P|414:229|407:276,1,95,8|0,0:0|0:0,0:0:0:0:
229,88,279750,6,0,P|284:76|331:91,1,95,6|0,0:0|0:0,0:0:0:0:
144,227,280114,2,0,P|89:239|42:224,1,95,8|0,0:0|0:0,0:0:0:0:
145,42,280478,1,2,0:0:0:0:
234,210,280659,1,2,0:0:0:0:
365,62,280841,1,8,0:0:0:0:
443,279,281023,6,0,P|449:232|456:184,1,95,6|0,0:0|0:0,0:0:0:0:
250,94,281387,1,2,0:0:0:0:
339,268,281568,1,8,0:0:0:0:
144,329,281750,1,2,0:0:0:0:
144,329,281841,1,2,0:0:0:0:
144,329,281932,1,2,0:0:0:0:
293,182,282114,1,2,0:0:0:0:
111,201,282296,1,8,0:0:0:0:
292,349,282478,1,8,0:0:0:0:
292,349,282568,1,8,0:0:0:0:
292,349,282659,6,0,P|347:361|394:346,1,95,6|0,0:0|0:0,0:0:0:0:
451,120,283023,2,0,P|444:167|437:215,1,95,8|0,0:0|0:0,0:0:0:0:
244,120,283387,1,2,0:0:0:0:
339,268,283568,1,2,0:0:0:0:
356,69,283750,1,8,0:0:0:0:
219,288,283932,6,0,P|164:300|117:285,1,95,6|0,0:0|0:0,0:0:0:0:
15,118,284296,1,2,0:0:0:0:
22,294,284478,1,8,0:0:0:0:
145,129,284659,1,2,0:0:0:0:
145,129,284750,1,2,0:0:0:0:
145,129,284841,1,2,0:0:0:0:
297,215,285023,1,2,0:0:0:0:
77,211,285205,1,8,0:0:0:0:
237,99,285387,1,0,0:0:0:0:
369,334,285568,6,0,P|375:287|382:239,1,95,6|0,0:0|0:0,0:0:0:0:
487,38,285932,2,0,P|493:85|500:133,1,95,8|0,0:0|0:0,0:0:0:0:
305,23,286296,1,2,0:0:0:0:
266,226,286478,1,2,0:0:0:0:
403,114,286659,1,8,0:0:0:0:
162,194,286841,6,0,P|115:188|67:181,1,95,6|0,0:0|0:0,0:0:0:0:
286,125,287205,1,2,0:0:0:0:
174,306,287387,1,8,0:0:0:0:
173,89,287568,1,2,0:0:0:0:
343,264,287750,1,8,0:0:0:0:
392,286,287841,1,8,0:0:0:0:
445,279,287932,1,8,0:0:0:0:
487,247,288023,1,8,0:0:0:0:
510,199,288114,2,0,P|508:177|502:149,1,47.5,8|8,0:0|0:0,0:0:0:0:
376,41,288296,2,0,P|374:62|368:91,1,47.5,8|8,0:0|0:0,0:0:0:0:
199,270,288478,6,0,P|151:263|104:256,1,95,6|0,0:0|0:0,0:0:0:0:
255,39,288841,2,0,P|267:94|252:141,1,95,8|0,0:0|0:0,0:0:0:0:
74,25,289205,1,2,0:0:0:0:
17,197,289387,1,2,0:0:0:0:
176,86,289568,1,8,0:0:0:0:
282,269,289750,6,0,B|394:286|357:209|471:225,1,190,6|2,0:0|0:0,0:0:0:0:
294,44,290296,2,0,P|282:99|297:146,1,95,8|2,0:0|0:0,0:0:0:0:
311,182,290568,1,2,0:0:0:0:
311,182,290659,1,2,0:0:0:0:
408,34,290841,1,2,0:0:0:0:
184,46,291023,2,0,P|136:39|89:32,1,95,8|0,0:0|0:0,0:0:0:0:
3,231,291387,6,0,P|-9:176|6:129,1,95,6|0,0:0|0:0,0:0:0:0:
199,216,291750,2,0,P|211:271|196:318,1,95,8|0,0:0|0:0,0:0:0:0:
97,127,292114,1,2,0:0:0:0:
284,143,292296,1,2,0:0:0:0:
117,263,292478,1,8,0:0:0:0:
236,65,292659,6,0,P|291:53|338:68,1,95,6|0,0:0|0:0,0:0:0:0:
429,256,293023,1,2,0:0:0:0:
284,143,293205,1,8,0:0:0:0:
331,317,293387,1,2,0:0:0:0:
331,317,293478,1,2,0:0:0:0:
331,317,293568,1,2,0:0:0:0:
399,148,293750,1,2,0:0:0:0:
243,248,293932,1,8,0:0:0:0:
479,195,294114,1,8,0:0:0:0:
479,195,294205,1,8,0:0:0:0:
479,195,294296,6,0,P|491:140|476:93,1,95,2|0,0:0|0:0,0:0:0:0:
264,20,294659,2,0,P|252:75|267:122,1,95,8|0,0:0|0:0,0:0:0:0:
404,238,295023,1,2,0:0:0:0:
343,68,295205,1,2,0:0:0:0:
244,252,295387,1,8,0:0:0:0:
157,40,295568,6,0,P|109:33|62:27,1,95,6|0,0:0|0:0,0:0:0:0:
1,233,295932,1,2,0:0:0:0:
183,144,296114,1,8,0:0:0:0:
117,331,296296,1,2,0:0:0:0:
117,331,296387,1,2,0:0:0:0:
117,331,296478,1,2,0:0:0:0:
75,122,296659,1,2,0:0:0:0:
258,290,296841,1,8,0:0:0:0:
325,52,297023,1,0,0:0:0:0:
395,329,297205,5,6,0:0:0:0:
183,144,297387,1,0,0:0:0:0:
32,363,297568,1,8,0:0:0:0:
311,190,297750,2,0,P|358:183|405:177,1,95,6|0,0:0|0:0,0:0:0:0:
166,325,298114,1,2,0:0:0:0:
268,110,298296,1,8,0:0:0:0:
5,38,298478,6,0,P|-7:93|8:140,1,95,6|0,0:0|0:0,0:0:0:0:
249,372,298841,2,0,P|261:317|246:270,1,95,2|8,0:0|0:0,0:0:0:0:
143,88,299205,1,8,0:0:0:0:
143,88,299296,1,8,0:0:0:0:
143,88,299387,2,0,P|141:111|138:135,1,47.5,2|0,0:0|0:0,0:0:0:0:
36,352,299568,1,8,0:0:0:0:
62,309,299659,1,8,0:0:0:0:
102,279,299750,1,8,0:0:0:0:
152,271,299841,1,8,0:0:0:0:
200,287,299932,1,8,0:0:0:0:
236,323,300023,1,8,0:0:0:0:
249,372,300114,5,2,0:0:0:0:
