osu file format v14

[General]
AudioFilename: audio.mp3
AudioLeadIn: 0
PreviewTime: 65387
Countdown: 0
SampleSet: Soft
StackLeniency: 0.7
Mode: 0
LetterboxInBreaks: 0
WidescreenStoryboard: 0

[Editor]
DistanceSpacing: 1
BeatDivisor: 4
GridSize: 32
TimelineZoom: 1.5

[Metadata]
Title:Two souls -toward the truth- (TV Size)
TitleUnicode:Two souls -toward the truth- (TV Size)
Artist:fripSide
ArtistUnicode:fripSide
Creator:Adinda
Version:Normal
Source:終わりのセラフ 名古屋決戦編
Tags:jpop electronic infinite synthesis 3 Nanjo Yoshino 南條愛乃 Yaginuma Satoshi 八木沼悟志 op opening owari no seraph kessen hen of the end battle in nagoya anime japanese pop
BeatmapID:3035363
BeatmapSetID:1463348

[Difficulty]
HPDrainRate:4
CircleSize:3.4
OverallDifficulty:4
ApproachRate:5.5
SliderMultiplier:1.1
SliderTickRate:1

[Events]
//Background and Video events
0,0,"a.jpg",0,0
//Break Periods
//Storyboard Layer 0 (Background)
//Storyboard Layer 1 (Fail)
//Storyboard Layer 2 (Pass)
//Storyboard Layer 3 (Foreground)
//Storyboard Layer 4 (Overlay)
//Storyboard Sound Samples

[TimingPoints]
1478,363.636363636364,4,2,1,45,1,0
1478,-111.111111111111,4,2,1,45,0,0
4387,-105.263157894737,4,2,1,50,0,0
6932,-105.263157894737,4,2,1,60,0,0
7296,-100,4,2,10,80,0,0
7568,-100,4,2,10,5,0,0
7659,-100,4,2,1,80,0,0
10114,-100,4,2,1,5,0,0
10205,-100,4,2,1,80,0,0
18932,-111.111111111111,4,2,1,45,0,0
30568,-105.263157894737,4,2,1,55,0,0
42205,-111.111111111111,4,2,1,65,0,0
53841,-105.263157894737,4,2,1,70,0,0
62568,-105.263157894737,4,2,1,75,0,0
65478,-90.9090909090909,4,2,10,80,0,1
65659,-90.9090909090909,4,2,1,80,0,1
68296,-90.9090909090909,4,2,1,5,0,1
68387,-90.9090909090909,4,2,1,80,0,1
75750,-90.9090909090909,4,2,1,5,0,1
75841,-90.9090909090909,4,2,1,80,0,1
77114,-90.9090909090909,4,2,10,80,0,1
77296,-90.9090909090909,4,2,1,80,0,1
79932,-90.9090909090909,4,2,1,5,0,1
80023,-90.9090909090909,4,2,1,80,0,1
83205,-90.9090909090909,4,2,1,5,0,1
83296,-90.9090909090909,4,2,1,80,0,1
83568,-90.9090909090909,4,2,1,5,0,1
83659,-90.9090909090909,4,2,1,80,0,1
88659,-90.9090909090909,4,2,1,80,0,0

[Colours]
Combo1 : 170,85,255
Combo2 : 192,192,192

[HitObjects]
55,37,1478,5,10,0:1:0:0:
55,37,1659,1,2,0:0:0:0:
72,134,2023,1,2,0:0:0:0:
160,177,2387,2,0,P|209:172|269:177,1,98.9999969787598,2|2,0:0|0:0,0:0:0:0:
297,144,2932,1,10,0:1:0:0:
297,144,3114,1,2,0:0:0:0:
368,75,3478,1,2,0:0:0:0:
437,144,3841,2,0,P|427:193|439:243,1,98.9999969787598,2|10,0:3|0:1,0:0:0:0:
479,279,4387,5,14,0:1:0:0:
479,279,4568,1,2,0:3:0:0:
404,352,4932,1,2,0:3:0:0:
320,288,5296,1,2,0:3:0:0:
240,355,5659,2,0,P|188:354|126:355,1,104.499997209549,10|10,0:1|0:1,0:0:0:0:
94,321,6205,2,0,P|87:291|59:270,1,52.2499986047745,10|10,0:1|0:1,0:0:0:0:
24,256,6568,1,10,0:0:0:0:
79,167,6932,2,0,P|78:137|78:108,1,52.2499986047745,14|10,0:3|0:3,0:0:0:0:
133,110,7296,6,0,P|176:119|254:104,1,110,14|10,0:1|0:0,0:0:0:0:
290,207,8023,1,10,0:1:0:0:
290,207,8205,2,0,P|289:237|290:266,1,55,10|8,0:1|0:0,0:0:0:0:
340,284,8568,2,0,P|383:290|412:353,1,110,14|8,0:1|0:1,0:0:0:0:
462,374,9114,1,10,0:0:0:0:
500,270,9478,1,10,0:1:0:0:
430,184,9841,1,10,0:0:0:0:
466,80,10205,1,14,0:1:0:0:
378,13,10568,6,0,B|311:10|329:31|260:29,1,110,10|10,0:0|0:1,0:0:0:0:
227,65,11114,2,0,P|205:55|159:51,1,55,10|8,0:1|0:0,0:0:0:0:
128,81,11478,2,0,P|128:116|130:203,1,110,14|10,0:1|0:1,0:0:0:0:
161,242,12023,1,10,0:0:0:0:
161,242,12205,1,10,0:1:0:0:
268,210,12568,1,10,0:1:0:0:
268,210,12750,2,0,P|303:199|334:202,1,55,10|10,0:0|0:1,0:0:0:0:
368,227,13114,6,0,P|365:271|369:342,1,110,14|8,0:1|0:0,0:0:0:0:
261,363,13841,2,0,P|221:362|191:366,1,55,10|10,0:1|0:1,0:0:0:0:
155,340,14205,1,10,0:0:0:0:
155,340,14387,2,0,P|115:337|29:340,1,110,14|10,0:1|0:1,0:0:0:0:
16,298,14932,1,10,0:0:0:0:
16,298,15114,1,10,0:1:0:0:
68,201,15478,1,10,0:1:0:0:
68,201,15659,2,0,P|63:166|46:151,1,55,10|2,0:0|0:0,0:0:0:0:
28,102,16023,6,0,P|33:67|50:52,1,55,14|2,0:1|0:0,0:0:0:0:
105,54,16387,1,10,0:0:0:0:
105,54,16568,1,2,0:0:0:0:
213,73,16932,2,0,P|247:71|289:71,1,55,10|10,0:1|0:0,0:0:0:0:
301,114,17296,1,14,0:1:0:0:
263,217,17659,1,10,0:1:0:0:
299,320,18023,2,0,P|333:318|375:318,1,55,10|8,0:1|0:1,0:0:0:0:
383,270,18387,2,0,P|417:268|494:269,1,110,14|4,0:1|0:3,0:0:0:0:
511,222,18932,6,0,P|519:178|505:117,1,98.9999969787598,14|8,0:1|0:1,0:0:0:0:
424,72,19659,2,0,B|325:51|386:31|268:17,1,148.49999546814,10|2,0:1|0:0,0:0:0:0:
194,55,20568,1,2,0:0:0:0:
103,94,20932,1,2,0:0:0:0:
19,327,21841,6,0,P|50:341|127:350,1,98.9999969787599,10|10,0:1|0:1,0:0:0:0:
211,365,22568,2,0,P|203:298|209:205,1,148.49999546814,10|2,0:1|0:0,0:0:0:0:
301,249,23478,1,2,0:0:0:0:
386,298,23841,1,2,0:0:0:0:
431,54,24750,6,0,B|443:144|489:97|494:193,1,148.49999546814,10|2,0:1|0:0,0:0:0:0:
307,115,26023,2,0,P|257:114|209:116,1,98.9999969787599,2|2,0:0|0:0,0:0:0:0:
131,53,26750,1,2,0:0:0:0:
35,226,27478,6,0,P|32:254|74:316,1,98.9999969787599,2|2,0:0|0:0,0:0:0:0:
157,353,28205,1,2,0:0:0:0:
379,245,29114,2,0,P|376:217|455:123,1,148.49999546814,10|2,0:1|0:0,0:0:0:0:
492,118,29841,1,10,0:1:0:0:
511,326,30568,6,0,P|462:326|389:329,1,104.499997209549,14|10,0:1|0:1,0:0:0:0:
314,278,31296,2,0,P|265:278|192:281,1,104.499997209549,10|10,0:1|0:1,0:0:0:0:
163,305,31841,1,2,0:0:0:0:
102,219,32205,2,0,P|100:192|101:160,1,52.2499986047745,2|10,0:0|0:1,0:0:0:0:
144,138,32568,2,0,P|154:94|245:21,1,156.749995814324,2|8,0:0|0:1,0:0:0:0:
332,63,33478,6,0,B|392:55|362:39|451:25,1,104.499997209549,10|10,0:1|0:1,0:0:0:0:
496,115,34205,2,0,P|486:145|472:231,1,104.499997209549,10|10,0:1|0:1,0:0:0:0:
447,262,34750,1,2,0:0:0:0:
367,329,35114,2,0,P|360:298|348:271,1,52.2499986047745,2|10,0:0|0:1,0:0:0:0:
304,256,35478,2,0,P|267:255|190:256,1,104.499997209549,2|0,0:0|0:0,0:0:0:0:
153,167,36205,5,2,0:0:0:0:
153,167,36387,2,0,P|160:115|176:65,1,104.499997209549,14|10,0:1|0:1,0:0:0:0:
130,39,36932,2,0,P|82:37|12:42,1,104.499997209549,2|0,0:0|0:0,0:0:0:0:
5,145,37659,1,2,0:0:0:0:
5,145,37841,2,0,P|20:194|28:246,1,104.499997209549,10|10,0:1|0:1,0:0:0:0:
66,282,38387,2,0,P|100:280|171:281,1,104.499997209549,2|0,0:0|0:0,0:0:0:0:
272,321,39114,5,2,0:0:0:0:
272,321,39296,2,0,P|305:299|383:296,1,104.499997209549,14|10,0:1|0:1,0:0:0:0:
438,214,40023,2,0,P|405:192|327:189,1,104.499997209549,10|10,0:1|0:1,0:0:0:0:
296,210,40568,1,2,0:0:0:0:
233,125,40932,2,0,P|232:95|233:62,1,52.2499986047745,2|10,0:0|0:1,0:0:0:0:
260,30,41296,2,0,P|322:35|426:24,1,156.749995814324,2|14,0:0|0:1,0:0:0:0:
509,59,42205,6,0,P|507:85|509:119,1,49.4999984893799,14|10,0:1|0:1,0:0:0:0:
485,206,42750,2,0,P|487:232|485:266,1,49.4999984893799,10|10,0:1|0:1,0:0:0:0:
378,358,43478,2,0,P|341:339|268:328,2,98.9999969787599,10|10|10,0:1|0:1|0:1,0:0:0:0:
427,358,44387,1,10,0:1:0:0:
303,203,45114,6,0,P|266:204|241:204,1,49.4999984893799,14|10,0:1|0:1,0:0:0:0:
173,146,45659,2,0,P|136:147|111:147,1,49.4999984893799,10|10,0:1|0:1,0:0:0:0:
32,265,46387,2,0,P|33:297|34:371,2,98.9999969787599,10|10|10,0:1|0:1|0:1,0:0:0:0:
10,220,47296,1,10,0:1:0:0:
36,124,47659,2,0,P|35:96|37:64,1,49.4999984893799,10|10,0:1|0:1,0:0:0:0:
74,43,48023,6,0,P|105:35|128:17,1,49.4999984893799,14|10,0:1|0:1,0:0:0:0:
216,46,48568,2,0,P|247:54|270:72,1,49.4999984893799,10|10,0:1|0:1,0:0:0:0:
400,115,49296,2,0,P|390:66|402:9,2,98.9999969787599,10|10|10,0:1|0:1|0:1,0:0:0:0:
370,154,50205,1,10,0:1:0:0:
179,207,50932,6,0,P|157:194|133:189,1,49.4999984893799,14|10,0:1|0:1,0:0:0:0:
80,273,51478,2,0,P|104:277|125:290,1,49.4999984893799,10|10,0:1|0:1,0:0:0:0:
266,336,52205,2,0,P|259:297|269:227,2,98.9999969787599,10|10|10,0:1|0:1|0:1,0:0:0:0:
300,371,53114,1,10,0:0:0:0:
384,319,53478,2,0,P|414:320|445:318,1,49.4999984893799,10|10,0:0|0:0,0:0:0:0:
462,275,53841,6,0,P|465:242|498:167,1,104.499997209549,14|10,0:1|0:0,0:0:0:0:
399,127,54568,2,0,P|396:94|363:19,1,104.499997209549,10|10,0:1|0:0,0:0:0:0:
320,9,55114,1,2,0:0:0:0:
217,30,55478,2,0,P|177:31|102:31,1,104.499997209549,2|2,0:0|0:0,0:0:0:0:
76,131,56205,1,2,0:0:0:0:
76,131,56387,2,0,P|83:161|86:191,1,52.2499986047745,10|10,0:0|0:1,0:0:0:0:
119,222,56750,6,0,P|112:252|100:341,1,104.499997209549,14|10,0:1|0:0,0:0:0:0:
206,322,57478,2,0,P|213:292|225:203,1,104.499997209549,10|10,0:1|0:0,0:0:0:0:
262,184,58023,1,2,0:0:0:0:
346,122,58387,2,0,B|401:116|379:97|458:86,1,104.499997209549,2|2,0:0|0:0,0:0:0:0:
493,186,59114,1,10,0:1:0:0:
493,186,59296,2,0,P|489:220|494:248,1,52.2499986047745,10|10,0:0|0:1,0:0:0:0:
507,288,59659,1,14,0:1:0:0:
425,353,60023,6,0,B|370:347|392:328|313:317,1,104.499997209549,10|10,0:0|0:1,0:0:0:0:
285,350,60568,1,2,0:0:0:0:
181,362,60932,2,0,P|120:357|65:362,1,104.499997209549,2|2,0:0|0:0,0:0:0:0:
58,257,61659,2,0,P|110:260|162:255,1,104.499997209549,2|2,0:0|0:0,0:0:0:0:
193,212,62205,1,10,0:0:0:0:
251,125,62568,6,0,P|303:121|355:126,1,104.499997209549,10|10,0:1|0:0,0:0:0:0:
368,230,63296,2,0,P|368:269|430:318,1,104.499997209549,10|10,0:1|0:0,0:0:0:0:
444,354,63841,1,14,0:1:0:0:
505,269,64205,1,14,0:1:0:0:
451,179,64568,1,14,0:0:0:0:
451,179,64750,1,14,0:0:0:0:
512,94,65114,1,14,0:0:0:0:
420,14,65478,6,0,P|386:24|353:24,1,60.5000018463135,14|2,0:1|0:0,0:0:0:0:
306,44,65841,1,10,0:0:0:0:
306,44,66023,2,0,B|231:30|264:11|172:1,1,121.000003692627,2|8,0:0|0:1,0:0:0:0:
142,34,66568,1,8,0:0:0:0:
142,34,66750,1,14,0:1:0:0:
62,125,67114,1,10,0:1:0:0:
62,125,67296,1,10,0:0:0:0:
62,125,67478,2,0,P|57:164|68:261,1,121.000003692627,10|8,0:1|0:1,0:0:0:0:
108,286,68023,1,8,0:0:0:0:
228,294,68387,6,0,P|230:260|257:229,1,60.5000018463135,14|2,0:1|0:0,0:0:0:0:
250,178,68750,1,10,0:0:0:0:
250,178,68932,2,0,P|252:144|279:113,1,60.5000018463135,2|8,0:0|0:1,0:0:0:0:
260,61,69296,1,10,0:1:0:0:
380,72,69659,2,0,P|376:115|382:203,1,121.000003692627,14|10,0:1|0:1,0:0:0:0:
422,236,70205,1,10,0:0:0:0:
422,236,70387,2,0,P|419:273|427:369,1,121.000003692627,10|8,0:1|0:1,0:0:0:0:
303,357,71114,5,10,0:1:0:0:
303,357,71296,2,0,P|276:335|228:326,1,60.5000018463135,14|2,0:1|0:0,0:0:0:0:
210,283,71659,1,10,0:0:0:0:
210,283,71841,2,0,P|165:281|80:283,1,121.000003692627,2|8,0:0|0:1,0:0:0:0:
52,172,72568,5,14,0:1:0:0:
52,172,72750,2,0,P|79:150|127:141,1,60.5000018463135,2|10,0:0|0:1,0:0:0:0:
145,98,73113,1,10,0:0:0:0:
145,98,73295,2,0,P|190:96|275:98,1,121.000003692627,10|8,0:1|0:1,0:0:0:0:
323,76,73841,1,8,0:0:0:0:
348,194,74205,5,14,0:1:0:0:
348,194,74387,2,0,P|338:226|335:259,1,60.5000018463135,2|10,0:0|0:0,0:0:0:0:
367,304,74750,1,2,0:0:0:0:
476,253,75114,2,0,B|461:198|443:198|429:131,1,121.000003692627,10|14,0:1|0:1,0:0:0:0:
385,28,75841,1,10,0:1:0:0:
271,70,76205,1,10,0:1:0:0:
271,70,76387,2,0,P|226:73|194:69,1,60.5000018463135,10|8,0:1|0:0,0:0:0:0:
159,40,76750,1,8,0:0:0:0:
76,128,77114,6,0,P|89:162|99:200,1,60.5000018463135,14|2,0:1|0:0,0:0:0:0:
149,212,77478,1,10,0:0:0:0:
149,212,77659,2,0,B|228:217|197:251|270:261,1,121.000003692627,2|10,0:0|0:1,0:0:0:0:
320,276,78205,1,8,0:0:0:0:
320,276,78387,1,14,0:1:0:0:
393,182,78750,1,10,0:1:0:0:
393,182,78932,1,10,0:0:0:0:
393,182,79114,2,0,P|391:145|447:79,1,121.000003692627,10|8,0:1|0:1,0:0:0:0:
491,114,79659,1,8,0:0:0:0:
491,235,80023,6,0,P|492:271|494:309,1,60.5000018463135,14|2,0:1|0:0,0:0:0:0:
461,348,80387,1,10,0:0:0:0:
461,348,80568,2,0,P|423:347|386:349,1,60.5000018463135,2|8,0:0|0:1,0:0:0:0:
342,367,80932,1,10,0:1:0:0:
223,341,81296,2,0,B|162:328|188:303|110:292,1,121.000003692627,14|10,0:1|0:1,0:0:0:0:
70,259,81841,1,10,0:0:0:0:
70,259,82023,2,0,P|66:222|30:137,1,121.000003692627,10|8,0:1|0:1,0:0:0:0:
75,99,82568,2,0,P|71:63|74:31,1,60.5000018463135,10|10,0:0|0:1,0:0:0:0:
128,13,82932,5,12,0:1:0:0:
194,133,83296,2,0,P|191:186|196:266,1,121.000003692627,10|10,0:0|0:1,0:0:0:0:
242,290,83841,2,0,P|270:289|314:289,1,60.5000018463135,10|8,0:1|0:0,0:0:0:0:
355,319,84205,2,0,P|407:326|482:317,1,121.000003692627,14|10,0:1|0:1,0:0:0:0:
501,266,84750,1,10,0:0:0:0:
501,266,84932,1,10,0:1:0:0:
481,151,85296,1,10,0:1:0:0:
481,151,85478,2,0,P|479:118|479:89,1,60.5000018463135,10|2,0:0|0:0,0:0:0:0:
434,49,85841,6,0,B|374:36|388:13|317:6,1,121.000003692627,14|10,0:1|0:0,0:0:0:0:
277,47,86387,1,2,0:0:0:0:
180,114,86750,1,10,0:1:0:0:
180,114,86932,1,10,0:0:0:0:
180,114,87114,2,0,P|176:166|183:244,1,121.000003692627,14|14,0:1|0:1,0:0:0:0:
282,310,87841,1,14,0:1:0:0:
282,310,88023,2,0,P|311:308|354:309,1,60.5000018463135,10|12,0:1|0:1,0:0:0:0:
388,349,88387,1,8,0:0:0:0:
388,349,88568,2,8,P|399:347|434:351,1,30.2500009231568
