osu file format v14

[General]
AudioFilename: audio.mp3
AudioLeadIn: 0
PreviewTime: 65387
Countdown: 0
SampleSet: Soft
StackLeniency: 0.7
Mode: 0
LetterboxInBreaks: 0
WidescreenStoryboard: 0

[Editor]
DistanceSpacing: 0.6
BeatDivisor: 4
GridSize: 32
TimelineZoom: 1.8

[Metadata]
Title:Two souls -toward the truth- (TV Size)
TitleUnicode:Two souls -toward the truth- (TV Size)
Artist:fripSide
ArtistUnicode:fripSide
Creator:Adinda
Version:Insane
Source:終わりのセラフ 名古屋決戦編
Tags:jpop electronic infinite synthesis 3 Nanjo Yoshino 南條愛乃 Yaginuma Satoshi 八木沼悟志 op opening owari no seraph kessen hen of the end battle in nagoya anime japanese pop
BeatmapID:3005880
BeatmapSetID:1463348

[Difficulty]
HPDrainRate:5.5
CircleSize:4
OverallDifficulty:8
ApproachRate:9
SliderMultiplier:1.9
SliderTickRate:1

[Events]
//Background and Video events
0,0,"a.jpg",0,0
//Break Periods
//Storyboard Layer 0 (Background)
//Storyboard Layer 1 (Fail)
//Storyboard Layer 2 (Pass)
//Storyboard Layer 3 (Foreground)
//Storyboard Layer 4 (Overlay)
//Storyboard Sound Samples

[TimingPoints]
1478,363.636363636364,4,2,1,45,1,0
1478,-117.647058823529,4,2,1,45,0,0
4387,-105.263157894737,4,2,1,50,0,0
6932,-105.263157894737,4,2,1,60,0,0
7296,-90.9090909090909,4,2,10,80,0,0
7568,-90.9090909090909,4,2,10,5,0,0
7659,-90.9090909090909,4,2,1,80,0,0
10114,-90.9090909090909,4,2,1,5,0,0
10205,-90.9090909090909,4,2,1,80,0,0
18932,-125,4,2,1,45,0,0
30568,-111.111111111111,4,2,1,55,0,0
42205,-111.111111111111,4,2,1,65,0,0
59932,-111.111111111111,4,2,1,5,0,0
60023,-111.111111111111,4,2,1,70,0,0
62568,-111.111111111111,4,2,1,75,0,0
65478,-83.3333333333333,4,2,10,80,0,1
65659,-83.3333333333333,4,2,1,80,0,1
68296,-83.3333333333333,4,2,1,5,0,1
68387,-83.3333333333333,4,2,1,80,0,1
75750,-83.3333333333333,4,2,1,5,0,1
75841,-83.3333333333333,4,2,1,80,0,1
77114,-83.3333333333333,4,2,10,80,0,1
77296,-83.3333333333333,4,2,1,80,0,1
79932,-83.3333333333333,4,2,1,5,0,1
80023,-83.3333333333333,4,2,1,80,0,1
83205,-83.3333333333333,4,2,1,5,0,1
83296,-83.3333333333333,4,2,1,80,0,1
83568,-83.3333333333333,4,2,1,5,0,1
83659,-83.3333333333333,4,2,1,80,0,1
88659,-83.3333333333333,4,2,1,80,0,0

[Colours]
Combo1 : 170,85,255
Combo2 : 192,192,192

[HitObjects]
134,119,1478,5,10,0:1:0:0:
134,119,1659,2,0,P|181:106|225:98,1,80.750001540184,2|8,0:0|0:1,0:0:0:0:
187,199,2023,2,0,P|147:207|108:218,1,80.750001540184,2|8,0:0|0:1,0:0:0:0:
267,300,2387,2,0,P|269:236|375:208,1,161.500003080368,2|2,0:0|0:0,0:0:0:0:
350,198,2841,1,2,0:0:0:0:
350,198,2932,5,10,0:1:0:0:
421,286,3114,2,0,P|419:329|424:377,1,80.750001540184,2|8,0:0|0:1,0:0:0:0:
350,198,3478,2,0,P|353:157|351:117,1,80.750001540184,2|8,0:0|0:1,0:0:0:0:
351,117,3841,5,2,0:3:0:0:
322,26,4023,1,8,0:1:0:0:
412,51,4205,5,10,0:1:0:0:
412,51,4296,1,10,0:1:0:0:
412,51,4387,1,14,0:1:0:0:
264,100,4568,2,0,P|223:73|178:67,1,90.2499975900651,2|8,0:3|0:1,0:0:0:0:
8,168,4932,2,0,P|49:141|94:135,1,90.2499975900651,2|8,0:3|0:1,0:0:0:0:
240,293,5296,2,0,P|199:266|154:260,1,90.2499975900651,2|8,0:3|0:1,0:0:0:0:
297,375,5659,6,0,P|415:368|488:375,1,180.49999518013,10|10,0:1|0:1,0:0:0:0:
385,264,6205,2,0,P|382:217|384:168,1,90.2499975900651,10|10,0:1|0:1,0:0:0:0:
383,173,6478,1,8,0:1:0:0:
383,173,6568,1,10,0:0:0:0:
240,293,6751,5,8,0:3:0:0:
240,293,6842,1,4,0:3:0:0:
240,293,6933,5,14,0:3:0:0:
194,275,7023,1,10,0:3:0:0:
161,241,7114,1,10,0:3:0:0:
128,206,7205,1,10,0:3:0:0:
81,195,7296,6,0,P|88:131|78:30,1,156.750004783631,14|0,0:1|0:0,0:0:0:0:
59,24,7659,2,0,P|113:27|170:22,1,104.500003189087,10|0,0:0|0:0,0:0:0:0:
285,138,8023,1,10,0:1:0:0:
354,75,8205,2,0,P|408:78|465:73,1,104.500003189087,10|8,0:1|0:0,0:0:0:0:
468,364,8568,6,0,P|508:313|445:191,1,209.000006378174,14|8,0:1|0:1,0:0:0:0:
286,262,9114,2,0,P|305:312|311:366,1,104.500003189087,10|8,0:0|0:1,0:0:0:0:
220,363,9387,1,8,0:1:0:0:
220,363,9478,2,0,P|213:311|194:262,1,104.500003189087,10|8,0:1|0:1,0:0:0:0:
51,9,9841,2,0,P|32:57|25:168,1,156.750004783631,10|0,0:0|0:0,0:0:0:0:
105,180,10205,6,0,B|234:169|161:120|299:111,1,209.000006378174,14|10,0:1|0:0,0:0:0:0:
296,111,10750,1,0,0:1:0:0:
464,136,10932,1,10,0:1:0:0:
367,47,11114,1,8,0:1:0:0:
397,208,11296,1,10,0:0:0:0:
346,30,11478,6,0,P|287:16|241:-3,1,104.500003189087,14|0,0:1|0:0,0:0:0:0:
297,238,11841,2,0,P|356:224|402:205,1,104.500003189087,10|8,0:1|0:0,0:0:0:0:
283,364,12205,5,10,0:1:0:0:
283,364,12296,1,8,0:1:0:0:
283,364,12387,1,8,0:1:0:0:
297,238,12568,1,10,0:1:0:0:
377,324,12750,1,10,0:0:0:0:
201,283,12932,5,10,0:1:0:0:
201,283,13023,1,8,0:1:0:0:
201,283,13114,2,0,B|46:274|126:326|-2:323,2,209.000006378174,14|8|10,0:1|0:0|0:1,0:0:0:0:
86,151,14023,2,0,P|83:97|86:37,1,104.500003189087,10|8,0:1|0:0,0:0:0:0:
319,40,14387,6,0,P|315:104|190:116,1,209.000006378174,14|10,0:1|0:1,0:0:0:0:
368,215,14932,2,0,P|424:204|488:199,1,104.500003189087,10|10,0:0|0:1,0:0:0:0:
488,229,15205,1,8,0:1:0:0:
488,229,15296,1,8,0:1:0:0:
313,360,15478,5,10,0:1:0:0:
433,346,15659,1,10,0:0:0:0:
368,215,15841,1,2,0:0:0:0:
97,287,16023,5,14,0:1:0:0:
185,193,16205,1,2,0:0:0:0:
102,314,16387,1,10,0:0:0:0:
190,220,16568,2,0,P|184:165|156:114,1,104.500003189087,2|8,0:0|0:1,0:0:0:0:
112,23,16932,5,10,0:1:0:0:
231,46,17114,1,10,0:0:0:0:
31,211,17296,2,0,P|37:156|65:105,1,104.500003189087,14|0,0:1|0:0,0:0:0:0:
345,0,17659,2,0,P|367:46|372:98,1,104.500003189087,10|8,0:1|0:0,0:0:0:0:
444,174,18023,5,10,0:1:0:0:
476,165,18114,1,8,0:1:0:0:
511,175,18205,1,8,0:1:0:0:
391,274,18387,2,0,P|429:269|497:274,1,104.500003189087,10|0,0:1|0:0,0:0:0:0:
294,351,18750,5,4,0:3:0:0:
294,351,18841,1,4,0:3:0:0:
294,351,18932,2,0,P|299:291|290:191,2,152,14|8|10,0:1|0:1|0:1,0:0:0:0:
142,292,19841,2,0,P|180:290|225:263,1,76,2|8,0:0|0:1,0:0:0:0:
184,146,20205,6,0,P|108:153|32:145,1,152,2|2,0:0|0:0,0:0:0:0:
111,33,20750,1,10,0:1:0:0:
34,66,20932,2,0,P|96:73|208:61,1,152,2|0,0:0|0:0,0:0:0:0:
264,25,21478,2,0,P|315:21|371:30,1,76,8|0,0:1|0:0,0:0:0:0:
305,193,21841,6,0,P|317:248|337:278,1,76,10|0,0:1|0:0,0:0:0:0:
455,305,22205,2,0,P|443:360|423:390,1,76,10|0,0:1|0:0,0:0:0:0:
411,217,22568,5,10,0:1:0:0:
411,217,22750,1,2,0:0:0:0:
509,237,22932,1,10,0:1:0:0:
465,152,23114,6,0,P|480:102|441:7,1,152,2|2,0:0|0:0,0:0:0:0:
380,93,23659,1,10,0:1:0:0:
463,0,23841,2,0,P|496:66|482:140,1,152,2|0,0:0|0:0,0:0:0:0:
322,170,24387,2,0,P|281:168|233:171,1,76,8|2,0:1|0:0,0:0:0:0:
119,293,24750,5,10,0:1:0:0:
84,227,24932,1,2,0:0:0:0:
127,166,25114,1,10,0:1:0:0:
92,100,25296,1,2,0:0:0:0:
244,0,25478,6,0,P|207:-1|158:1,1,76,10|0,0:1|0:0,0:0:0:0:
247,73,25841,2,0,P|210:72|161:74,1,76,10|0,0:1|0:0,0:0:0:0:
377,64,26205,5,10,0:1:0:0:
391,40,26387,1,2,0:0:0:0:
417,54,26568,1,10,0:1:0:0:
431,30,26750,2,0,P|423:73|423:117,1,76,2|8,0:0|0:1,0:0:0:0:
512,202,27114,2,0,P|510:239|503:277,1,76,2|8,0:0|0:1,0:0:0:0:
333,381,27478,5,2,0:0:0:0:
304,289,27659,1,10,0:1:0:0:
389,312,27841,1,2,0:0:0:0:
248,356,28023,1,10,0:1:0:0:
248,356,28205,2,0,P|182:340|89:331,1,152,2|0,0:0|0:0,0:0:0:0:
186,213,28750,2,0,P|175:175|151:138,1,76,8|2,0:1|0:0,0:0:0:0:
102,14,29114,6,0,P|91:52|15:161,1,152,10|8,0:1|0:1,0:0:0:0:
30,146,29659,1,2,0:0:0:0:
186,213,29841,2,0,P|232:214|274:212,1,76,10|0,0:1|0:0,0:0:0:0:
356,132,30205,5,10,0:1:0:0:
398,263,30387,1,10,0:1:0:0:
496,178,30568,6,0,P|481:123|454:87,1,85.4999973907472,14|0,0:1|0:0,0:0:0:0:
267,79,30932,2,0,P|282:24|309:-12,1,85.4999973907472,10|0,0:1|0:0,0:0:0:0:
101,12,31296,5,10,0:1:0:0:
125,111,31478,1,2,0:0:0:0:
174,38,31659,1,10,0:1:0:0:
39,85,31841,2,0,P|35:160|41:268,1,170.999994781494,2|2,0:0|0:0,0:0:0:0:
237,277,32387,5,10,0:1:0:0:
316,214,32568,2,0,P|320:289|314:397,1,170.999994781494,2|0,0:0|0:0,0:0:0:0:
401,288,33114,2,0,P|448:277|496:271,1,85.4999973907472,8|0,0:1|0:0,0:0:0:0:
425,119,33478,6,0,P|472:108|520:102,1,85.4999973907472,10|0,0:1|0:0,0:0:0:0:
295,64,33841,2,0,P|354:48|479:26,1,170.999994781494,10|10,0:1|0:1,0:0:0:0:
200,115,34387,2,0,P|188:166|150:207,1,85.4999973907472,2|8,0:0|0:1,0:0:0:0:
74,261,34750,6,0,P|84:202|68:77,1,170.999994781494,2|2,0:0|0:0,0:0:0:0:
19,22,35296,1,10,0:1:0:0:
1,183,35478,2,0,P|-11:267|0:351,1,170.999994781494,2|0,0:0|0:0,0:0:0:0:
216,198,36023,2,0,P|204:149|198:102,1,85.4999973907472,8|2,0:1|0:0,0:0:0:0:
318,270,36387,6,0,P|330:221|336:174,1,85.4999973907472,14|0,0:1|0:0,0:0:0:0:
334,186,36750,1,10,0:1:0:0:
495,249,36932,2,0,P|429:264|404:369,1,170.999994781494,2|0,0:0|0:0,0:0:0:0:
294,373,37478,2,0,P|248:371|197:372,1,85.4999973907472,8|2,0:1|0:0,0:0:0:0:
107,211,37841,6,0,P|61:209|10:210,1,85.4999973907472,10|0,0:1|0:0,0:0:0:0:
88,49,38205,1,10,0:1:0:0:
11,22,38387,2,0,P|39:111|127:118,1,170.999994781494,2|0,0:0|0:0,0:0:0:0:
215,13,38932,2,0,P|215:62|232:102,1,85.4999973907472,8|2,0:1|0:0,0:0:0:0:
348,197,39296,6,0,P|346:154|360:114,1,85.4999973907472,14|0,0:1|0:0,0:0:0:0:
429,247,39659,2,0,P|427:204|441:164,1,85.4999973907472,10|0,0:1|0:0,0:0:0:0:
350,291,40023,2,0,P|286:284|173:293,1,170.999994781494,10|10,0:1|0:1,0:0:0:0:
274,374,40568,6,0,P|359:382|444:374,1,170.999994781494,2|2,0:0|0:0,0:0:0:0:
512,308,41114,2,0,P|509:263|510:219,1,85.4999973907472,10|0,0:1|0:0,0:0:0:0:
391,64,41478,6,0,P|438:53|472:31,1,85.4999973907472,14|0,0:1|0:0,0:0:0:0:
309,31,41841,2,0,P|272:9|230:0,1,85.4999973907472,14|0,0:1|0:0,0:0:0:0:
28,205,42205,5,14,0:1:0:0:
8,24,42387,1,10,0:1:0:0:
15,55,42750,5,10,0:1:0:0:
35,236,42932,2,0,P|35:322|111:342,1,170.999994781494,10|0,0:1|0:0,0:0:0:0:
199,290,43478,6,0,P|155:269|119:231,1,85.4999973907472,10|0,0:1|0:0,0:0:0:0:
268,100,43841,2,0,P|224:121|188:159,1,85.4999973907472,10|0,0:1|0:0,0:0:0:0:
313,23,44205,5,10,0:1:0:0:
313,23,44296,1,10,0:1:0:0:
313,23,44387,1,10,0:1:0:0:
359,106,44568,1,2,0:0:0:0:
268,100,44750,1,2,0:0:0:0:
415,31,44932,1,2,0:0:0:0:
338,206,45114,5,14,0:1:0:0:
481,366,45296,1,10,0:1:0:0:
454,371,45659,5,10,0:1:0:0:
311,211,45841,2,0,P|292:273|319:388,1,170.999994781494,10|0,0:1|0:0,0:0:0:0:
176,255,46387,6,0,P|133:242|84:233,1,85.4999973907472,10|0,0:1|0:0,0:0:0:0:
93,361,46750,2,0,P|134:352|175:340,1,85.4999973907472,10|0,0:1|0:0,0:0:0:0:
311,375,47114,5,10,0:1:0:0:
311,375,47296,1,10,0:1:0:0:
311,211,47478,5,2,0:0:0:0:
319,230,47568,1,2,0:0:0:0:
332,247,47659,1,10,0:1:0:0:
349,260,47750,1,2,0:0:0:0:
368,268,47841,1,10,0:1:0:0:
284,45,48023,5,14,0:1:0:0:
466,158,48205,1,10,0:1:0:0:
457,135,48568,5,10,0:1:0:0:
277,24,48750,2,0,B|163:7|215:60|96:44,1,170.999994781494,10|0,0:1|0:0,0:0:0:0:
15,253,49296,6,0,P|21:211|40:162,1,85.4999973907472,10|0,0:1|0:0,0:0:0:0:
239,326,49659,2,0,P|233:284|214:235,1,85.4999973907472,10|0,0:1|0:0,0:0:0:0:
459,289,50023,5,10,0:1:0:0:
459,289,50114,1,10,0:1:0:0:
459,289,50205,1,10,0:1:0:0:
346,258,50387,1,2,0:0:0:0:
421,216,50568,1,2,0:0:0:0:
386,333,50750,1,2,0:0:0:0:
493,131,50932,5,14,0:1:0:0:
290,8,51114,1,10,0:1:0:0:
307,34,51478,5,10,0:1:0:0:
507,157,51659,2,0,B|399:143|471:105|342:97,1,170.999994781494,10|0,0:1|0:0,0:0:0:0:
418,304,52205,6,0,P|466:286|508:275,1,85.4999973907472,10|0,0:1|0:0,0:0:0:0:
244,361,52568,2,0,P|196:343|154:332,1,85.4999973907472,10|0,0:1|0:0,0:0:0:0:
36,266,52932,5,10,0:1:0:0:
35,294,53023,1,8,0:1:0:0:
35,324,53114,2,0,L|51:374,1,42.7499986953736,10|0,0:0|0:0,0:0:0:0:
176,293,53296,2,0,L|160:343,1,42.7499986953736,10|0,0:1|0:0,0:0:0:0:
115,193,53478,5,10,0:0:0:0:
94,155,53568,1,10,0:0:0:0:
87,113,53659,1,10,0:0:0:0:
94,71,53750,1,10,0:0:0:0:
114,33,53841,2,0,P|159:25|217:3,1,85.4999973907472,14|0,0:1|0:0,0:0:0:0:
176,293,54205,2,0,P|220:301|278:323,1,85.4999973907472,10|0,0:0|0:0,0:0:0:0:
370,176,54568,6,0,P|355:104|370:-5,1,170.999994781494,10|10,0:1|0:0,0:0:0:0:
448,225,55114,2,0,P|463:153|448:44,1,170.999994781494,2|2,0:0|0:0,0:0:0:0:
512,0,55659,5,10,0:0:0:0:
472,318,55841,2,0,P|417:317|316:382,1,170.999994781494,2|2,0:0|0:0,0:0:0:0:
65,280,56387,6,0,P|63:231|63:185,1,85.4999973907472,10|10,0:0|0:1,0:0:0:0:
47,167,56659,1,8,0:0:0:0:
32,149,56750,2,0,P|30:101|139:31,1,170.999994781494,14|8,0:1|0:0,0:0:0:0:
117,29,57296,5,0,0:0:0:0:
230,93,57478,1,10,0:1:0:0:
159,131,57659,1,2,0:0:0:0:
198,0,57841,1,10,0:0:0:0:
346,2,58023,6,0,P|330:62|355:188,1,170.999994781494,2|2,0:0|0:0,0:0:0:0:
400,290,58568,1,10,0:0:0:0:
302,334,58750,1,10,0:1:0:0:
302,334,58841,1,8,0:1:0:0:
302,334,58932,1,8,0:1:0:0:
317,246,59114,1,10,0:1:0:0:
380,384,59296,1,10,0:0:0:0:
497,258,59478,5,10,0:1:0:0:
497,258,59568,1,8,0:0:0:0:
497,258,59659,2,0,P|499:205|491:117,1,128.249996086121,14|0,0:1|0:0,0:0:0:0:
433,75,60023,2,0,P|390:78|344:76,1,85.4999973907472,10|0,0:0|0:0,0:0:0:0:
121,149,60387,5,10,0:1:0:0:
56,77,60568,2,0,P|63:32|89:-5,1,85.4999973907472,2|8,0:0|0:0,0:0:0:0:
190,216,60932,6,0,P|194:274|300:302,1,170.999994781494,2|2,0:0|0:0,0:0:0:0:
362,365,61478,1,10,0:0:0:0:
414,87,61659,2,0,P|410:145|304:173,1,170.999994781494,2|2,0:0|0:0,0:0:0:0:
288,52,62205,5,10,0:0:0:0:
344,111,62387,1,2,0:0:0:0:
509,79,62568,1,10,0:1:0:0:
509,79,62659,1,2,0:0:0:0:
509,79,62750,2,0,P|508:130|510:178,1,85.4999973907472,2|10,0:0|0:0,0:0:0:0:
509,164,63023,1,2,0:0:0:0:
509,164,63114,1,2,0:0:0:0:
425,327,63295,5,10,0:1:0:0:
402,345,63386,1,2,0:0:0:0:
374,356,63477,1,2,0:0:0:0:
344,359,63568,1,2,0:0:0:0:
315,354,63659,1,10,0:0:0:0:
288,341,63750,1,2,0:0:0:0:
258,322,63841,6,0,P|252:275|233:231,1,85.4999973907472,14|8,0:1|0:0,0:0:0:0:
108,378,64205,2,0,P|114:331|133:287,1,85.4999973907472,14|8,0:1|0:1,0:0:0:0:
400,129,64568,5,14,0:0:0:0:
395,167,64659,1,8,0:0:0:0:
401,210,64750,1,14,0:0:0:0:
180,110,64932,5,8,0:1:0:0:
180,110,65023,1,8,0:1:0:0:
180,110,65115,5,8,0:0:0:0:
135,94,65205,1,8,0:0:0:0:
98,66,65296,1,8,0:0:0:0:
61,37,65387,1,8,0:0:0:0:
17,22,65478,5,14,0:1:0:0:
0,195,65659,1,2,0:0:0:0:
220,0,65841,1,10,0:0:0:0:
203,189,66023,2,0,P|184:252|177:314,1,113.999996520996,2|8,0:0|0:1,0:0:0:0:
395,274,66387,2,0,P|386:330|369:384,1,113.999996520996,10|8,0:1|0:0,0:0:0:0:
359,168,66750,6,0,P|417:164|486:23,1,227.999993041992,14|10,0:1|0:1,0:0:0:0:
265,66,67296,2,0,P|324:68|402:61,1,113.999996520996,10|10,0:0|0:1,0:0:0:0:
375,38,67568,1,8,0:1:0:0:
375,38,67659,1,8,0:1:0:0:
121,110,67841,5,8,0:1:0:0:
35,71,68023,2,0,P|21:157|44:254,1,170.999994781494,8|0,0:0|0:0,0:0:0:0:
16,268,68387,5,14,0:1:0:0:
218,174,68568,1,2,0:0:0:0:
154,290,68750,1,10,0:0:0:0:
356,380,68932,6,0,P|329:328|343:267,1,113.999996520996,2|8,0:0|0:1,0:0:0:0:
512,214,69296,2,0,P|520:269|494:318,1,113.999996520996,10|8,0:1|0:0,0:0:0:0:
295,142,69659,6,0,B|439:121|337:64|513:50,1,227.999993041992,14|10,0:1|0:1,0:0:0:0:
296,56,70205,2,0,P|241:44|179:8,1,113.999996520996,10|10,0:0|0:1,0:0:0:0:
174,39,70478,1,8,0:1:0:0:
174,39,70568,2,0,P|119:51|57:87,1,113.999996520996,8|8,0:1|0:1,0:0:0:0:
233,229,70932,2,0,P|178:217|116:181,1,113.999996520996,8|10,0:0|0:1,0:0:0:0:
112,216,71205,1,8,0:1:0:0:
112,216,71296,5,14,0:1:0:0:
271,139,71478,1,2,0:0:0:0:
174,39,71659,1,10,0:0:0:0:
95,236,71841,2,0,P|92:294|95:350,1,113.999996520996,2|8,0:0|0:1,0:0:0:0:
355,239,72205,2,0,P|358:297|355:353,1,113.999996520996,10|8,0:1|0:0,0:0:0:0:
512,310,72568,5,14,0:1:0:0:
388,163,72750,1,2,0:0:0:0:
494,229,72932,1,10,0:1:0:0:
370,82,73114,1,10,0:0:0:0:
474,8,73296,5,10,0:1:0:0:
474,8,73387,1,8,0:1:0:0:
474,8,73478,2,0,P|487:68|513:124,1,113.999996520996,8|8,0:1|0:1,0:0:0:0:
272,244,73841,2,0,P|294:296|306:351,1,113.999996520996,8|0,0:0|0:0,0:0:0:0:
161,167,74205,5,14,0:1:0:0:
34,268,74387,1,2,0:0:0:0:
110,342,74568,1,10,0:0:0:0:
73,107,74750,2,0,P|61:51|38:0,1,113.999996520996,2|8,0:0|0:1,0:0:0:0:
0,161,75114,2,0,P|11:216|34:268,1,113.999996520996,10|8,0:1|0:0,0:0:0:0:
199,44,75478,6,0,P|253:26|369:35,1,170.999994781494,14|0,0:1|0:0,0:0:0:0:
392,62,75841,2,0,P|392:121|396:199,1,113.999996520996,10|8,0:1|0:0,0:0:0:0:
346,333,76205,5,10,0:1:0:0:
343,300,76296,1,8,0:1:0:0:
343,270,76387,1,10,0:1:0:0:
254,374,76568,5,8,0:0:0:0:
251,341,76659,1,8,0:0:0:0:
251,311,76750,1,8,0:0:0:0:
37,218,76932,5,8,0:0:0:0:
37,218,77023,1,8,0:0:0:0:
37,218,77114,1,14,0:1:0:0:
220,168,77296,1,2,0:0:0:0:
120,54,77478,1,10,0:0:0:0:
139,331,77659,2,0,P|201:317|257:311,1,113.999996520996,2|8,0:0|0:1,0:0:0:0:
399,205,78023,2,0,P|461:219|517:225,1,113.999996520996,10|8,0:1|0:0,0:0:0:0:
421,44,78387,6,0,P|359:30|191:2,1,227.999993041992,14|10,0:1|0:1,0:0:0:0:
142,222,78932,2,0,P|137:157|141:100,1,113.999996520996,10|10,0:0|0:1,0:0:0:0:
159,95,79205,1,8,0:1:0:0:
159,95,79296,1,8,0:1:0:0:
288,114,79478,5,8,0:1:0:0:
250,202,79659,2,0,P|255:267|251:374,1,170.999994781494,8|0,0:0|0:0,0:0:0:0:
223,366,80023,5,14,0:1:0:0:
350,201,80205,1,2,0:0:0:0:
512,286,80387,1,10,0:0:0:0:
385,119,80568,6,0,P|449:102|503:80,1,113.999996520996,2|8,0:0|0:1,0:0:0:0:
259,0,80932,2,0,P|323:17|377:39,1,113.999996520996,10|8,0:1|0:0,0:0:0:0:
0,234,81296,6,0,B|144:213|42:156|218:142,1,227.999993041992,14|10,0:1|0:1,0:0:0:0:
132,342,81841,2,0,P|146:284|176:235,1,113.999996520996,10|10,0:0|0:1,0:0:0:0:
203,262,82114,1,8,0:1:0:0:
203,262,82205,2,0,P|231:310|244:366,1,113.999996520996,8|8,0:1|0:1,0:0:0:0:
512,296,82568,5,10,0:0:0:0:
422,192,82750,1,10,0:1:0:0:
422,192,82841,1,8,0:1:0:0:
422,192,82932,2,0,B|425:93|378:133|388:18,1,170.999994781494,12|0,0:1|0:1,0:0:0:0:
349,24,83296,2,0,P|292:47|181:19,1,170.999994781494,10|0,0:0|0:0,0:0:0:0:
161,4,83659,1,10,0:1:0:0:
121,129,83841,2,0,P|53:127|-7:134,1,113.999996520996,10|8,0:1|0:0,0:0:0:0:
81,255,84205,6,0,P|72:326|204:353,1,227.999993041992,14|10,0:1|0:1,0:0:0:0:
335,248,84750,2,0,P|319:316|314:384,1,113.999996520996,10|10,0:0|0:1,0:0:0:0:
339,371,85023,1,8,0:1:0:0:
339,371,85114,1,8,0:1:0:0:
440,210,85296,5,10,0:1:0:0:
426,303,85478,1,10,0:0:0:0:
413,187,85659,1,2,0:0:0:0:
501,254,85841,5,14,0:1:0:0:
339,371,86023,1,2,0:0:0:0:
491,143,86205,5,10,0:0:0:0:
329,26,86387,2,0,P|345:94|350:162,1,113.999996520996,2|8,0:0|0:1,0:0:0:0:
129,219,86750,5,10,0:1:0:0:
287,247,86932,1,10,0:0:0:0:
194,112,87114,2,0,P|178:44|173:-24,1,113.999996520996,14|0,0:1|0:0,0:0:0:0:
0,164,87478,2,0,P|16:96|21:28,1,113.999996520996,12|8,0:1|0:0,0:0:0:0:
163,304,87841,5,14,0:1:0:0:
193,310,87932,1,8,0:1:0:0:
223,303,88023,1,10,0:1:0:0:
302,154,88205,5,12,0:1:0:0:
295,97,88295,1,8,0:1:0:0:
315,45,88386,1,8,0:0:0:0:
357,8,88477,1,8,0:0:0:0:
412,0,88568,1,8,0:0:0:0:
467,10,88659,5,8,0:0:0:0:
