osu file format v14

[General]
AudioFilename: audio.mp3
AudioLeadIn: 0
PreviewTime: 65387
Countdown: 0
SampleSet: Soft
StackLeniency: 0.7
Mode: 0
LetterboxInBreaks: 0
WidescreenStoryboard: 0

[Editor]
DistanceSpacing: 1.4
BeatDivisor: 4
GridSize: 32
TimelineZoom: 1.5

[Metadata]
Title:Two souls -toward the truth- (TV Size)
TitleUnicode:Two souls -toward the truth- (TV Size)
Artist:fripSide
ArtistUnicode:fripSide
Creator:Adinda
Version:Hard
Source:終わりのセラフ 名古屋決戦編
Tags:jpop electronic infinite synthesis 3 Nanjo Yoshino 南條愛乃 Yaginuma Satoshi 八木沼悟志 op opening owari no seraph kessen hen of the end battle in nagoya anime japanese pop
BeatmapID:3035260
BeatmapSetID:1463348

[Difficulty]
HPDrainRate:5
CircleSize:3.4
OverallDifficulty:6
ApproachRate:8
SliderMultiplier:1.4
SliderTickRate:1

[Events]
//Background and Video events
0,0,"a.jpg",0,0
//Break Periods
//Storyboard Layer 0 (Background)
//Storyboard Layer 1 (Fail)
//Storyboard Layer 2 (Pass)
//Storyboard Layer 3 (Foreground)
//Storyboard Layer 4 (Overlay)
//Storyboard Sound Samples

[TimingPoints]
1478,363.636363636364,4,2,1,45,1,0
1478,-111.111111111111,4,2,1,45,0,0
4387,-105.263157894737,4,2,1,50,0,0
6932,-105.263157894737,4,2,1,60,0,0
7296,-100,4,2,10,80,0,0
7568,-100,4,2,10,5,0,0
7659,-100,4,2,1,80,0,0
10114,-100,4,2,1,5,0,0
10205,-100,4,2,1,80,0,0
18932,-111.111111111111,4,2,1,45,0,0
30568,-105.263157894737,4,2,1,55,0,0
42205,-111.111111111111,4,2,1,65,0,0
53841,-105.263157894737,4,2,1,70,0,0
62568,-105.263157894737,4,2,1,75,0,0
65478,-90.9090909090909,4,2,10,80,0,1
65659,-90.9090909090909,4,2,1,80,0,1
68296,-90.9090909090909,4,2,1,5,0,1
68387,-90.9090909090909,4,2,1,80,0,1
75750,-90.9090909090909,4,2,1,5,0,1
75841,-90.9090909090909,4,2,1,80,0,1
77114,-90.9090909090909,4,2,10,80,0,1
77296,-90.9090909090909,4,2,1,80,0,1
79932,-90.9090909090909,4,2,1,5,0,1
80023,-90.9090909090909,4,2,1,80,0,1
83205,-90.9090909090909,4,2,1,5,0,1
83296,-90.9090909090909,4,2,1,80,0,1
83568,-90.9090909090909,4,2,1,5,0,1
83659,-90.9090909090909,4,2,1,80,0,1
88659,-90.9090909090909,4,2,1,80,0,0

[Colours]
Combo1 : 170,85,255
Combo2 : 192,192,192

[HitObjects]
75,66,1478,5,10,0:1:0:0:
75,66,1659,2,0,P|72:108|76:148,1,62.9999980773926,2|8,0:0|0:1,0:0:0:0:
162,128,2023,2,0,P|163:96|160:65,1,62.9999980773926,2|8,0:0|0:1,0:0:0:0:
223,3,2387,2,0,P|270:15|318:83,1,125.999996154785,2|0,0:0|0:0,0:0:0:0:
375,146,2932,5,10,0:1:0:0:
375,146,3114,2,0,P|410:140|455:138,1,62.9999980773926,2|8,0:0|0:1,0:0:0:0:
450,225,3478,2,0,P|481:230|512:232,1,62.9999980773926,2|8,0:0|0:1,0:0:0:0:
475,312,3841,2,0,P|477:353|395:367,1,125.999996154785,2|8,0:3|0:1,0:0:0:0:
337,302,4387,5,14,0:1:0:0:
337,302,4568,2,0,P|295:301|255:305,1,66.4999982242585,2|8,0:3|0:1,0:0:0:0:
187,260,4932,2,0,P|145:259|105:263,1,66.4999982242585,2|8,0:3|0:1,0:0:0:0:
67,183,5296,2,0,P|25:182|-15:186,1,66.4999982242585,2|8,0:3|0:1,0:0:0:0:
33,96,5659,6,0,B|16:48|63:3|63:3|89:36,1,132.999996448517,10|10,0:1|0:1,0:0:0:0:
144,94,6205,2,0,P|174:78|195:38,1,66.4999982242585,10|10,0:1|0:1,0:0:0:0:
202,36,6478,1,8,0:1:0:0:
212,21,6568,1,10,0:0:0:0:
309,54,6750,1,8,0:3:0:0:
309,54,6841,1,4,0:3:0:0:
309,54,6932,2,0,P|328:51|362:53,3,33.2499991121292,14|10|10|10,0:3|0:3|0:3|0:3,0:0:0:0:
359,96,7296,6,0,P|353:139|363:245,2,140,14|10|10,0:1|0:0|0:1,0:0:0:0:
411,13,8205,2,0,P|445:12|480:14,1,70,10|8,0:1|0:0,0:0:0:0:
500,124,8568,6,0,P|508:167|433:148,1,140,14|8,0:1|0:1,0:0:0:0:
360,234,9114,2,0,P|320:232|281:235,1,70,10|8,0:0|0:1,0:0:0:0:
270,224,9387,1,8,0:1:0:0:
250,212,9478,2,0,P|210:210|171:213,1,70,10|8,0:1|0:1,0:0:0:0:
88,177,9841,2,0,P|84:222|89:290,1,105,10|0,0:0|0:0,0:0:0:0:
129,308,10205,6,0,B|226:320|164:348|266:367,2,140,14|10|10,0:1|0:0|0:1,0:0:0:0:
170,219,11114,2,0,P|204:217|239:219,1,70,10|8,0:1|0:0,0:0:0:0:
335,278,11478,6,0,P|385:280|495:275,1,140,14|10,0:1|0:1,0:0:0:0:
490,180,12023,2,0,P|472:150|460:111,1,70,10|10,0:0|0:1,0:0:0:0:
440,111,12296,1,8,0:1:0:0:
423,104,12387,2,0,P|405:74|393:35,1,70,8|10,0:1|0:1,0:0:0:0:
298,21,12750,2,0,P|287:54|269:84,1,70,10|10,0:0|0:1,0:0:0:0:
255,97,13023,1,8,0:1:0:0:
235,110,13114,6,0,P|187:108|76:116,2,140,14|8|10,0:1|0:0|0:1,0:0:0:0:
284,194,14023,2,0,P|272:231|267:267,1,70,10|8,0:1|0:0,0:0:0:0:
380,291,14387,6,0,P|441:280|504:346,1,140,14|10,0:1|0:1,0:0:0:0:
415,379,14932,2,0,P|367:377|337:379,1,70,10|10,0:0|0:1,0:0:0:0:
327,370,15205,1,8,0:1:0:0:
308,359,15296,5,8,0:1:0:0:
211,343,15478,1,10,0:1:0:0:
119,309,15659,2,0,P|71:307|41:309,1,70,10|0,0:0|0:0,0:0:0:0:
100,207,16023,5,14,0:1:0:0:
26,141,16205,1,2,0:0:0:0:
115,101,16387,1,10,0:0:0:0:
40,37,16568,2,0,B|117:27|104:-3|195:1,1,140,2|10,0:0|0:1,0:0:0:0:
268,30,17114,1,10,0:0:0:0:
231,134,17296,6,0,P|228:168|248:200,1,70,14|0,0:1|0:0,0:0:0:0:
340,222,17659,2,0,P|343:256|323:288,1,70,10|8,0:1|0:0,0:0:0:0:
388,374,18023,1,10,0:1:0:0:
388,374,18114,1,8,0:1:0:0:
388,374,18205,1,8,0:1:0:0:
458,306,18387,2,0,P|457:289|457:265,5,35,14|4|4|4|4|4,0:1|0:3|0:3|0:3|0:3|0:3,0:0:0:0:
487,239,18932,6,0,P|485:202|484:107,1,125.999996154785,14|8,0:1|0:1,0:0:0:0:
332,21,19659,2,0,P|303:35|268:41,1,62.9999980773926,10|0,0:1|0:0,0:0:0:0:
206,99,20023,1,10,0:1:0:0:
206,99,20205,2,0,P|177:85|68:69,1,125.999996154785,2|2,0:0|0:0,0:0:0:0:
39,143,20750,1,10,0:1:0:0:
39,143,20932,2,0,P|35:182|41:275,2,125.999996154785,2|2|2,0:0|0:0|0:0,0:0:0:0:
111,92,21841,6,0,P|173:99|231:122,1,125.999996154785,10|10,0:1|0:1,0:0:0:0:
388,204,22568,2,0,P|346:202|308:204,1,62.9999980773926,10|0,0:1|0:0,0:0:0:0:
358,122,22932,1,10,0:1:0:0:
358,122,23114,2,0,P|350:88|438:44,1,125.999996154785,2|2,0:0|0:0,0:0:0:0:
483,82,23659,1,10,0:1:0:0:
483,82,23841,2,0,P|479:120|483:224,1,125.999996154785,2|2,0:0|0:0,0:0:0:0:
374,348,24568,5,2,0:0:0:0:
302,295,24750,2,0,P|268:291|234:276,1,62.9999980773926,10|0,0:1|0:0,0:0:0:0:
196,203,25114,2,0,P|230:199|264:184,1,62.9999980773926,10|0,0:1|0:0,0:0:0:0:
314,117,25478,2,0,P|280:116|246:101,1,62.9999980773926,10|0,0:1|0:0,0:0:0:0:
208,28,25842,2,0,P|242:24|276:9,1,62.9999980773926,10|0,0:1|0:0,0:0:0:0:
351,43,26205,2,0,P|385:47|419:62,2,62.9999980773926,10|2|10,0:1|0:0|0:1,0:0:0:0:
268,13,26750,2,0,P|221:14|129:12,1,125.999996154785,2|2,0:0|0:0,0:0:0:0:
52,165,27478,5,2,0:0:0:0:
52,165,27659,2,0,P|61:202|66:238,1,62.9999980773926,10|0,0:1|0:0,0:0:0:0:
125,291,28023,1,10,0:1:0:0:
125,291,28205,2,0,P|167:293|210:378,1,125.999996154785,2|0,0:0|0:0,0:0:0:0:
300,366,28750,2,0,P|338:366|375:367,1,62.9999980773926,8|2,0:1|0:0,0:0:0:0:
390,282,29114,2,0,P|417:227|477:216,1,125.999996154785,10|8,0:1|0:1,0:0:0:0:
480,127,29659,1,2,0:0:0:0:
480,127,29841,2,0,B|405:122|434:97|359:93,1,125.999996154785,10|10,0:1|0:1,0:0:0:0:
275,67,30387,1,10,0:1:0:0:
266,173,30568,6,0,P|263:215|266:251,1,66.4999982242585,14|0,0:1|0:0,0:0:0:0:
211,316,30932,2,0,P|167:314|73:316,1,132.999996448517,10|10,0:1|0:1,0:0:0:0:
15,245,31478,2,0,P|13:211|16:178,1,66.4999982242585,2|8,0:0|0:1,0:0:0:0:
98,135,31841,2,0,P|94:86|152:26,1,132.999996448517,2|2,0:0|0:0,0:0:0:0:
186,117,32387,1,10,0:1:0:0:
186,117,32568,2,0,P|190:166|132:226,2,132.999996448517,2|2|2,0:0|0:0|0:0,0:0:0:0:
257,56,33478,6,0,P|292:44|325:25,1,66.4999982242585,10|0,0:1|0:0,0:0:0:0:
382,96,33841,2,0,P|376:135|381:235,1,132.999996448517,10|10,0:1|0:1,0:0:0:0:
294,266,34387,2,0,P|264:250|233:239,1,66.4999982242585,2|8,0:0|0:1,0:0:0:0:
155,290,34750,2,0,P|151:346|216:363,1,132.999996448517,2|2,0:0|0:0,0:0:0:0:
308,367,35296,1,10,0:1:0:0:
308,367,35478,2,0,P|354:360|442:371,1,132.999996448517,2|2,0:0|0:0,0:0:0:0:
483,288,36023,2,0,P|481:251|483:217,1,66.4999982242585,8|2,0:1|0:0,0:0:0:0:
441,137,36387,6,0,P|439:100|441:66,1,66.4999982242585,14|0,0:1|0:0,0:0:0:0:
361,32,36750,1,10,0:1:0:0:
361,32,36932,2,0,P|345:71|250:79,1,132.999996448517,2|0,0:0|0:0,0:0:0:0:
201,16,37478,2,0,P|170:9|129:16,1,66.4999982242585,8|2,0:1|0:0,0:0:0:0:
53,56,37841,2,0,P|53:92|53:137,1,66.4999982242585,10|0,0:1|0:0,0:0:0:0:
23,209,38205,1,10,0:1:0:0:
23,209,38387,2,0,P|21:264|22:353,1,132.999996448517,2|2,0:0|0:0,0:0:0:0:
109,372,38932,2,0,P|128:357|166:339,1,66.4999982242585,8|2,0:1|0:0,0:0:0:0:
256,363,39296,6,0,B|324:360|306:330|393:327,2,132.999996448517,14|10|10,0:1|0:1|0:1,0:0:0:0:
230,273,40205,2,0,P|232:233|231:200,1,66.4999982242585,2|8,0:0|0:1,0:0:0:0:
165,141,40568,2,0,P|161:79|168:-3,1,132.999996448517,2|2,0:0|0:0,0:0:0:0:
251,47,41114,2,0,P|280:35|317:4,1,66.4999982242585,10|0,0:1|0:0,0:0:0:0:
380,72,41478,2,0,P|369:112|364:144,1,66.4999982242585,14|0,0:1|0:0,0:0:0:0:
456,154,41841,2,0,P|467:194|472:226,1,66.4999982242585,14|0,0:1|0:0,0:0:0:0:
430,299,42205,5,14,0:1:0:0:
430,299,42387,1,10,0:1:0:0:
259,324,42750,1,10,0:1:0:0:
259,324,42932,1,10,0:1:0:0:
493,200,43478,2,0,P|487:167|481:138,1,62.9999980773926,10|0,0:1|0:0,0:0:0:0:
491,53,43841,1,10,0:1:0:0:
317,22,44205,2,0,P|300:21|279:22,2,31.4999990386963,10|10|10,0:1|0:1|0:1,0:0:0:0:
292,106,44568,2,0,P|286:137|263:159,2,62.9999980773926,2|2|2,0:0|0:0|0:0,0:0:0:0:
217,67,45114,5,14,0:1:0:0:
217,67,45296,1,10,0:1:0:0:
52,19,45659,1,10,0:1:0:0:
52,19,45841,1,10,0:1:0:0:
30,282,46387,2,0,P|36:313|59:335,1,62.9999980773926,10|0,0:1|0:0,0:0:0:0:
137,371,46750,1,10,0:1:0:0:
288,280,47114,1,10,0:1:0:0:
330,202,47296,2,0,P|329:183|330:163,3,31.4999990386963,10|2|2|2,0:1|0:0|0:0|0:0,0:0:0:0:
354,134,47659,2,0,P|351:97|353:64,1,62.9999980773926,10|10,0:1|0:1,0:0:0:0:
445,29,48023,5,14,0:1:0:0:
445,29,48205,1,10,0:1:0:0:
273,47,48568,1,10,0:1:0:0:
273,47,48750,1,10,0:1:0:0:
458,236,49296,2,0,P|457:273|460:304,1,62.9999980773926,10|0,0:1|0:0,0:0:0:0:
400,364,49659,1,10,0:1:0:0:
223,367,50023,2,0,P|202:364|185:365,2,31.4999990386963,10|10|10,0:1|0:1|0:1,0:0:0:0:
291,310,50387,2,0,P|288:278|289:247,2,62.9999980773926,2|2|2,0:0|0:0|0:0,0:0:0:0:
211,285,50932,5,14,0:1:0:0:
211,285,51114,1,10,0:1:0:0:
59,373,51478,1,10,0:1:0:0:
59,373,51659,1,10,0:1:0:0:
37,109,52205,2,0,P|38:74|58:33,1,62.9999980773926,10|0,0:1|0:0,0:0:0:0:
125,6,52568,1,10,0:1:0:0:
284,81,52932,1,10,0:1:0:0:
284,81,53023,1,8,0:1:0:0:
284,81,53114,2,0,P|294:110|294:141,1,62.9999980773926,10|10,0:0|0:1,0:0:0:0:
291,238,53478,1,10,0:0:0:0:
291,238,53568,1,10,0:0:0:0:
291,238,53659,1,10,0:0:0:0:
379,296,53841,6,0,P|430:291|513:294,2,132.999996448517,14|10|10,0:1|0:0|0:1,0:0:0:0:
471,135,54932,1,10,0:0:0:0:
471,135,55114,2,0,P|494:90|448:17,1,132.999996448517,2|2,0:0|0:0,0:0:0:0:
366,33,55659,5,10,0:0:0:0:
274,52,55841,2,0,B|199:35|247:12|149:2,1,132.999996448517,2|2,0:0|0:0,0:0:0:0:
102,81,56387,2,0,P|110:118|117:157,1,66.4999982242585,10|10,0:0|0:1,0:0:0:0:
110,166,56659,1,8,0:0:0:0:
103,184,56750,1,14,0:1:0:0:
27,352,57114,6,0,P|88:350|179:357,1,132.999996448517,10|10,0:0|0:1,0:0:0:0:
165,261,57659,2,0,P|214:259|252:263,1,66.4999982242585,2|8,0:0|0:0,0:0:0:0:
241,167,58023,6,0,P|290:165|328:169,1,66.4999982242585,2|8,0:1|0:1,0:0:0:0:
343,252,58387,2,0,P|392:250|430:254,1,66.4999982242585,2|8,0:0|0:0,0:0:0:0:
419,158,58750,1,10,0:1:0:0:
419,158,58841,1,8,0:1:0:0:
419,158,58932,2,0,P|468:156|506:160,1,66.4999982242585,8|10,0:1|0:1,0:0:0:0:
475,63,59296,2,0,P|440:55|418:26,1,66.4999982242585,10|10,0:0|0:1,0:0:0:0:
403,22,59568,1,8,0:0:0:0:
388,11,59659,1,14,0:1:0:0:
203,46,60023,6,0,P|201:97|252:175,1,132.999996448517,10|10,0:0|0:1,0:0:0:0:
303,235,60568,2,0,P|299:271|306:320,1,66.4999982242585,2|8,0:0|0:0,0:0:0:0:
209,319,60932,6,0,P|149:312|101:383,1,132.999996448517,2|2,0:0|0:0,0:0:0:0:
13,335,61478,1,10,0:0:0:0:
13,242,61659,2,0,P|11:198|14:90,1,132.999996448517,2|2,0:0|0:0,0:0:0:0:
85,50,62205,2,0,P|125:38|160:19,1,66.4999982242585,10|10,0:0|0:1,0:0:0:0:
165,21,62478,1,10,0:0:0:0:
183,12,62568,2,0,P|206:11|231:11,2,33.2499991121292,10|2|2,0:1|0:0|0:0,0:0:0:0:
220,98,62932,6,0,L|232:141,3,33.2499991121292,10|2|2|2,0:0|0:0|0:0|0:0,0:0:0:0:
215,175,63296,2,0,L|206:207,3,33.2499991121292,10|2|2|2,0:1|0:0|0:0|0:0,0:0:0:0:
229,247,63659,1,10,0:0:0:0:
278,330,63841,6,0,P|312:317|354:307,1,66.4999982242585,14|8,0:1|0:0,0:0:0:0:
430,281,64205,2,0,P|427:249|430:201,1,66.4999982242585,14|8,0:1|0:1,0:0:0:0:
422,128,64568,1,14,0:0:0:0:
422,128,64659,1,8,0:0:0:0:
422,128,64750,1,8,0:0:0:0:
351,67,64932,1,8,0:3:0:0:
351,67,65023,1,8,0:3:0:0:
351,67,65114,2,0,P|348:48|348:24,3,33.2499991121292,14|8|8|8,0:0|0:0|0:0|0:0,0:0:0:0:
299,3,65478,5,14,0:1:0:0:
232,87,65659,1,2,0:0:0:0:
151,15,65841,1,10,0:0:0:0:
87,102,66023,2,0,P|16:131|37:212,1,154.000004699707,2|10,0:0|0:1,0:0:0:0:
16,305,66568,1,8,0:0:0:0:
123,365,66750,6,0,B|226:356|165:323|282:325,1,154.000004699707,14|10,0:1|0:1,0:0:0:0:
326,233,67296,2,0,P|332:187|351:149,1,77.0000023498536,10|10,0:0|0:1,0:0:0:0:
337,140,67568,1,8,0:1:0:0:
326,117,67659,2,0,P|332:71|351:33,1,77.0000023498536,8|8,0:1|0:1,0:0:0:0:
452,42,68023,2,0,P|452:85|457:137,1,77.0000023498536,8|0,0:0|0:0,0:0:0:0:
512,235,68387,5,14,0:1:0:0:
417,285,68568,1,2,0:0:0:0:
326,233,68750,1,10,0:0:0:0:
229,281,68932,2,0,P|192:269|137:263,1,77.0000023498536,2|8,0:0|0:1,0:0:0:0:
109,164,69296,2,0,P|147:158|183:146,1,77.0000023498536,10|8,0:1|0:0,0:0:0:0:
291,86,69659,6,0,P|346:88|466:80,1,154.000004699707,14|10,0:1|0:1,0:0:0:0:
373,0,70205,2,0,P|325:-2|287:3,1,77.0000023498536,10|10,0:0|0:1,0:0:0:0:
271,11,70478,1,8,0:1:0:0:
252,20,70568,2,0,P|204:18|166:23,1,77.0000023498536,8|8,0:1|0:1,0:0:0:0:
85,78,70932,2,0,P|72:27|50:-14,1,77.0000023498536,8|10,0:0|0:1,0:0:0:0:
42,5,71205,1,8,0:1:0:0:
20,6,71296,5,14,0:1:0:0:
5,112,71478,1,2,0:0:0:0:
78,190,71659,1,10,0:0:0:0:
93,296,71841,2,0,P|141:295|186:295,1,77.0000023498536,2|8,0:0|0:1,0:0:0:0:
222,199,72205,2,0,P|270:198|315:198,1,77.0000023498536,10|8,0:1|0:0,0:0:0:0:
387,111,72568,5,14,0:1:0:0:
483,159,72750,1,2,0:0:0:0:
410,239,72932,1,10,0:1:0:0:
506,288,73114,2,0,P|506:336|485:357,1,77.0000023498536,10|10,0:0|0:1,0:0:0:0:
467,356,73387,1,8,0:1:0:0:
447,353,73478,1,8,0:1:0:0:
343,314,73659,1,8,0:1:0:0:
245,359,73841,2,0,P|206:359|168:360,1,77.0000023498536,8|0,0:0|0:0,0:0:0:0:
60,298,74205,5,14,0:1:0:0:
123,210,74387,1,2,0:0:0:0:
20,176,74568,1,10,0:0:0:0:
82,87,74750,2,0,P|82:46|106:6,1,77.0000023498536,2|8,0:0|0:1,0:0:0:0:
199,53,75114,2,0,P|215:87|214:125,1,77.0000023498536,10|8,0:1|0:0,0:0:0:0:
289,204,75478,6,0,P|283:252|290:320,1,115.50000352478,14|0,0:1|0:0,0:0:0:0:
332,351,75841,2,0,P|377:346|422:352,1,77.0000023498536,10|8,0:1|0:0,0:0:0:0:
500,288,76205,1,10,0:1:0:0:
500,288,76296,1,8,0:1:0:0:
500,288,76387,1,10,0:1:0:0:
430,206,76568,2,0,P|427:182|430:157,2,38.5000011749268,8|8|8,0:0|0:0|0:0,0:0:0:0:
497,99,76932,5,8,0:0:0:0:
497,99,77023,1,8,0:0:0:0:
497,99,77114,1,14,0:1:0:0:
408,37,77296,1,2,0:0:0:0:
306,0,77478,1,10,0:0:0:0:
218,61,77659,2,0,P|205:124|100:112,1,154.000004699707,2|10,0:0|0:1,0:0:0:0:
18,149,78205,1,8,0:0:0:0:
49,266,78387,6,0,P|62:329|167:317,1,154.000004699707,14|10,0:1|0:1,0:0:0:0:
225,275,78932,2,0,P|267:271|305:271,1,77.0000023498536,10|10,0:0|0:1,0:0:0:0:
325,260,79205,1,8,0:1:0:0:
353,247,79296,2,0,P|395:243|434:244,1,77.0000023498536,8|8,0:1|0:1,0:0:0:0:
462,346,79659,2,0,P|423:342|385:342,1,77.0000023498536,8|0,0:0|0:0,0:0:0:0:
301,270,80023,5,14,0:1:0:0:
320,163,80205,1,2,0:0:0:0:
212,149,80387,1,10,0:0:0:0:
223,42,80568,2,0,P|186:35|148:13,1,77.0000023498536,2|8,0:0|0:1,0:0:0:0:
96,109,80932,2,0,P|59:102|21:80,1,77.0000023498536,10|8,0:1|0:0,0:0:0:0:
63,200,81296,6,0,P|81:246|184:256,1,154.000004699707,14|10,0:1|0:1,0:0:0:0:
271,213,81841,2,0,P|275:175|290:136,1,77.0000023498536,10|10,0:0|0:1,0:0:0:0:
306,133,82114,1,8,0:1:0:0:
328,124,82205,2,0,P|332:86|347:47,1,77.0000023498536,8|8,0:1|0:1,0:0:0:0:
451,29,82568,1,10,0:0:0:0:
451,136,82750,5,10,0:1:0:0:
451,136,82841,1,8,0:1:0:0:
451,136,82932,2,0,P|450:187|457:261,1,115.50000352478,12|0,0:1|0:1,0:0:0:0:
439,303,83296,2,0,B|329:298|388:330|278:329,1,154.000004699707,10|10,0:0|0:1,0:0:0:0:
189,370,83841,2,0,P|148:360|112:355,1,77.0000023498536,10|8,0:1|0:0,0:0:0:0:
36,279,84205,6,0,P|85:270|100:166,1,154.000004699707,14|10,0:1|0:1,0:0:0:0:
211,143,84750,2,0,P|207:181|211:219,1,77.0000023498536,10|10,0:0|0:1,0:0:0:0:
223,237,85023,1,8,0:1:0:0:
237,256,85114,1,8,0:1:0:0:
311,333,85296,1,10,0:1:0:0:
379,249,85478,2,0,P|383:210|379:172,1,77.0000023498536,10|0,0:0|0:0,0:0:0:0:
415,54,85841,5,14,0:1:0:0:
308,69,86023,1,2,0:0:0:0:
207,38,86205,1,10,0:0:0:0:
100,23,86387,2,0,P|108:60|114:106,1,77.0000023498536,2|8,0:0|0:1,0:0:0:0:
30,167,86750,1,10,0:1:0:0:
134,195,86932,1,10,0:0:0:0:
56,290,87114,6,0,P|48:327|42:373,1,77.0000023498536,14|0,0:1|0:0,0:0:0:0:
151,361,87478,2,0,P|156:322|164:285,1,77.0000023498536,12|8,0:1|0:0,0:0:0:0:
245,219,87841,1,14,0:1:0:0:
245,219,87932,1,8,0:1:0:0:
245,219,88023,1,10,0:1:0:0:
339,289,88205,1,12,0:1:0:0:
339,289,88296,1,8,0:1:0:0:
339,289,88387,2,0,P|367:288|398:289,3,38.5000011749268,8|8|8|8,0:0|0:0|0:0|0:0,0:0:0:0:
