osu file format v14

[General]
AudioFilename: 02 - The end of summer.mp3
AudioLeadIn: 0
PreviewTime: 74086
Countdown: 0
SampleSet: Soft
StackLeniency: 0.7
Mode: 0
LetterboxInBreaks: 0
WidescreenStoryboard: 0

[Editor]
Bookmarks: 39351,91897
DistanceSpacing: 1
BeatDivisor: 4
GridSize: 4
TimelineZoom: 1

[Metadata]
Title:The end of summer
TitleUnicode:The end of summer
Artist:fripSide
ArtistUnicode:fripSide
Creator:Blizs
Version:Normal
Source:
Tags:Fantastica Heaven is a Place on Earth
BeatmapID:800102
BeatmapSetID:364508

[Difficulty]
HPDrainRate:4
CircleSize:3
OverallDifficulty:4
ApproachRate:5
SliderMultiplier:1.2
SliderTickRate:1

[Events]
//Background and Video events
0,0,"Autumn.jpg",0,0
//Break Periods
2,101210,109010
//Storyboard Layer 0 (Background)
//Storyboard Layer 1 (Fail)
//Storyboard Layer 2 (Pass)
//Storyboard Layer 3 (Foreground)
//Storyboard Sound Samples

[TimingPoints]
601,500,3,2,1,30,1,0
11101,-100,3,2,1,50,0,0
12601,-100,3,2,1,50,0,1
24601,-100,3,2,2,40,0,0
29101,-100,3,2,1,40,0,0
30601,-100,3,2,2,40,0,0
35101,-100,3,2,1,40,0,0
36601,-100,3,2,1,50,0,0
72623,517.241379310345,3,2,1,40,1,0
73140,555.555555555556,3,2,1,40,1,0
73695,515.907136715391,3,2,1,40,1,0
74210,500,3,2,1,50,1,1
98210,-100,3,2,1,40,0,0
110210,-100,3,2,1,30,0,0
122710,-100,3,2,1,28,0,0
123210,-100,3,2,1,26,0,0
123710,-100,3,2,0,24,0,0
124210,-100,3,2,0,22,0,0
124710,-100,3,2,0,20,0,0
125210,-100,3,2,0,18,0,0
125710,-100,3,2,0,16,0,0
126210,-100,3,2,0,14,0,0
126710,-100,3,2,0,12,0,0
127210,-100,3,2,0,10,0,0
127460,-100,3,2,0,5,0,0

[Colours]
Combo1 : 255,128,128
Combo2 : 179,255,179
Combo3 : 255,167,79
Combo4 : 255,255,132

[HitObjects]
304,175,601,6,0,P|246:185|187:164,1,120,6|0,3:2|0:0,0:0:0:0:
256,65,1601,1,2,0:0:0:0:
376,79,2101,2,0,P|413:124|424:185,2,120,2|2|2,3:2|0:0|0:0,0:0:0:0:
256,65,3601,6,0,L|136:99,1,120,2|2,3:2|0:0,0:0:0:0:
66,192,4601,1,2,0:0:0:0:
140,286,5101,2,0,L|256:319,2,120,2|2|2,3:2|0:0|0:0,0:0:0:0:
184,174,6601,6,0,L|300:207,1,120,6|0,3:2|0:0,0:0:0:0:
374,301,7601,1,2,0:0:0:0:
418,188,8101,2,0,P|425:129|403:73,2,120,2|2|2,3:2|0:0|0:0,0:0:0:0:
374,301,9601,6,0,P|432:308|488:286,2,120,2|2|2,3:2|0:0|0:0,0:0:0:0:
300,207,11101,2,0,P|241:199|185:221,1,120,2|10,3:2|0:0,0:0:0:0:
161,276,11851,1,0,3:0:0:0:
137,331,12101,2,0,L|78:318,1,60,6|0,3:2|3:0,0:0:0:0:
30,355,12601,6,0,P|38:295|36:235,1,120,6|8,3:2|0:0,0:0:0:0:
20,116,13601,1,2,3:2:0:0:
133,162,14101,2,0,L|252:152,1,120,2|8,3:2|0:0,0:0:0:0:
324,56,15101,2,0,L|383:61,1,60,2|0,3:2|3:2,0:0:0:0:
436,33,15601,6,0,P|428:92|438:151,1,120,6|10,3:2|0:0,0:0:0:0:
491,258,16601,1,2,3:2:0:0:
424,357,17101,2,0,L|305:346,1,120,2|8,3:2|0:0,0:0:0:0:
202,280,18101,1,2,3:2:0:0:
144,287,18351,1,0,3:0:0:0:
101,327,18601,6,0,P|101:263|83:209,1,120,6|10,3:2|0:0,0:0:0:0:
17,110,19601,1,2,3:2:0:0:
109,33,20101,2,0,P|173:33|227:50,1,120,6|10,3:2|0:0,0:0:0:0:
326,118,21101,2,0,L|387:109,1,60,2|0,3:2|3:0,0:0:0:0:
433,72,21601,6,0,P|426:132|431:192,1,120,6|8,3:2|0:0,0:0:0:0:
452,310,22601,1,2,3:2:0:0:
339,269,23101,2,0,P|279:262|219:267,1,120,2|8,3:2|0:0,0:0:0:0:
105,303,24101,1,0,3:0:0:0:
49,285,24351,1,0,3:0:0:0:
26,232,24601,6,0,B|0:142|80:162|49:62,1,180,4|8,1:2|0:0,0:0:0:0:
95,24,25601,2,0,L|174:31,1,60,2|8,0:0|1:2,0:0:0:0:
197,72,26101,2,0,L|316:68,1,120,2|2,1:2|0:0,0:0:0:0:
354,115,26851,2,0,L|413:113,2,60,8|2|8,0:0|0:0|0:0,0:0:0:0:
317,163,27601,6,0,B|294:220|328:278|328:278|315:336,1,180,2|8,1:2|0:0,0:0:0:0:
258,357,28601,2,0,L|200:344,1,60,2|8,0:2|1:2,0:0:0:0:
140,352,29101,2,0,L|166:234,1,120,0|2,3:0|0:0,0:0:0:0:
109,129,30101,2,0,P|118:96|117:68,1,60,2|2,0:0|0:0,0:0:0:0:
70,32,30601,6,0,B|187:59|187:59|246:42,1,180,4|8,1:2|0:0,0:0:0:0:
301,26,31601,2,0,P|331:23|361:30,1,60,2|8,0:0|1:2,0:0:0:0:
391,82,32101,2,0,L|402:206,1,120,2|2,1:2|0:0,0:0:0:0:
437,249,32851,2,0,L|496:243,2,60,8|2|8,0:0|0:0|0:0,0:0:0:0:
405,300,33601,6,0,B|304:337|336:286|229:317,1,180,2|8,1:2|0:0,0:0:0:0:
180,353,34601,2,0,L|121:346,1,60,2|8,0:0|1:2,0:0:0:0:
79,301,35101,2,0,P|92:243|86:184,1,120,0|2,3:2|3:2,0:0:0:0:
95,64,36101,2,0,L|154:60,1,60,2|2,3:2|3:2,0:0:0:0:
200,98,36601,6,0,L|319:89,1,120,4|8,3:2|0:0,0:0:0:0:
439,101,37601,1,0,3:0:0:0:
369,198,38101,2,0,P|361:257|371:316,1,120,0|8,3:0|0:0,0:0:0:0:
259,359,39101,2,0,L|199:350,1,60,0|0,3:0|3:0,0:0:0:0:
143,371,39601,6,0,P|151:312|141:252,1,120,0|8,3:0|0:0,0:0:0:0:
69,156,40601,1,0,3:0:0:0:
166,83,41101,2,0,L|160:23,2,60,0|2|10,3:0|0:0|0:0,0:0:0:0:
216,115,41851,2,0,L|210:175,2,60,2|2|2,0:0|3:2|3:2,0:0:0:0:
269,87,42601,6,0,P|326:73|383:88,1,120,6|8,3:2|0:0,0:0:0:0:
445,192,43601,1,0,3:0:0:0:
325,195,44101,2,0,L|302:312,1,120,2|8,3:2|0:0,0:0:0:0:
189,352,45101,2,0,L|130:340,1,60,2|0,3:2|3:0,0:0:0:0:
74,363,45601,6,0,P|85:305|84:245,1,120,2|8,3:2|0:0,0:0:0:0:
144,141,46601,1,0,3:0:0:0:
204,245,47101,2,0,P|202:304|214:363,1,120,2|8,3:2|0:0,0:0:0:0:
273,372,47851,1,0,3:0:0:0:
323,340,48101,2,0,L|382:346,1,60,0|0,3:0|3:0,0:0:0:0:
434,378,48601,6,0,P|435:318|423:259,1,120,0|8,3:0|0:0,0:0:0:0:
346,167,49601,2,0,L|350:102,1,60,0|0,3:0|0:0,0:0:0:0:
378,54,50101,2,0,P|320:70|260:65,1,120,0|8,3:0|0:0,0:0:0:0:
144,35,51101,1,0,3:0:0:0:
84,30,51351,1,0,3:0:0:0:
26,46,51601,6,0,L|35:168,1,120,0|8,3:0|0:0,0:0:0:0:
142,218,52601,2,0,L|137:278,1,60,0|0,3:0|0:0,0:0:0:0:
104,328,53101,2,0,P|163:324|223:325,1,120,0|8,3:0|0:0,0:0:0:0:
342,346,54101,1,0,3:0:0:0:
397,329,54351,1,0,3:0:0:0:
421,276,54601,6,0,L|411:157,1,120,0|8,3:0|0:0,0:0:0:0:
337,60,55601,2,0,P|316:81|300:107,1,60,0|0,3:0|0:0,0:0:0:0:
287,165,56101,2,0,P|232:140|174:147,1,120,0|8,3:0|0:0,0:0:0:0:
215,259,57101,1,0,3:0:0:0:
238,314,57351,1,0,3:0:0:0:
261,369,57601,6,0,P|319:375|373:351,2,120,0|8|0,3:0|0:0|3:0,0:0:0:0:
215,259,59101,2,0,L|228:140,1,120,0|8,3:0|0:0,0:0:0:0:
278,107,59851,2,0,L|271:47,2,60,0|0|0,3:0|3:0|3:0,0:0:0:0:
321,148,60601,6,0,P|376:145|426:95,2,120,0|8|0,3:0|0:0|3:0,0:0:0:0:
234,65,62101,2,0,P|176:70|133:111,1,120,0|8,3:0|0:0,0:0:0:0:
145,230,63101,1,0,3:0:0:0:
183,276,63351,1,0,3:0:0:0:
221,322,63601,6,0,L|341:313,1,120,0|8,3:0|0:0,0:0:0:0:
396,206,64601,2,0,L|455:210,1,60,0|0,3:0|0:0,0:0:0:0:
495,253,65101,2,0,P|484:195|494:136,1,120,0|8,3:0|0:0,0:0:0:0:
401,59,66101,1,0,3:0:0:0:
341,63,66351,1,0,3:0:0:0:
281,68,66601,6,0,L|161:59,1,120,0|8,3:0|0:0,0:0:0:0:
77,145,67601,1,0,3:0:0:0:
164,229,68101,2,0,P|195:279|199:338,2,120,0|8|0,3:0|0:0|3:0,0:0:0:0:
120,187,69351,1,0,3:0:0:0:
77,145,69601,6,0,P|46:95|42:36,1,120,0|8,3:0|0:0,0:0:0:0:
161,59,70601,2,0,L|221:63,1,60,0|0,3:0|0:0,0:0:0:0:
240,120,71101,2,0,P|298:104|367:122,1,120,0|8,3:0|0:0,0:0:0:0:
385,167,71851,1,0,3:0:0:0:
415,218,72101,2,0,L|398:288,1,60,0|0,3:0|3:0,0:0:0:0:
431,327,72623,5,0,0:0:0:0:
431,327,74210,6,0,P|373:316|314:327,1,120,6|10,3:2|0:0,0:0:0:0:
268,366,74960,2,0,L|208:356,1,60,0|2,0:0|3:2,0:0:0:0:
88,354,75710,2,0,P|106:297|104:237,1,120,2|8,3:2|0:0,0:0:0:0:
27,145,76710,2,0,L|38:86,1,60,0|0,3:0|3:0,0:0:0:0:
50,27,77210,6,0,B|99:50|114:18|167:41,1,120,6|10,3:2|0:0,0:0:0:0:
200,91,77960,2,0,P|228:100|258:100,1,60,0|2,0:0|3:2,0:0:0:0:
366,49,78710,2,0,P|424:52|459:99,1,120,2|8,3:2|0:0,0:0:0:0:
406,207,79710,2,0,L|412:266,1,60,0|0,3:0|3:0,0:0:0:0:
439,320,80210,6,0,P|379:312|319:317,1,120,6|10,3:2|0:0,0:0:0:0:
214,375,81210,1,2,3:2:0:0:
112,311,81710,2,0,P|104:251|109:191,1,120,6|10,3:2|0:0,0:0:0:0:
167,86,82710,2,0,L|226:95,1,60,2|0,3:2|3:0,0:0:0:0:
264,141,83210,6,0,L|382:122,1,120,6|10,3:2|0:0,0:0:0:0:
480,192,84210,1,2,3:2:0:0:
382,261,84710,2,0,L|264:243,1,120,2|8,3:2|0:0,0:0:0:0:
152,289,85710,1,0,3:0:0:0:
93,287,85960,1,0,3:0:0:0:
55,243,86210,6,0,L|66:124,1,120,6|10,3:2|0:0,0:0:0:0:
124,112,86960,2,0,L|118:52,1,60,0|2,0:0|3:2,0:0:0:0:
236,75,87710,2,0,L|246:194,1,120,2|8,3:2|0:0,0:0:0:0:
305,298,88710,1,0,3:0:0:0:
364,304,88960,1,0,3:0:0:0:
420,283,89210,6,0,L|410:164,1,120,6|10,3:2|0:0,0:0:0:0:
355,137,89960,2,0,P|354:103|361:77,1,60,0|2,0:0|3:2,0:0:0:0:
244,43,90710,2,0,P|185:41|132:68,1,120,2|8,3:2|0:0,0:0:0:0:
80,176,91710,2,0,L|91:234,1,60,2|0,3:2|3:0,0:0:0:0:
58,286,92210,6,0,P|111:258|171:261,1,120,6|8,3:2|0:0,0:0:0:0:
256,346,93210,1,0,3:0:0:0:
340,261,93710,2,0,P|400:258|453:286,2,120,6|8|0,3:2|0:0|3:0,0:0:0:0:
299,303,94960,1,0,3:0:0:0:
256,346,95210,6,0,L|256:226,1,120,6|8,3:2|0:0,0:0:0:0:
256,106,96210,1,2,3:2:0:0:
152,166,96710,2,0,L|152:226,1,60,2|0,3:2|3:0,0:0:0:0:
92,218,97210,2,0,L|92:278,1,60,10|0,0:0|3:0,0:0:0:0:
32,270,97710,2,0,L|32:330,2,60,2|0|6,3:2|3:0|3:2,0:0:0:0:
256,192,98460,12,2,100710,0:0:0:0:
203,121,110210,6,0,L|214:62,2,60,6|0|0,0:0|0:0|0:0,0:0:0:0:
111,198,111210,1,2,0:0:0:0:
223,239,111710,2,0,L|314:317,2,120,2|0|2,0:0|0:0|0:0,0:0:0:0:
111,198,113210,6,0,L|54:217,2,60,6|0|2,0:0|0:0|0:0,0:0:0:0:
203,121,114210,1,2,0:0:0:0:
316,162,114710,1,2,0:0:0:0:
429,202,115210,2,0,P|435:143|412:89,1,120,0|2,0:0|0:0,0:0:0:0:
357,64,115960,1,0,0:0:0:0:
297,62,116210,6,0,L|177:67,2,120,6|2|2,3:2|0:0|0:0,0:0:0:0:
375,154,117710,2,0,L|495:159,2,120,6|2|2,0:0|0:0|0:0,0:0:0:0:
256,175,119210,6,0,B|136:180|136:180|91:230|109:291,1,240,4|2,0:0|0:0,0:0:0:0:
212,353,120710,2,0,L|332:348,2,120,2|0|0,0:0|0:0|0:0,0:0:0:0:
110,291,122210,1,4,3:0:0:0:
256,192,122460,12,0,127460,0:0:0:0:
