osu file format v14

[General]
AudioFilename: 02 - The end of summer.mp3
AudioLeadIn: 0
PreviewTime: 74086
Countdown: 0
SampleSet: Soft
StackLeniency: 0.7
Mode: 0
LetterboxInBreaks: 0
WidescreenStoryboard: 0

[Editor]
DistanceSpacing: 1.2
BeatDivisor: 8
GridSize: 4
TimelineZoom: 1

[Metadata]
Title:The end of summer
TitleUnicode:The end of summer
Artist:fripSide
ArtistUnicode:fripSide
Creator:Blizs
Version:Advanced
Source:
Tags:Fantastica Heaven is a Place on Earth
BeatmapID:800098
BeatmapSetID:364508

[Difficulty]
HPDrainRate:5
CircleSize:4
OverallDifficulty:5
ApproachRate:7
SliderMultiplier:1.5
SliderTickRate:1

[Events]
//Background and Video events
0,0,"Autumn.jpg",0,0
//Break Periods
2,101210,109310
//Storyboard Layer 0 (Background)
//Storyboard Layer 1 (Fail)
//Storyboard Layer 2 (Pass)
//Storyboard Layer 3 (Foreground)
//Storyboard Sound Samples

[TimingPoints]
601,500,3,2,1,30,1,0
11101,-100,3,2,1,50,0,0
12601,-100,3,2,1,50,0,1
24601,-100,3,2,2,40,0,0
29101,-100,3,2,1,40,0,0
30601,-100,3,2,2,40,0,0
35101,-100,3,2,1,40,0,0
36601,-100,3,2,1,50,0,0
72623,517.241379310345,3,2,1,40,1,0
73140,555.555555555556,3,2,1,40,1,0
73695,515.907136715391,3,2,1,40,1,0
74210,500,3,2,1,50,1,1
98210,-100,3,2,1,40,0,0
110210,-100,3,2,1,30,0,0
122710,-100,3,2,1,28,0,0
123210,-100,3,2,1,26,0,0
123710,-100,3,2,0,24,0,0
124210,-100,3,2,0,22,0,0
124710,-100,3,2,0,20,0,0
125210,-100,3,2,0,18,0,0
125710,-100,3,2,0,16,0,0
126210,-100,3,2,0,14,0,0
126710,-100,3,2,0,12,0,0
127210,-100,3,2,0,10,0,0
127460,-100,3,2,0,5,0,0

[Colours]
Combo1 : 255,128,128
Combo2 : 179,255,179
Combo3 : 255,167,79
Combo4 : 255,255,132

[HitObjects]
129,316,601,6,0,L|140:157,1,150,4|0,3:2|0:0,0:0:0:0:
124,139,1601,1,2,0:0:0:0:
211,118,1851,1,0,3:0:0:0:
272,181,2101,6,0,P|310:186|346:177,1,75,2|0,3:2|0:0,0:0:0:0:
401,249,2601,2,0,P|378:279|367:314,1,75,2|0,0:0|0:0,0:0:0:0:
279,326,3101,2,0,P|264:291|238:264,1,75,2|0,0:0|0:0,0:0:0:0:
183,194,3601,6,0,P|200:123|265:90,2,150,2|2|2,3:2|0:0|0:0,0:0:0:0:
272,181,4851,1,0,3:0:0:0:
326,251,5101,6,0,P|350:222|360:186,1,75,2|0,3:2|0:0,0:0:0:0:
449,173,5601,2,0,P|435:138|409:111,1,75,2|0,0:0|0:0,0:0:0:0:
442,28,6101,2,0,P|405:22|369:31,1,75,2|0,0:0|0:0,0:0:0:0:
319,105,6601,6,0,P|246:116|190:69,1,150,6|0,3:2|0:0,0:0:0:0:
183,47,7601,1,2,0:0:0:0:
130,119,7851,1,0,3:0:0:0:
77,191,8101,6,0,L|79:267,1,75,2|0,3:2|0:0,0:0:0:0:
144,326,8601,2,0,P|181:320|219:322,1,75,2|0,0:0|0:0,0:0:0:0:
292,372,9101,2,0,P|330:378|367:375,1,75,2|0,0:0|0:0,0:0:0:0:
433,314,9601,6,0,L|436:164,2,150,2|2|2,3:2|0:0|0:0,0:0:0:0:
368,376,10851,1,0,3:0:0:0:
347,288,11101,6,0,L|350:138,1,150,2|10,3:2|0:0,0:0:0:0:
270,95,11851,1,0,3:0:0:0:
270,95,11976,1,0,3:0:0:0:
270,95,12101,2,0,P|233:112|198:113,1,75,6|0,3:2|0:0,0:0:0:0:
124,63,12601,6,0,P|53:65|32:132,1,150,6|8,3:2|0:0,0:0:0:0:
76,211,13351,1,0,0:0:0:0:
29,287,13601,2,0,P|65:299|102:296,1,75,2|0,3:2|0:0,0:0:0:0:
162,231,14101,6,0,P|235:240|275:300,1,150,2|8,3:2|0:0,0:0:0:0:
189,316,14851,1,0,0:0:0:0:
102,296,15101,2,0,P|81:265|73:229,1,75,2|0,3:2|3:0,0:0:0:0:
162,231,15601,6,0,L|184:81,2,150,6|10|2,3:2|0:0|3:2,0:0:0:0:
174,253,17101,6,0,P|212:254|249:246,1,75,2|0,3:2|0:0,0:0:0:0:
292,167,17601,2,0,P|329:165|366:174,1,75,8|0,0:0|0:0,0:0:0:0:
366,174,17976,1,0,3:0:0:0:
366,174,18101,1,2,0:0:0:0:
417,249,18351,1,0,3:0:0:0:
456,167,18601,6,0,P|421:102|351:84,2,150,6|10|2,3:2|0:0|3:2,0:0:0:0:
370,324,20101,6,0,L|366:174,2,150,6|10|2,3:2|0:0|3:2,0:0:0:0:
290,367,21351,1,0,3:0:0:0:
220,310,21601,6,0,B|183:305|142:323|142:323|105:326|69:309,1,150,6|8,3:2|0:0,0:0:0:0:
78,131,22601,2,0,L|86:57,1,75,2|0,3:2|0:0,0:0:0:0:
175,53,23101,6,0,P|234:95|306:82,1,150,2|8,3:2|0:0,0:0:0:0:
381,31,23851,1,0,0:0:0:0:
440,98,24101,2,0,L|439:172,1,75,2|0,3:2|3:0,0:0:0:0:
506,230,24601,6,0,P|437:205|364:221,1,150,4|0,1:2|0:0,0:0:0:0:
369,311,25351,1,8,0:0:0:0:
288,269,25602,2,0,P|251:279|214:274,1,75,2|8,0:0|1:2,0:0:0:0:
173,354,26101,6,0,L|160:205,1,150,2|2,1:2|0:0,0:0:0:0:
151,114,26851,2,0,P|112:127|84:155,2,75,8|2|8,0:0|0:0|0:0,0:0:0:0:
233,151,27601,6,0,B|269:160|306:142|306:142|345:122|379:129,1,150,2|0,1:2|0:0,0:0:0:0:
360,217,28351,1,8,0:0:0:0:
444,188,28601,2,0,P|449:225|438:261,1,75,2|8,0:0|1:2,0:0:0:0:
360,306,29101,6,0,L|285:300,2,75,0|2|2,3:0|0:0|0:0,0:0:0:0:
360,217,29851,2,0,L|285:211,2,75,2|2|2,0:0|0:0|0:0,0:0:0:0:
445,189,30601,6,0,P|424:152|457:49,1,150,4|0,1:2|0:0,0:0:0:0:
366,23,31351,1,8,0:0:0:0:
296,81,31601,2,0,L|219:76,1,75,2|8,0:0|1:2,0:0:0:0:
152,17,32101,6,0,P|188:80|168:150,1,150,2|2,1:2|0:0,0:0:0:0:
99,92,32851,1,8,0:0:0:0:
82,182,33101,2,0,L|78:256,1,75,2|8,0:0|0:0,0:0:0:0:
119,337,33601,6,0,P|84:346|47:341,2,75,0|10|2,1:0|0:0|0:0,0:0:0:0:
167,261,34351,1,10,0:0:0:0:
208,341,34601,2,0,L|282:344,1,75,2|8,0:0|1:2,0:0:0:0:
353,288,35101,6,0,P|385:307|425:312,1,75,0|2,3:0|0:0,0:0:0:0:
415,222,35601,2,0,L|401:148,1,75,2|2,3:2|0:0,0:0:0:0:
464,84,36101,1,2,3:2:0:0:
376,62,36351,1,2,3:2:0:0:
288,40,36601,6,0,L|140:67,1,150,4|8,3:2|0:0,0:0:0:0:
56,32,37351,1,0,0:0:0:0:
66,121,37601,2,0,P|66:159|57:195,1,75,0|0,3:0|0:0,0:0:0:0:
8,270,38101,6,0,P|78:251|146:281,1,150,0|8,3:0|0:0,0:0:0:0:
213,338,38851,2,0,P|251:339|284:322,2,75,0|0|0,0:0|3:0|3:0,0:0:0:0:
230,250,39601,6,0,L|206:102,1,150,0|8,3:0|0:0,0:0:0:0:
256,28,40351,1,0,0:0:0:0:
331,77,40601,2,0,L|343:151,1,75,0|0,3:0|0:0,0:0:0:0:
413,206,41101,6,0,P|428:172|430:135,2,75,0|2|10,3:0|0:0|0:0,0:0:0:0:
398,294,41851,2,0,P|435:291|469:274,2,75,2|2|2,0:0|3:2|3:2,0:0:0:0:
330,238,42601,6,0,B|289:233|256:247|256:247|221:261|182:255,1,150,6|8,3:2|0:0,0:0:0:0:
210,169,43351,1,0,0:0:0:0:
135,116,43601,2,0,P|121:150|121:188,1,75,0|0,3:0|0:0,0:0:0:0:
183,255,44101,6,0,B|222:261|257:247|257:247|290:233|331:238,1,150,2|8,3:2|0:0,0:0:0:0:
398,294,44851,2,0,L|392:368,2,75,0|2|0,0:0|3:2|3:0,0:0:0:0:
413,206,45601,6,0,L|400:56,1,150,2|8,3:2|0:0,0:0:0:0:
315,88,46351,1,0,0:0:0:0:
245,30,46601,2,0,L|170:36,1,75,0|0,3:0|0:0,0:0:0:0:
117,109,47101,6,0,L|123:184,1,75,2|0,3:2|0:0,0:0:0:0:
200,230,47601,1,8,0:0:0:0:
121,274,47851,2,0,P|85:266|56:243,2,75,0|0|0,3:0|3:0|3:0,0:0:0:0:
199,230,48601,6,0,B|236:221|272:242|272:242|310:261|345:250,1,150,0|8,3:0|0:0,0:0:0:0:
407,185,49351,1,0,0:0:0:0:
319,162,49601,2,0,P|334:129|363:104,1,75,0|0,3:0|0:0,0:0:0:0:
407,185,50101,6,0,P|434:252|403:318,1,150,0|8,3:0|0:0,0:0:0:0:
344,250,50851,1,0,0:0:0:0:
313,335,51101,1,0,3:0:0:0:
256,265,51351,1,0,3:0:0:0:
224,350,51601,6,0,L|74:344,1,150,0|8,3:0|0:0,0:0:0:0:
15,275,52351,1,0,0:0:0:0:
46,189,52601,2,0,P|55:152|54:110,1,75,0|0,3:0|0:0,0:0:0:0:
111,45,53101,6,0,P|148:36|190:37,1,75,0|0,3:0|0:0,0:0:0:0:
256,91,53601,2,0,P|328:113|397:80,1,150,8|0,0:0|3:0,0:0:0:0:
463,27,54351,1,0,3:0:0:0:
477,116,54601,6,0,B|479:147|479:147|465:234|465:234|467:264,1,150,0|8,3:0|0:0,0:0:0:0:
420,341,55351,1,0,0:0:0:0:
347,285,55601,2,0,P|311:280|273:284,1,75,0|0,3:0|0:0,0:0:0:0:
214,352,56101,6,0,P|144:359|110:297,1,150,0|8,3:0|0:0,0:0:0:0:
162,224,56851,1,0,0:0:0:0:
72,216,57101,1,0,3:0:0:0:
123,142,57351,1,0,3:0:0:0:
175,68,57601,6,0,L|325:58,2,150,0|8|0,3:0|0:0|3:0,0:0:0:0:
123,142,58851,1,0,0:0:0:0:
162,224,59101,6,0,L|312:214,1,150,0|8,3:0|0:0,0:0:0:0:
393,252,59851,2,0,P|401:215|393:179,2,75,0|0|0,3:0|3:0|3:0,0:0:0:0:
319,303,60601,6,0,L|244:308,1,75,0|0,3:0|0:0,0:0:0:0:
188,378,61101,2,0,P|164:349|154:314,1,75,8|0,0:0|0:0,0:0:0:0:
162,224,61601,2,0,P|151:188|127:159,1,75,0|0,3:0|0:0,0:0:0:0:
44,125,62101,6,0,L|190:93,1,150,0|8,3:0|0:0,0:0:0:0:
256,156,62851,1,0,0:0:0:0:
277,68,63101,1,0,3:0:0:0:
343,130,63351,1,0,3:0:0:0:
426,160,63601,6,0,P|420:87|363:41,1,150,0|8,3:0|0:0,0:0:0:0:
277,68,64351,1,0,0:0:0:0:
256,156,64601,2,0,L|262:236,1,75,0|0,3:0|0:0,0:0:0:0:
203,299,65101,6,0,P|167:311|130:308,1,75,0|0,3:0|0:0,0:0:0:0:
44,282,65601,1,8,0:0:0:0:
109,220,65851,2,0,P|112:182|99:147,2,75,0|0|0,0:0|3:0|3:0,0:0:0:0:
44,282,66601,6,0,P|40:319|53:354,1,75,0|0,3:0|0:0,0:0:0:0:
140,380,67101,2,0,P|143:343|131:308,1,75,8|0,0:0|0:0,0:0:0:0:
109,220,67601,1,0,3:0:0:0:
124,201,68101,6,0,L|273:194,2,150,0|8|0,3:0|0:0|3:0,0:0:0:0:
45,157,69351,1,0,3:0:0:0:
123,111,69601,6,0,L|272:104,2,150,0|8|0,3:0|0:0|3:0,0:0:0:0:
45,157,70851,1,0,0:0:0:0:
124,201,71101,6,0,L|273:194,1,150,0|8,3:0|0:0,0:0:0:0:
361,222,71851,1,0,3:0:0:0:
411,147,72101,1,0,3:0:0:0:
358,75,72351,1,0,3:0:0:0:
273,104,72623,5,0,0:0:0:0:
281,123,74210,6,0,B|244:126|210:109|210:109|168:103|135:122,1,150,6|10,3:2|0:0,0:0:0:0:
187,196,74960,1,0,0:0:0:0:
149,277,75210,2,0,L|157:362,1,75,2|0,3:2|0:0,0:0:0:0:
245,344,75710,6,0,L|238:270,1,75,2|0,3:2|0:0,0:0:0:0:
187,196,76210,2,0,P|114:194|64:248,1,150,8|0,0:0|3:0,0:0:0:0:
149,277,76960,1,0,3:0:0:0:
238,270,77210,6,0,B|268:245|276:206|276:206|284:168|313:144,1,150,6|10,3:2|0:0,0:0:0:0:
403,136,77960,1,0,0:0:0:0:
438,218,78210,2,0,P|401:225|365:217,1,75,2|0,3:2|0:0,0:0:0:0:
314,144,78710,6,0,P|277:137|240:145,1,75,2|0,3:2|0:0,0:0:0:0:
187,217,79210,2,0,L|67:208,1,112.5,8|0,0:0|3:0,0:0:0:0:
39,180,79710,2,0,P|50:132|47:100,1,75,0|0,0:0|3:0,0:0:0:0:
121,54,80210,6,0,L|270:65,1,150,6|10,3:2|0:0,0:0:0:0:
314,143,80960,1,0,0:0:0:0:
401,125,81210,2,0,P|387:90|360:66,1,75,2|0,3:2|0:0,0:0:0:0:
314,143,81710,6,0,L|302:292,1,150,6|10,3:2|0:0,0:0:0:0:
356,365,82460,1,0,0:0:0:0:
440,337,82710,2,0,P|422:304|392:283,1,75,2|0,3:2|3:0,0:0:0:0:
302,293,83210,6,0,B|267:311|230:301|230:301|192:289|157:305,1,150,4|10,3:2|0:0,0:0:0:0:
93,369,83960,1,0,0:0:0:0:
70,282,84210,2,0,L|76:204,1,75,2|0,3:2|0:0,0:0:0:0:
18,135,84710,6,0,P|89:154|151:115,1,150,2|8,3:2|0:0,0:0:0:0:
76,64,85460,1,0,0:0:0:0:
157,23,85710,2,0,L|232:24,1,75,0|0,3:0|3:0,0:0:0:0:
291,92,86210,6,0,P|361:73|423:112,1,150,6|10,3:2|0:0,0:0:0:0:
348,164,86960,1,0,0:0:0:0:
430,204,87210,2,0,L|426:280,1,75,2|0,3:2|0:0,0:0:0:0:
358,338,87710,6,0,P|322:329|285:333,1,75,2|0,3:2|0:0,0:0:0:0:
201,363,88210,2,0,B|159:374|127:364|127:364|103:337|105:286,1,150,8|0,0:0|3:0,0:0:0:0:
49,222,88960,1,0,3:0:0:0:
139,210,89210,6,0,B|135:174|101:145|101:145|90:110|107:73,1,150,6|10,3:2|0:0,0:0:0:0:
188,37,89960,1,0,0:0:0:0:
256,95,90210,2,0,P|292:103|330:104,1,75,2|0,3:2|0:0,0:0:0:0:
393,39,90710,6,0,P|429:31|467:30,1,75,2|0,3:2|0:0,0:0:0:0:
506,110,91210,2,0,L|497:222,1,112.5,8|0,0:0|3:0,0:0:0:0:
460,248,91710,2,0,P|471:284|467:322,1,75,2|0,0:0|3:0,0:0:0:0:
380,293,92210,6,0,P|306:289|255:343,1,150,6|8,3:2|0:0,0:0:0:0:
172,305,92960,1,0,0:0:0:0:
87,338,93210,2,0,P|52:326|25:300,1,75,0|0,3:0|0:0,0:0:0:0:
100,249,93710,6,0,L|42:110,2,150,6|8|0,3:2|0:0|3:0,0:0:0:0:
87,338,94960,1,0,3:0:0:0:
172,305,95210,6,0,P|188:272|190:234,1,75,6|0,3:2|0:0,0:0:0:0:
271,195,95710,2,0,P|254:161|252:124,1,75,8|0,0:0|0:0,0:0:0:0:
343,139,96210,1,2,3:2:0:0:
343,139,96710,6,0,P|380:140|413:158,1,75,2|0,3:2|3:0,0:0:0:0:
356,229,97210,2,0,P|335:260|304:279,1,75,10|0,0:0|3:0,0:0:0:0:
271,195,97710,2,0,P|253:162|252:124,1,75,2|0,3:2|3:0,0:0:0:0:
343,139,98210,1,6,3:2:0:0:
256,192,98335,12,2,100710,0:0:0:0:
102,189,110210,6,0,L|108:112,2,75,6|0|0,0:0|0:0|0:0,0:0:0:0:
144,268,110960,1,0,0:0:0:0:
191,192,111210,2,0,L|197:115,1,75,2|0,0:0|0:0,0:0:0:0:
225,31,111710,6,0,B|261:44|279:78|279:78|306:51|348:48,2,150,2|0|2,0:0|0:0|0:0,0:0:0:0:
209,43,113210,6,0,L|134:51,1,75,6|0,0:0|0:0,0:0:0:0:
79,122,113710,2,0,L|4:114,2,75,2|0|2,0:0|0:0|0:0,0:0:0:0:
169,135,114460,1,0,0:0:0:0:
259,148,114710,6,0,L|334:156,1,75,2|0,0:0|0:0,0:0:0:0:
415,117,115210,2,0,B|432:151|417:191|417:191|404:227|421:262,1,150,0|2,0:0|0:0,0:0:0:0:
451,347,115960,1,0,0:0:0:0:
363,331,116210,6,0,L|288:338,1,75,4|0,3:2|0:0,0:0:0:0:
256,253,116710,2,0,L|181:246,1,75,2|0,0:0|0:0,0:0:0:0:
149,331,117210,2,0,L|74:338,1,75,2|0,0:0|0:0,0:0:0:0:
15,269,117710,6,0,P|27:229|24:194,1,75,6|0,0:0|0:0,0:0:0:0:
4,108,118210,2,0,P|2:70|13:35,1,75,2|0,0:0|0:0,0:0:0:0:
103,26,118710,2,0,L|177:46,1,75,2|0,0:0|0:0,0:0:0:0:
219,124,119210,6,0,B|252:111|292:124|292:124|333:137|366:122|366:122|346:178|355:232|406:257,1,300,4|2,0:0|0:0,0:0:0:0:
424,270,120710,6,0,L|261:278,2,150,2|0|0,0:0|0:0|0:0,0:0:0:0:
482,99,122210,1,4,3:0:0:0:
256,192,122335,12,0,127460,0:0:0:0:
