osu file format v14

[General]
AudioFilename: BilibiliJJ.COM-fripSideSecretofmyheart_.mp3
AudioLeadIn: 0
PreviewTime: 160975
Countdown: 0
SampleSet: Soft
StackLeniency: 0.7
Mode: 3
LetterboxInBreaks: 0
SpecialStyle: 1
WidescreenStoryboard: 1

[Editor]
DistanceSpacing: 1
BeatDivisor: 8
GridSize: 8
TimelineZoom: 1

[Metadata]
Title:Secret of my Heart
TitleUnicode:Secret of my Heart
Artist:fripSide
ArtistUnicode:fripSide
Creator:Mysticalia
Version:Hyper
Source:Infinite Synthesis 2
Tags:
BeatmapID:822359
BeatmapSetID:375135

[Difficulty]
HPDrainRate:8
CircleSize:7
OverallDifficulty:8
ApproachRate:5
SliderMultiplier:1.4
SliderTickRate:1

[Events]
//Background and Video events
0,0,"secretofmyheart.jpg",0,0
//Break Periods
//Storyboard Layer 0 (Background)
//Storyboard Layer 1 (Fail)
//Storyboard Layer 2 (Pass)
//Storyboard Layer 3 (Foreground)
//Storyboard Sound Samples

[TimingPoints]
1270,588.235294117647,4,2,0,0,1,0
243622,-133.333333333333,4,2,0,0,0,0
253034,-111.111111111111,4,2,0,0,0,0
262446,-100,4,2,0,0,0,0

[HitObjects]
36,192,1270,128,0,1564:0:0:0:0:
182,192,1270,1,0,0:0:0:0:
256,192,1417,1,0,0:0:0:0:
109,192,1564,128,0,1858:0:0:0:0:
329,192,1564,1,0,0:0:0:0:
402,192,1711,1,0,0:0:0:0:
182,192,1858,128,0,2152:0:0:0:0:
475,192,1858,1,0,0:0:0:0:
402,192,2005,1,0,0:0:0:0:
256,192,2152,128,0,2446:0:0:0:0:
329,192,2152,1,0,0:0:0:0:
475,192,2446,128,0,2740:0:0:0:0:
329,192,2446,1,0,0:0:0:0:
256,192,2593,1,0,0:0:0:0:
402,192,2740,128,0,3034:0:0:0:0:
182,192,2740,1,0,0:0:0:0:
109,192,2887,1,0,0:0:0:0:
329,192,3034,128,0,3328:0:0:0:0:
36,192,3034,1,0,0:0:0:0:
109,192,3181,1,0,0:0:0:0:
256,192,3328,128,0,3622:0:0:0:0:
182,192,3328,1,0,0:0:0:0:
36,192,3475,1,0,0:0:0:0:
109,192,3622,128,0,3917:0:0:0:0:
329,192,3622,1,0,0:0:0:0:
182,192,3917,128,0,4211:0:0:0:0:
475,192,3917,1,0,0:0:0:0:
256,192,4064,1,0,0:0:0:0:
329,192,4211,128,0,4505:0:0:0:0:
36,192,4211,1,0,0:0:0:0:
109,192,4505,1,0,0:0:0:0:
402,192,4505,128,0,4799:0:0:0:0:
182,192,4652,1,0,0:0:0:0:
256,192,4799,1,0,0:0:0:0:
475,192,4799,128,0,5093:0:0:0:0:
182,192,4946,1,0,0:0:0:0:
109,192,5093,1,0,0:0:0:0:
402,192,5093,128,0,5387:0:0:0:0:
36,192,5240,1,0,0:0:0:0:
109,192,5387,1,0,0:0:0:0:
329,192,5387,128,0,5681:0:0:0:0:
36,192,5534,1,0,0:0:0:0:
109,192,5681,1,0,0:0:0:0:
256,192,5681,128,0,5975:0:0:0:0:
182,192,5828,1,0,0:0:0:0:
329,192,5975,128,0,6269:0:0:0:0:
475,192,5975,1,0,0:0:0:0:
182,192,6269,128,0,6564:0:0:0:0:
36,192,6269,1,0,0:0:0:0:
475,192,6417,1,0,0:0:0:0:
256,192,6564,128,0,6858:0:0:0:0:
36,192,6564,1,0,0:0:0:0:
475,192,6711,1,0,0:0:0:0:
329,192,6858,128,0,7152:0:0:0:0:
36,192,6858,1,0,0:0:0:0:
402,192,7152,128,0,7446:0:0:0:0:
182,192,7152,1,0,0:0:0:0:
109,192,7446,128,0,7740:0:0:0:0:
256,192,7446,1,0,0:0:0:0:
329,192,7593,1,0,0:0:0:0:
256,192,7740,128,0,8034:0:0:0:0:
402,192,7740,1,0,0:0:0:0:
402,192,8034,128,0,8328:0:0:0:0:
329,192,8034,1,0,0:0:0:0:
329,192,8328,128,0,8622:0:0:0:0:
36,192,8328,1,0,0:0:0:0:
256,192,8622,128,0,8917:0:0:0:0:
109,192,8622,1,0,0:0:0:0:
182,192,8917,1,0,0:0:0:0:
329,192,8917,128,0,9211:0:0:0:0:
402,192,9211,128,0,9505:0:0:0:0:
182,192,9211,1,0,0:0:0:0:
256,192,9358,1,0,0:0:0:0:
109,192,9505,128,0,9799:0:0:0:0:
329,192,9505,1,0,0:0:0:0:
256,192,9652,1,0,0:0:0:0:
182,192,9799,128,0,10093:0:0:0:0:
402,192,9799,1,0,0:0:0:0:
329,192,10093,128,0,10387:0:0:0:0:
475,192,10093,1,0,0:0:0:0:
256,192,10387,128,0,10681:0:0:0:0:
402,192,10387,1,0,0:0:0:0:
182,192,10681,128,0,10975:0:0:0:0:
475,192,10681,1,0,0:0:0:0:
36,192,10975,128,0,11269:0:0:0:0:
402,192,10975,1,0,0:0:0:0:
109,192,11269,128,0,11564:0:0:0:0:
329,192,11269,1,0,0:0:0:0:
182,192,11564,128,0,11858:0:0:0:0:
402,192,11564,1,0,0:0:0:0:
256,192,11858,128,0,12152:0:0:0:0:
475,192,11858,1,0,0:0:0:0:
36,192,12005,1,0,0:0:0:0:
182,192,12152,128,0,12446:0:0:0:0:
475,192,12152,1,0,0:0:0:0:
36,192,12299,1,0,0:0:0:0:
256,192,12446,128,0,12740:0:0:0:0:
475,192,12446,1,0,0:0:0:0:
402,192,12519,1,0,0:0:0:0:
329,192,12593,1,0,0:0:0:0:
475,192,12667,1,0,0:0:0:0:
402,192,12740,128,0,13034:0:0:0:0:
36,192,13034,128,0,13328:0:0:0:0:
256,192,13034,1,0,0:0:0:0:
182,192,13181,1,0,0:0:0:0:
109,192,13328,128,0,13622:0:0:0:0:
329,192,13328,1,0,0:0:0:0:
402,192,13475,1,0,0:0:0:0:
256,192,13622,128,0,13917:0:0:0:0:
475,192,13622,1,0,0:0:0:0:
329,192,13769,1,0,0:0:0:0:
402,192,13917,128,0,14211:0:0:0:0:
182,192,13917,1,0,0:0:0:0:
36,192,14064,1,0,0:0:0:0:
475,192,14211,128,0,14505:0:0:0:0:
109,192,14211,1,0,0:0:0:0:
402,192,14505,128,0,14799:0:0:0:0:
256,192,14505,1,0,0:0:0:0:
256,192,14799,128,0,15093:0:0:0:0:
109,192,14799,1,0,0:0:0:0:
109,192,15093,128,0,15387:0:0:0:0:
329,192,15093,1,0,0:0:0:0:
36,192,15387,128,0,15681:0:0:0:0:
182,192,15387,1,0,0:0:0:0:
109,192,15681,128,0,15975:0:0:0:0:
256,192,15681,1,0,0:0:0:0:
182,192,15975,128,0,16269:0:0:0:0:
329,192,15975,1,0,0:0:0:0:
256,192,16269,128,0,16564:0:0:0:0:
402,192,16269,1,0,0:0:0:0:
109,192,16564,128,0,16858:0:0:0:0:
475,192,16564,1,0,0:0:0:0:
182,192,16858,128,0,17152:0:0:0:0:
402,192,16858,1,0,0:0:0:0:
329,192,17005,1,0,0:0:0:0:
256,192,17152,128,0,17446:0:0:0:0:
402,192,17152,1,0,0:0:0:0:
329,192,17446,128,0,17740:0:0:0:0:
475,192,17446,1,0,0:0:0:0:
402,192,17740,1,0,0:0:0:0:
109,192,17740,128,0,18034:0:0:0:0:
256,192,18034,1,0,0:0:0:0:
182,192,18034,128,0,18328:0:0:0:0:
402,192,18328,128,0,18622:0:0:0:0:
329,192,18328,1,0,0:0:0:0:
256,192,18475,1,0,0:0:0:0:
182,192,18622,1,0,0:0:0:0:
475,192,18622,128,0,18917:0:0:0:0:
109,192,18769,1,0,0:0:0:0:
182,192,18917,1,0,0:0:0:0:
402,192,18917,128,0,19505:0:0:0:0:
256,192,19064,1,0,0:0:0:0:
329,192,19211,1,0,0:0:0:0:
256,192,19358,1,0,0:0:0:0:
182,192,19505,1,0,0:0:0:0:
36,192,19505,1,0,0:0:0:0:
109,192,19652,1,0,0:0:0:0:
36,192,19799,1,0,0:0:0:0:
182,192,19799,1,0,0:0:0:0:
109,192,19946,1,0,0:0:0:0:
256,192,19946,1,0,0:0:0:0:
36,192,20093,1,0,0:0:0:0:
329,192,20093,1,0,0:0:0:0:
182,192,20093,128,0,20681:0:0:0:0:
402,192,20093,1,0,0:0:0:0:
256,192,20387,1,0,0:0:0:0:
329,192,20534,1,0,0:0:0:0:
402,192,20681,1,0,0:0:0:0:
475,192,20681,1,0,0:0:0:0:
36,192,20681,1,0,0:0:0:0:
402,192,20975,128,0,21122:0:0:0:0:
329,192,21122,128,0,21269:0:0:0:0:
182,192,21122,1,0,0:0:0:0:
256,192,21269,128,0,21417:0:0:0:0:
36,192,21269,1,0,0:0:0:0:
475,192,21269,1,0,0:0:0:0:
329,192,21417,128,0,21564:0:0:0:0:
256,192,21564,128,0,21711:0:0:0:0:
182,192,21711,128,0,21858:0:0:0:0:
402,192,21858,1,0,0:0:0:0:
475,192,21858,1,0,0:0:0:0:
36,192,21858,1,0,0:0:0:0:
329,192,21858,1,0,0:0:0:0:
329,192,22152,1,0,0:0:0:0:
109,192,22446,1,0,0:0:0:0:
402,192,22446,128,0,22740:0:0:0:0:
182,192,22446,1,0,0:0:0:0:
256,192,22740,1,0,0:0:0:0:
329,192,22887,1,0,0:0:0:0:
402,192,23034,1,0,0:0:0:0:
109,192,23034,1,0,0:0:0:0:
329,192,23328,1,0,0:0:0:0:
402,192,23475,1,0,0:0:0:0:
36,192,23622,1,0,0:0:0:0:
475,192,23622,1,0,0:0:0:0:
402,192,23769,1,0,0:0:0:0:
329,192,23917,1,0,0:0:0:0:
256,192,24064,1,0,0:0:0:0:
182,192,24211,1,0,0:0:0:0:
36,192,24211,1,0,0:0:0:0:
475,192,24211,1,0,0:0:0:0:
329,192,24211,1,0,0:0:0:0:
109,192,24505,1,0,0:0:0:0:
256,192,24799,1,0,0:0:0:0:
329,192,24799,1,0,0:0:0:0:
475,192,24799,128,0,25387:0:0:0:0:
109,192,25093,1,0,0:0:0:0:
402,192,25240,1,0,0:0:0:0:
36,192,25387,1,0,0:0:0:0:
329,192,25387,1,0,0:0:0:0:
36,192,25534,1,0,0:0:0:0:
109,192,25681,1,0,0:0:0:0:
402,192,25828,1,0,0:0:0:0:
109,192,25828,1,0,0:0:0:0:
256,192,25828,1,0,0:0:0:0:
329,192,25975,1,0,0:0:0:0:
182,192,25975,1,0,0:0:0:0:
182,192,26122,1,0,0:0:0:0:
256,192,26269,1,0,0:0:0:0:
256,192,26417,1,0,0:0:0:0:
36,192,26564,1,0,0:0:0:0:
402,192,26564,1,0,0:0:0:0:
329,192,26564,1,0,0:0:0:0:
109,192,26564,1,0,0:0:0:0:
402,192,26858,1,0,0:0:0:0:
329,192,27152,128,0,27593:0:0:0:0:
402,192,27152,1,0,0:0:0:0:
109,192,27152,1,0,0:0:0:0:
182,192,27446,1,0,0:0:0:0:
402,192,27593,128,0,28034:0:0:0:0:
182,192,27593,1,0,0:0:0:0:
256,192,27740,1,0,0:0:0:0:
36,192,27740,1,0,0:0:0:0:
475,192,28034,128,0,28328:0:0:0:0:
109,192,28034,1,0,0:0:0:0:
182,192,28181,1,0,0:0:0:0:
402,192,28328,128,0,28475:0:0:0:0:
256,192,28328,1,0,0:0:0:0:
36,192,28328,1,0,0:0:0:0:
329,192,28475,128,0,28917:0:0:0:0:
109,192,28475,1,0,0:0:0:0:
182,192,28622,1,0,0:0:0:0:
36,192,28622,1,0,0:0:0:0:
109,192,28917,1,0,0:0:0:0:
256,192,28917,1,0,0:0:0:0:
402,192,28917,1,0,0:0:0:0:
475,192,28917,1,0,0:0:0:0:
182,192,29211,1,0,0:0:0:0:
36,192,29211,1,0,0:0:0:0:
36,192,29358,1,0,0:0:0:0:
182,192,29358,1,0,0:0:0:0:
109,192,29505,1,0,0:0:0:0:
256,192,29505,1,0,0:0:0:0:
329,192,29505,1,0,0:0:0:0:
475,192,29505,128,0,30093:0:0:0:0:
182,192,29799,1,0,0:0:0:0:
256,192,29946,1,0,0:0:0:0:
329,192,30093,1,0,0:0:0:0:
402,192,30093,1,0,0:0:0:0:
36,192,30093,1,0,0:0:0:0:
109,192,30387,1,0,0:0:0:0:
256,192,30387,1,0,0:0:0:0:
182,192,30534,1,0,0:0:0:0:
329,192,30534,1,0,0:0:0:0:
402,192,30681,1,0,0:0:0:0:
36,192,30681,1,0,0:0:0:0:
329,192,30828,1,0,0:0:0:0:
256,192,30975,1,0,0:0:0:0:
182,192,31122,1,0,0:0:0:0:
109,192,31269,1,0,0:0:0:0:
256,192,31269,1,0,0:0:0:0:
329,192,31269,1,0,0:0:0:0:
475,192,31269,1,0,0:0:0:0:
402,192,31564,128,0,31858:0:0:0:0:
329,192,31564,1,0,0:0:0:0:
256,192,31858,1,0,0:0:0:0:
475,192,31858,128,0,32446:0:0:0:0:
182,192,31858,1,0,0:0:0:0:
109,192,32152,1,0,0:0:0:0:
329,192,32299,1,0,0:0:0:0:
36,192,32446,128,0,33034:0:0:0:0:
182,192,32446,1,0,0:0:0:0:
402,192,32446,1,0,0:0:0:0:
329,192,32593,1,0,0:0:0:0:
402,192,32740,1,0,0:0:0:0:
475,192,32887,1,0,0:0:0:0:
256,192,33034,128,0,33622:0:0:0:0:
402,192,33034,1,0,0:0:0:0:
182,192,33034,1,0,0:0:0:0:
109,192,33181,1,0,0:0:0:0:
329,192,33181,1,0,0:0:0:0:
182,192,33328,1,0,0:0:0:0:
109,192,33475,1,0,0:0:0:0:
36,192,33622,1,0,0:0:0:0:
182,192,33622,1,0,0:0:0:0:
329,192,33622,1,0,0:0:0:0:
475,192,33622,1,0,0:0:0:0:
109,192,33917,1,0,0:0:0:0:
402,192,33917,1,0,0:0:0:0:
182,192,34211,1,0,0:0:0:0:
109,192,34211,1,0,0:0:0:0:
329,192,34211,1,0,0:0:0:0:
402,192,34211,128,0,34799:0:0:0:0:
256,192,34505,1,0,0:0:0:0:
329,192,34652,1,0,0:0:0:0:
256,192,34799,1,0,0:0:0:0:
182,192,34799,128,0,35387:0:0:0:0:
36,192,34799,1,0,0:0:0:0:
109,192,35093,1,0,0:0:0:0:
256,192,35240,1,0,0:0:0:0:
402,192,35387,1,0,0:0:0:0:
329,192,35387,1,0,0:0:0:0:
36,192,35387,1,0,0:0:0:0:
475,192,35387,128,0,35975:0:0:0:0:
109,192,35681,1,0,0:0:0:0:
256,192,35828,1,0,0:0:0:0:
402,192,35975,1,0,0:0:0:0:
36,192,35975,1,0,0:0:0:0:
109,192,35975,1,0,0:0:0:0:
182,192,35975,128,0,36564:0:0:0:0:
329,192,36122,1,0,0:0:0:0:
402,192,36269,1,0,0:0:0:0:
475,192,36417,1,0,0:0:0:0:
402,192,36564,1,0,0:0:0:0:
329,192,36564,128,0,37446:0:0:0:0:
109,192,36564,1,0,0:0:0:0:
36,192,36564,1,0,0:0:0:0:
182,192,36858,1,0,0:0:0:0:
256,192,37005,1,0,0:0:0:0:
182,192,37152,1,0,0:0:0:0:
475,192,37152,1,0,0:0:0:0:
109,192,37299,1,0,0:0:0:0:
256,192,37446,128,0,37593:0:0:0:0:
36,192,37446,1,0,0:0:0:0:
182,192,37446,1,0,0:0:0:0:
109,192,37593,1,0,0:0:0:0:
256,192,37740,128,0,38917:0:0:0:0:
36,192,37740,1,0,0:0:0:0:
182,192,37740,1,0,0:0:0:0:
329,192,37887,1,0,0:0:0:0:
475,192,37887,1,0,0:0:0:0:
402,192,38034,1,0,0:0:0:0:
182,192,38181,1,0,0:0:0:0:
36,192,38181,1,0,0:0:0:0:
329,192,38328,1,0,0:0:0:0:
475,192,38328,1,0,0:0:0:0:
402,192,38328,1,0,0:0:0:0:
109,192,38622,1,0,0:0:0:0:
36,192,38622,1,0,0:0:0:0:
36,192,38769,1,0,0:0:0:0:
109,192,38769,1,0,0:0:0:0:
36,192,38917,1,0,0:0:0:0:
109,192,38917,1,0,0:0:0:0:
402,192,38917,1,0,0:0:0:0:
475,192,38917,128,0,40975:0:0:0:0:
182,192,39211,1,0,0:0:0:0:
256,192,39358,128,0,39505:0:0:0:0:
402,192,39505,1,0,0:0:0:0:
329,192,39652,1,0,0:0:0:0:
256,192,39799,128,0,39946:0:0:0:0:
109,192,39946,1,0,0:0:0:0:
36,192,40093,1,0,0:0:0:0:
256,192,40240,128,0,40387:0:0:0:0:
36,192,40387,1,0,0:0:0:0:
109,192,40534,1,0,0:0:0:0:
256,192,40681,128,0,40975:0:0:0:0:
402,192,40975,128,0,41122:0:0:0:0:
182,192,40975,1,0,0:0:0:0:
36,192,40975,1,0,0:0:0:0:
329,192,41122,128,0,41269:0:0:0:0:
256,192,41269,128,0,43328:0:0:0:0:
182,192,41269,1,0,0:0:0:0:
36,192,41269,1,0,0:0:0:0:
109,192,41564,1,0,0:0:0:0:
402,192,41711,128,0,41858:0:0:0:0:
182,192,41858,1,0,0:0:0:0:
402,192,42152,128,0,42299:0:0:0:0:
36,192,42299,1,0,0:0:0:0:
109,192,42446,1,0,0:0:0:0:
402,192,42593,128,0,42740:0:0:0:0:
36,192,42740,1,0,0:0:0:0:
182,192,42887,1,0,0:0:0:0:
402,192,43034,128,0,43328:0:0:0:0:
329,192,43328,128,0,43475:0:0:0:0:
182,192,43328,1,0,0:0:0:0:
109,192,43328,1,0,0:0:0:0:
402,192,43475,128,0,43622:0:0:0:0:
475,192,43622,128,0,44505:0:0:0:0:
109,192,43622,1,0,0:0:0:0:
182,192,43622,1,0,0:0:0:0:
36,192,43917,1,0,0:0:0:0:
109,192,44064,1,0,0:0:0:0:
182,192,44211,1,0,0:0:0:0:
109,192,44358,1,0,0:0:0:0:
402,192,44505,128,0,44652:0:0:0:0:
182,192,44505,1,0,0:0:0:0:
256,192,44652,128,0,44799:0:0:0:0:
329,192,44652,1,0,0:0:0:0:
109,192,44799,128,0,45093:0:0:0:0:
475,192,44799,1,0,0:0:0:0:
402,192,44946,1,0,0:0:0:0:
36,192,45093,128,0,45387:0:0:0:0:
329,192,45093,1,0,0:0:0:0:
256,192,45240,1,0,0:0:0:0:
109,192,45387,128,0,45681:0:0:0:0:
329,192,45387,1,0,0:0:0:0:
475,192,45681,1,0,0:0:0:0:
256,192,45681,1,0,0:0:0:0:
182,192,45681,128,0,45975:0:0:0:0:
256,192,45975,1,0,0:0:0:0:
402,192,45975,1,0,0:0:0:0:
36,192,45975,128,0,46564:0:0:0:0:
109,192,46269,1,0,0:0:0:0:
402,192,46417,1,0,0:0:0:0:
182,192,46564,1,0,0:0:0:0:
475,192,46564,1,0,0:0:0:0:
256,192,46711,1,0,0:0:0:0:
329,192,46858,1,0,0:0:0:0:
402,192,46858,128,0,47152:0:0:0:0:
36,192,47152,1,0,0:0:0:0:
109,192,47152,1,0,0:0:0:0:
329,192,47152,1,0,0:0:0:0:
182,192,47299,1,0,0:0:0:0:
256,192,47299,1,0,0:0:0:0:
475,192,47299,1,0,0:0:0:0:
329,192,47446,1,0,0:0:0:0:
402,192,47446,1,0,0:0:0:0:
109,192,47446,1,0,0:0:0:0:
475,192,47740,1,0,0:0:0:0:
256,192,47740,1,0,0:0:0:0:
109,192,47740,1,0,0:0:0:0:
36,192,47740,1,0,0:0:0:0:
182,192,48034,1,0,0:0:0:0:
329,192,48034,1,0,0:0:0:0:
36,192,48034,1,0,0:0:0:0:
182,192,48181,1,0,0:0:0:0:
329,192,48181,1,0,0:0:0:0:
402,192,48328,1,0,0:0:0:0:
475,192,48328,128,0,48622:0:0:0:0:
256,192,48328,1,0,0:0:0:0:
109,192,48328,1,0,0:0:0:0:
329,192,48622,1,0,0:0:0:0:
182,192,48769,1,0,0:0:0:0:
109,192,48917,1,0,0:0:0:0:
256,192,48917,1,0,0:0:0:0:
402,192,48917,1,0,0:0:0:0:
36,192,48917,128,0,49211:0:0:0:0:
182,192,49211,1,0,0:0:0:0:
256,192,49358,1,0,0:0:0:0:
329,192,49505,1,0,0:0:0:0:
475,192,49505,1,0,0:0:0:0:
182,192,49652,1,0,0:0:0:0:
402,192,49799,128,0,50093:0:0:0:0:
109,192,49799,1,0,0:0:0:0:
182,192,49946,1,0,0:0:0:0:
256,192,50093,1,0,0:0:0:0:
329,192,50093,1,0,0:0:0:0:
109,192,50093,1,0,0:0:0:0:
36,192,50093,1,0,0:0:0:0:
475,192,50240,1,0,0:0:0:0:
182,192,50240,1,0,0:0:0:0:
402,192,50387,1,0,0:0:0:0:
182,192,50387,1,0,0:0:0:0:
329,192,50534,1,0,0:0:0:0:
182,192,50534,1,0,0:0:0:0:
475,192,50681,1,0,0:0:0:0:
109,192,50681,1,0,0:0:0:0:
256,192,50681,1,0,0:0:0:0:
402,192,50681,128,0,50975:0:0:0:0:
36,192,50975,1,0,0:0:0:0:
182,192,51122,1,0,0:0:0:0:
256,192,51269,1,0,0:0:0:0:
329,192,51269,1,0,0:0:0:0:
475,192,51269,1,0,0:0:0:0:
109,192,51269,128,0,51564:0:0:0:0:
402,192,51564,1,0,0:0:0:0:
256,192,51711,1,0,0:0:0:0:
182,192,51858,1,0,0:0:0:0:
36,192,51858,1,0,0:0:0:0:
256,192,52005,1,0,0:0:0:0:
329,192,52152,1,0,0:0:0:0:
402,192,52299,1,0,0:0:0:0:
475,192,52446,1,0,0:0:0:0:
329,192,52446,1,0,0:0:0:0:
256,192,52446,1,0,0:0:0:0:
182,192,52446,1,0,0:0:0:0:
109,192,52593,1,0,0:0:0:0:
36,192,52740,1,0,0:0:0:0:
182,192,52740,1,0,0:0:0:0:
256,192,52887,1,0,0:0:0:0:
329,192,53034,1,0,0:0:0:0:
402,192,53034,128,0,53328:0:0:0:0:
109,192,53034,1,0,0:0:0:0:
182,192,53328,1,0,0:0:0:0:
256,192,53475,1,0,0:0:0:0:
329,192,53622,1,0,0:0:0:0:
182,192,53622,1,0,0:0:0:0:
36,192,53622,1,0,0:0:0:0:
256,192,53917,1,0,0:0:0:0:
402,192,54064,1,0,0:0:0:0:
475,192,54211,1,0,0:0:0:0:
329,192,54211,1,0,0:0:0:0:
36,192,54211,128,0,54799:0:0:0:0:
402,192,54505,1,0,0:0:0:0:
329,192,54652,1,0,0:0:0:0:
256,192,54799,1,0,0:0:0:0:
182,192,54799,1,0,0:0:0:0:
402,192,54799,1,0,0:0:0:0:
475,192,54799,1,0,0:0:0:0:
109,192,55093,1,0,0:0:0:0:
329,192,55240,1,0,0:0:0:0:
402,192,55387,1,0,0:0:0:0:
475,192,55387,128,0,55975:0:0:0:0:
182,192,55387,1,0,0:0:0:0:
36,192,55387,1,0,0:0:0:0:
109,192,55681,1,0,0:0:0:0:
109,192,55828,1,0,0:0:0:0:
182,192,55975,1,0,0:0:0:0:
329,192,55975,1,0,0:0:0:0:
182,192,56122,1,0,0:0:0:0:
256,192,56269,1,0,0:0:0:0:
256,192,56417,1,0,0:0:0:0:
329,192,56564,1,0,0:0:0:0:
475,192,56564,1,0,0:0:0:0:
329,192,56711,1,0,0:0:0:0:
402,192,56858,1,0,0:0:0:0:
402,192,57005,1,0,0:0:0:0:
256,192,57005,1,0,0:0:0:0:
182,192,57152,1,0,0:0:0:0:
329,192,57152,1,0,0:0:0:0:
109,192,57152,1,0,0:0:0:0:
36,192,57152,1,0,0:0:0:0:
256,192,57446,1,0,0:0:0:0:
475,192,57446,1,0,0:0:0:0:
402,192,57593,1,0,0:0:0:0:
329,192,57593,1,0,0:0:0:0:
256,192,57740,1,0,0:0:0:0:
475,192,57740,1,0,0:0:0:0:
109,192,57740,128,0,58328:0:0:0:0:
182,192,58034,1,0,0:0:0:0:
329,192,58181,1,0,0:0:0:0:
256,192,58328,1,0,0:0:0:0:
475,192,58328,1,0,0:0:0:0:
402,192,58622,1,0,0:0:0:0:
182,192,58622,1,0,0:0:0:0:
36,192,58917,1,0,0:0:0:0:
109,192,58917,1,0,0:0:0:0:
109,192,59064,1,0,0:0:0:0:
36,192,59064,1,0,0:0:0:0:
402,192,59211,1,0,0:0:0:0:
475,192,59211,1,0,0:0:0:0:
402,192,59358,1,0,0:0:0:0:
475,192,59358,1,0,0:0:0:0:
109,192,59505,1,0,0:0:0:0:
36,192,59505,1,0,0:0:0:0:
402,192,59505,1,0,0:0:0:0:
475,192,59505,1,0,0:0:0:0:
36,192,59799,1,0,0:0:0:0:
182,192,59799,1,0,0:0:0:0:
109,192,59946,1,0,0:0:0:0:
256,192,59946,1,0,0:0:0:0:
182,192,60093,1,0,0:0:0:0:
329,192,60093,1,0,0:0:0:0:
475,192,60093,1,0,0:0:0:0:
402,192,60240,128,0,60387:0:0:0:0:
256,192,60240,128,0,60387:0:0:0:0:
109,192,60387,1,0,0:0:0:0:
36,192,60681,1,0,0:0:0:0:
182,192,60681,1,0,0:0:0:0:
256,192,60681,1,0,0:0:0:0:
329,192,60681,1,0,0:0:0:0:
475,192,60681,1,0,0:0:0:0:
109,192,61122,1,0,0:0:0:0:
256,192,61122,1,0,0:0:0:0:
402,192,61122,1,0,0:0:0:0:
36,192,61269,1,0,0:0:0:0:
182,192,61269,1,0,0:0:0:0:
475,192,61343,1,0,0:0:0:0:
329,192,61343,1,0,0:0:0:0:
182,192,61417,1,0,0:0:0:0:
36,192,61417,1,0,0:0:0:0:
109,192,61564,1,0,0:0:0:0:
256,192,61564,128,0,61711:0:0:0:0:
329,192,61711,128,0,61858:0:0:0:0:
109,192,61711,1,0,0:0:0:0:
475,192,61858,128,0,62152:0:0:0:0:
36,192,61858,1,0,0:0:0:0:
182,192,61858,1,0,0:0:0:0:
182,192,62005,1,0,0:0:0:0:
402,192,62152,1,0,0:0:0:0:
329,192,62152,1,0,0:0:0:0:
256,192,62152,128,0,62446:0:0:0:0:
36,192,62446,1,0,0:0:0:0:
329,192,62446,1,0,0:0:0:0:
475,192,62446,128,0,63034:0:0:0:0:
182,192,62446,1,0,0:0:0:0:
109,192,62740,1,0,0:0:0:0:
182,192,62887,1,0,0:0:0:0:
402,192,63034,128,0,63622:0:0:0:0:
256,192,63034,1,0,0:0:0:0:
329,192,63034,1,0,0:0:0:0:
36,192,63034,1,0,0:0:0:0:
109,192,63328,1,0,0:0:0:0:
256,192,63475,1,0,0:0:0:0:
329,192,63622,128,0,64211:0:0:0:0:
36,192,63622,1,0,0:0:0:0:
475,192,63622,1,0,0:0:0:0:
109,192,63769,1,0,0:0:0:0:
182,192,63917,1,0,0:0:0:0:
256,192,64064,1,0,0:0:0:0:
109,192,64211,1,0,0:0:0:0:
182,192,64211,1,0,0:0:0:0:
475,192,64211,1,0,0:0:0:0:
36,192,64211,128,0,64505:0:0:0:0:
256,192,64505,1,0,0:0:0:0:
475,192,64505,128,0,64799:0:0:0:0:
109,192,64799,128,0,65387:0:0:0:0:
182,192,64799,1,0,0:0:0:0:
329,192,64799,1,0,0:0:0:0:
402,192,64799,1,0,0:0:0:0:
329,192,65093,1,0,0:0:0:0:
475,192,65240,1,0,0:0:0:0:
256,192,65387,128,0,65975:0:0:0:0:
402,192,65387,1,0,0:0:0:0:
182,192,65387,1,0,0:0:0:0:
36,192,65387,1,0,0:0:0:0:
109,192,65681,1,0,0:0:0:0:
402,192,65828,1,0,0:0:0:0:
475,192,65975,1,0,0:0:0:0:
36,192,65975,1,0,0:0:0:0:
329,192,65975,128,0,66564:0:0:0:0:
109,192,66122,1,0,0:0:0:0:
182,192,66270,1,0,0:0:0:0:
256,192,66417,1,0,0:0:0:0:
475,192,66564,1,0,0:0:0:0:
402,192,66564,128,0,66858:0:0:0:0:
36,192,66564,1,0,0:0:0:0:
182,192,66564,1,0,0:0:0:0:
109,192,66858,128,0,67152:0:0:0:0:
256,192,66858,1,0,0:0:0:0:
182,192,67152,1,0,0:0:0:0:
329,192,67152,1,0,0:0:0:0:
475,192,67152,1,0,0:0:0:0:
36,192,67152,128,0,67740:0:0:0:0:
256,192,67446,1,0,0:0:0:0:
329,192,67593,1,0,0:0:0:0:
402,192,67740,1,0,0:0:0:0:
475,192,67740,1,0,0:0:0:0:
182,192,67740,128,0,68328:0:0:0:0:
475,192,68034,1,0,0:0:0:0:
402,192,68181,1,0,0:0:0:0:
329,192,68328,128,0,68917:0:0:0:0:
109,192,68328,1,0,0:0:0:0:
36,192,68328,1,0,0:0:0:0:
256,192,68475,1,0,0:0:0:0:
182,192,68622,1,0,0:0:0:0:
109,192,68769,1,0,0:0:0:0:
475,192,68917,128,0,69211:0:0:0:0:
36,192,68917,1,0,0:0:0:0:
182,192,68917,1,0,0:0:0:0:
256,192,68917,1,0,0:0:0:0:
402,192,69211,128,0,69505:0:0:0:0:
109,192,69211,1,0,0:0:0:0:
329,192,69211,1,0,0:0:0:0:
256,192,69505,1,0,0:0:0:0:
182,192,69505,1,0,0:0:0:0:
36,192,69505,1,0,0:0:0:0:
475,192,69505,128,0,70093:0:0:0:0:
109,192,69799,1,0,0:0:0:0:
109,192,69946,1,0,0:0:0:0:
182,192,70093,1,0,0:0:0:0:
329,192,70093,1,0,0:0:0:0:
36,192,70093,128,0,70681:0:0:0:0:
256,192,70387,1,0,0:0:0:0:
329,192,70534,1,0,0:0:0:0:
402,192,70681,128,0,71269:0:0:0:0:
256,192,70681,1,0,0:0:0:0:
109,192,70681,1,0,0:0:0:0:
182,192,70828,1,0,0:0:0:0:
329,192,70828,1,0,0:0:0:0:
256,192,70975,1,0,0:0:0:0:
109,192,70975,1,0,0:0:0:0:
182,192,71269,1,0,0:0:0:0:
329,192,71269,1,0,0:0:0:0:
475,192,71269,1,0,0:0:0:0:
36,192,71269,128,0,71564:0:0:0:0:
109,192,71564,1,0,0:0:0:0:
256,192,71564,1,0,0:0:0:0:
329,192,71564,1,0,0:0:0:0:
182,192,71711,1,0,0:0:0:0:
402,192,71711,1,0,0:0:0:0:
475,192,71711,1,0,0:0:0:0:
256,192,71858,1,0,0:0:0:0:
109,192,71858,1,0,0:0:0:0:
36,192,71858,1,0,0:0:0:0:
329,192,71858,128,0,72446:0:0:0:0:
182,192,72005,1,0,0:0:0:0:
109,192,72152,1,0,0:0:0:0:
182,192,72299,1,0,0:0:0:0:
402,192,72446,1,0,0:0:0:0:
475,192,72446,1,0,0:0:0:0:
256,192,72446,128,0,73034:0:0:0:0:
109,192,72740,1,0,0:0:0:0:
182,192,72887,1,0,0:0:0:0:
475,192,73034,128,0,73622:0:0:0:0:
109,192,73034,1,0,0:0:0:0:
402,192,73034,1,0,0:0:0:0:
329,192,73181,1,0,0:0:0:0:
256,192,73328,1,0,0:0:0:0:
182,192,73475,1,0,0:0:0:0:
329,192,73622,128,0,74211:0:0:0:0:
256,192,73622,1,0,0:0:0:0:
109,192,73622,1,0,0:0:0:0:
36,192,73622,1,0,0:0:0:0:
109,192,73917,1,0,0:0:0:0:
402,192,73917,1,0,0:0:0:0:
182,192,74211,1,0,0:0:0:0:
256,192,74211,1,0,0:0:0:0:
475,192,74211,1,0,0:0:0:0:
36,192,74211,128,0,74799:0:0:0:0:
109,192,74505,1,0,0:0:0:0:
402,192,74652,1,0,0:0:0:0:
475,192,74799,1,0,0:0:0:0:
329,192,74799,128,0,75387:0:0:0:0:
182,192,74799,1,0,0:0:0:0:
109,192,75093,1,0,0:0:0:0:
182,192,75240,1,0,0:0:0:0:
256,192,75387,128,0,75975:0:0:0:0:
109,192,75387,1,0,0:0:0:0:
36,192,75387,1,0,0:0:0:0:
182,192,75534,1,0,0:0:0:0:
109,192,75681,1,0,0:0:0:0:
36,192,75828,1,0,0:0:0:0:
475,192,75975,128,0,76564:0:0:0:0:
109,192,75975,1,0,0:0:0:0:
402,192,75975,1,0,0:0:0:0:
329,192,76269,1,0,0:0:0:0:
182,192,76269,1,0,0:0:0:0:
256,192,76564,1,0,0:0:0:0:
109,192,76564,1,0,0:0:0:0:
36,192,76564,128,0,77152:0:0:0:0:
402,192,76564,1,0,0:0:0:0:
182,192,76858,1,0,0:0:0:0:
329,192,77005,1,0,0:0:0:0:
475,192,77152,1,0,0:0:0:0:
256,192,77152,1,0,0:0:0:0:
402,192,77152,128,0,77740:0:0:0:0:
109,192,77446,1,0,0:0:0:0:
256,192,77593,1,0,0:0:0:0:
182,192,77740,128,0,78328:0:0:0:0:
329,192,77740,1,0,0:0:0:0:
475,192,77740,1,0,0:0:0:0:
36,192,77740,1,0,0:0:0:0:
402,192,78034,1,0,0:0:0:0:
475,192,78181,1,0,0:0:0:0:
256,192,78328,128,0,78917:0:0:0:0:
402,192,78328,1,0,0:0:0:0:
329,192,78328,1,0,0:0:0:0:
109,192,78328,1,0,0:0:0:0:
475,192,78475,1,0,0:0:0:0:
36,192,78622,1,0,0:0:0:0:
402,192,78769,1,0,0:0:0:0:
36,192,78917,1,0,0:0:0:0:
329,192,78917,128,0,79505:0:0:0:0:
475,192,78917,1,0,0:0:0:0:
109,192,79064,1,0,0:0:0:0:
182,192,79211,1,0,0:0:0:0:
109,192,79358,1,0,0:0:0:0:
36,192,79505,1,0,0:0:0:0:
475,192,79505,1,0,0:0:0:0:
182,192,79505,128,0,80093:0:0:0:0:
402,192,79652,1,0,0:0:0:0:
329,192,79799,1,0,0:0:0:0:
402,192,79946,1,0,0:0:0:0:
256,192,80093,1,0,0:0:0:0:
329,192,80093,1,0,0:0:0:0:
109,192,80167,1,0,0:0:0:0:
36,192,80167,1,0,0:0:0:0:
402,192,80240,1,0,0:0:0:0:
475,192,80240,1,0,0:0:0:0:
329,192,80387,1,0,0:0:0:0:
256,192,80387,1,0,0:0:0:0:
182,192,80387,1,0,0:0:0:0:
109,192,80534,1,0,0:0:0:0:
402,192,80534,1,0,0:0:0:0:
36,192,80681,1,0,0:0:0:0:
182,192,80681,1,0,0:0:0:0:
329,192,80681,1,0,0:0:0:0:
475,192,80681,1,0,0:0:0:0:
402,192,80828,1,0,0:0:0:0:
109,192,80828,1,0,0:0:0:0:
182,192,80975,1,0,0:0:0:0:
329,192,80975,1,0,0:0:0:0:
256,192,80975,1,0,0:0:0:0:
402,192,81122,1,0,0:0:0:0:
475,192,81269,128,0,81858:0:0:0:0:
36,192,81269,1,0,0:0:0:0:
182,192,81269,1,0,0:0:0:0:
329,192,81269,1,0,0:0:0:0:
