osu file format v14

[General]
AudioFilename: audio.ogg
AudioLeadIn: 0
PreviewTime: 58423
Countdown: 0
SampleSet: Soft
StackLeniency: 0.7
Mode: 0
LetterboxInBreaks: 0
WidescreenStoryboard: 1

[Editor]
DistanceSpacing: 1
BeatDivisor: 4
GridSize: 4
TimelineZoom: 1.6

[Metadata]
Title:Red Liberation (TV Size)
TitleUnicode:Red Liberation (TV Size)
Artist:fripSide
ArtistUnicode:fripSide
Creator:KoldNoodl
Version:Hard
Source:ひきこまり吸血姫の悶々
Tags:cjstmdals jpop j-pop japanese pop The Vexations of a Shut-In Vampire Princess hikikomari kyuuketsuki no monmon Momochikun
BeatmapID:4386281
BeatmapSetID:2079708

[Difficulty]
HPDrainRate:4
CircleSize:4
OverallDifficulty:6
ApproachRate:7
SliderMultiplier:1.4
SliderTickRate:1

[Events]
//Background and Video events
0,0,"bg.jpg",0,0
//Break Periods
2,24059,32593
//Storyboard Layer 0 (Background)
//Storyboard Layer 1 (Fail)
//Storyboard Layer 2 (Pass)
//Storyboard Layer 3 (Foreground)
//Storyboard Layer 4 (Overlay)
//Storyboard Sound Samples

[TimingPoints]
2395,338.028169014084,4,2,1,50,1,0
7465,-100,4,2,1,60,0,0
8141,-100,4,2,1,70,0,0
34169,-100,4,2,1,60,0,0
55127,-100,4,2,1,70,0,0

[Colours]
Combo1 : 255,98,137
Combo2 : 255,0,0

[HitObjects]
72,116,2394,6,0,P|58:68|60:25,2,70,2|0|2,0:0|0:0|0:0,0:0:0:0:
129,172,2902,2,0,P|182:145|287:146,1,140,2|2,0:0|0:0,0:0:0:0:
456,247,3578,2,0,P|449:197|379:226,1,140,2|2,0:0|0:0,0:0:0:0:
392,300,4085,1,0,0:0:0:0:
392,300,4254,1,2,0:0:0:0:
327,346,4423,2,0,P|283:360|234:357,1,70,0|2,0:0|0:0,0:0:0:0:
204,304,4761,1,0,0:0:0:0:
243,230,4930,1,0,3:2:0:0:
170,181,5099,6,0,P|101:184|47:245,1,140,2|2,1:2|0:0,0:0:0:0:
44,310,5606,1,2,0:0:0:0:
81,106,5944,1,2,0:0:0:0:
243,230,6282,1,2,0:0:0:0:
256,192,6451,12,0,7465,1:0:0:0:
71,62,7803,6,0,P|87:105|92:145,1,70,0|0,3:2|0:0,0:0:0:0:
44,202,8141,2,0,P|46:247|61:289,1,70,6|0,1:2|0:0,0:0:0:0:
110,334,8479,1,0,3:0:0:0:
179,290,8648,2,0,P|226:286|321:331,1,140,2|0,0:2|0:0,0:0:0:0:
396,292,9155,6,0,P|425:258|445:215,1,70,0|0,3:0|0:0,0:0:0:0:
466,153,9493,1,2,1:2:0:0:
418,83,9662,2,0,P|371:66|330:63,1,70,0|0,0:0|3:0,0:0:0:0:
300,126,10000,2,0,P|254:149|209:158,1,70,2|0,0:2|1:0,0:0:0:0:
172,102,10338,2,0,P|100:99|47:161,1,140
25,222,10845,1,2,1:2:0:0:
59,291,11014,1,0,0:0:0:0:
134,313,11183,2,0,P|179:306|214:307,1,70,0|2,3:0|0:2,0:0:0:0:
279,348,11521,1,0,1:0:0:0:
344,293,11690,6,0,P|361:258|370:220,1,70,0|0,0:0|3:0,0:0:0:0:
320,170,12028,2,0,P|318:125|327:91,1,70,0|2,0:0|1:2,0:0:0:0:
387,40,12366,2,0,P|448:46|478:117,1,140,0|2,0:0|0:2,0:0:0:0:
509,191,12873,2,0,L|471:208,3,35,0|0|0|0,1:0|0:0|0:0|0:0,0:0:0:0:
460,237,13211,2,0,P|406:245|374:237,1,70,0|0,3:0|0:0,0:0:0:0:
322,189,13549,6,0,P|272:211|250:303,1,140,6|0,1:2|3:0,0:0:0:0:
168,358,14056,2,0,P|162:292|82:264,1,140,2|0,0:2|0:0,0:0:0:0:
31,305,14564,2,0,P|16:253|17:220,1,70,0|0,3:0|0:0,0:0:0:0:
31,158,14902,1,2,1:2:0:0:
75,91,15071,1,0,0:0:0:0:
143,52,15240,2,0,P|191:48|222:52,1,70,0|2,3:0|0:2,0:0:0:0:
260,128,15578,2,0,P|212:132|181:128,1,70,0|0,1:0|0:0,0:0:0:0:
125,192,15916,5,0,1:0:0:0:
125,192,16085,1,0,0:0:0:0:
154,272,16254,1,0,1:0:0:0:
154,272,16423,1,0,0:0:0:0:
220,323,16592,2,0,P|260:348|282:374,1,70,0|0,1:0|0:0,0:0:0:0:
349,325,16930,2,0,P|382:344|423:351,1,70,0|0,1:0|0:0,0:0:0:0:
484,305,17268,5,0,1:0:0:0:
484,305,17437,1,0,0:0:0:0:
434,234,17606,1,0,1:0:0:0:
434,234,17775,1,0,0:0:0:0:
454,160,17944,2,0,P|472:122|493:96,1,70,0|0,1:0|0:0,0:0:0:0:
438,22,18282,2,0,P|415:65|379:95,1,70,0|0,1:0|0:0,0:0:0:0:
330,117,18620,5,0,1:0:0:0:
271,71,18789,2,0,P|228:58|176:55,1,70,0|0,1:0|1:0,0:0:0:0:
138,105,19127,2,0,P|95:115|24:31,1,140,0|0,1:0|1:0,0:0:0:0:
123,227,19803,2,0,P|180:218|241:274,1,140,0|0,1:0|1:0,0:0:0:0:
227,350,20310,1,0,1:0:0:0:
227,350,20479,1,0,1:0:0:0:
307,317,20649,1,0,1:0:0:0:
307,317,20818,1,0,1:0:0:0:
329,241,20987,1,0,1:0:0:0:
399,201,21156,1,0,1:0:0:0:
473,217,21324,6,0,L|519:236,2,35,0|0|0,1:0|0:0|1:0,0:0:0:0:
454,142,21662,1,0,1:0:0:0:
394,90,21831,2,0,P|319:91|275:152,1,140,0|0,1:0|1:0,0:0:0:0:
249,211,22338,1,0,3:0:0:0:
217,282,22507,2,0,P|148:331|73:317,1,140,0|0,1:0|1:0,0:0:0:0:
24,360,23014,5,0,1:0:0:0:
24,360,23183,1,0,1:0:0:0:
26,279,23352,1,0,1:0:0:0:
26,279,23521,1,0,1:0:0:0:
102,250,23690,1,0,1:0:0:0:
102,250,23859,1,0,1:0:0:0:
256,192,33493,12,0,34845,3:0:0:0:
85,45,35183,6,0,P|58:103|98:174,1,140,2|0,1:2|3:0,0:0:0:0:
165,161,35690,2,0,P|214:182|241:217,1,70,2|0,0:0|1:0,0:0:0:0:
255,269,36028,1,0,0:0:0:0:
334,253,36197,2,0,L|389:238,2,35,0|0|0,3:0|0:0|0:0,0:0:0:0:
314,338,36535,5,2,1:2:0:0:
391,321,36704,1,0,0:0:0:0:
448,261,36873,2,0,P|443:203|428:175,1,70,0|2,0:0|0:0,0:0:0:0:
371,153,37211,2,0,P|359:111|366:69,1,70,0|0,1:0|0:0,0:0:0:0:
439,107,37549,2,0,B|361:107|374:145|290:133,1,140,0|2,3:0|1:2,0:0:0:0:
247,78,38056,2,0,P|201:62|160:66,1,70,0|0,0:0|3:0,0:0:0:0:
126,122,38394,2,0,P|75:137|8:83,1,140,2|0,0:0|0:0,0:0:0:0:
81,60,38902,6,0,L|29:213,1,140,0|2,3:0|1:2,0:0:0:0:
31,272,39409,1,0,0:0:0:0:
80,333,39578,2,0,P|122:354|168:361,1,70,0|2,3:0|0:0,0:0:0:0:
200,304,39916,1,0,1:0:0:0:
275,285,40085,1,0,0:0:0:0:
344,315,40254,6,0,P|363:355|370:397,2,70,0|0|2,3:0|0:0|1:2,0:0:0:0:
341,238,40761,2,0,P|364:187|431:118,1,140,0|2,0:0|0:0,0:0:0:0:
496,147,41268,1,0,1:0:0:0:
479,73,41437,1,0,0:0:0:0:
401,53,41606,2,0,P|332:99|290:165,1,140,0|2,3:0|1:2,0:0:0:0:
263,216,42113,1,0,0:0:0:0:
272,293,42282,2,0,P|206:328|120:329,1,140,0|0,3:0|1:0,0:0:0:0:
74,294,42789,5,0,0:0:0:0:
74,294,42958,2,0,L|24:355,2,70,0|0|2,3:0|0:0|1:2,0:0:0:0:
140,257,43465,2,0,B|139:202|201:179|195:108,1,140,0|2,0:0|0:0,0:0:0:0:
172,52,43972,1,0,1:0:0:0:
250,69,44141,1,0,0:0:0:0:
270,149,44310,2,0,P|326:149|397:89,2,140,2|2|0,3:2|1:2|3:0,0:0:0:0:
204,199,45155,2,0,L|156:184,2,35,0|0|0,1:0|1:0|1:2,0:0:0:0:
250,271,45493,2,0,L|298:287,2,35,0|0|0,1:2|1:0|3:0,0:0:0:0:
181,314,45831,1,0,0:0:0:0:
110,346,46000,2,0,P|67:344|30:329,1,70,2|0,3:2|0:0,0:0:0:0:
84,264,46338,6,0,P|57:224|97:141,1,140,0|0,3:0|1:0,0:0:0:0:
167,140,46845,1,0,0:0:0:0:
133,205,47014,1,0,3:0:0:0:
256,288,47352,1,2,3:2:0:0:
379,205,47690,1,0,3:0:0:0:
345,140,47859,1,0,0:0:0:0:
423,145,48028,2,0,P|457:203|428:264,1,140,0|0,1:0|3:0,0:0:0:0:
354,284,48535,1,0,0:0:0:0:
298,342,48704,6,0,P|268:281|302:223,1,140,2|0,3:2|3:0,0:0:0:0:
380,208,49211,1,0,0:0:0:0:
323,150,49380,2,0,P|259:164|200:241,1,140,0|0,1:0|3:0,0:0:0:0:
183,290,49887,1,0,0:0:0:0:
133,347,50056,2,0,P|86:364|51:364,1,70,2|0,3:2|0:0,0:0:0:0:
78,288,50394,2,0,P|43:267|20:232,1,70,0|0,3:0|0:0,0:0:0:0:
98,213,50733,2,0,P|96:150|116:121,1,70,0|0,1:0|3:0,0:0:0:0:
167,176,51071,6,0,P|206:146|302:137,1,140,4|0,1:0|1:0,0:0:0:0:
365,179,51578,2,0,P|386:138|398:98,2,70,0|0|0,3:0|1:0|3:0,0:0:0:0:
303,238,52085,1,0,1:0:0:0:
228,269,52254,1,0,3:0:0:0:
149,285,52423,2,0,P|120:320|106:361,1,70,0|0,1:0|3:0,0:0:0:0:
58,259,52761,2,0,P|78:216|88:168,1,70,0|0,1:0|3:0,0:0:0:0:
31,129,53099,2,0,P|58:78|147:55,1,140,0|0,1:0|1:0,0:0:0:0:
206,88,53606,1,0,3:0:0:0:
272,42,53775,6,0,L|314:10,2,35,0|0|0,1:0|1:0|1:0,0:0:0:0:
277,120,54113,2,0,L|317:144,2,35,0|0|0,3:0|3:0|3:0,0:0:0:0:
216,170,54451,2,0,L|231:231,2,35,0|0|0,1:0|1:0|1:0,0:0:0:0:
141,149,54789,2,0,L|111:172,2,35,0|0|0,1:0|1:0|1:0,0:0:0:0:
29,186,55127,5,0,1:0:0:0:
29,186,55296,1,0,3:0:0:0:
77,256,55465,1,0,1:0:0:0:
77,256,55634,1,0,3:0:0:0:
159,280,55803,1,0,1:0:0:0:
159,280,55972,1,0,3:0:0:0:
240,260,56141,1,0,1:0:0:0:
240,260,56310,1,0,3:0:0:0:
296,201,56479,5,0,3:2:0:0:
256,192,56817,12,0,58423,0:0:0:0:
64,87,59014,6,0,P|38:125|71:214,1,140,4|0,1:2|3:0,0:0:0:0:
135,244,59521,1,6,1:2:0:0:
194,193,59690,1,0,0:0:0:0:
258,239,59859,2,0,P|300:238|342:227,1,70,2|0,3:2|0:0,0:0:0:0:
377,172,60197,1,2,1:2:0:0:
432,113,60366,2,0,P|453:151|457:194,1,70,0|0,0:0|3:0,0:0:0:0:
512,240,60704,2,0,P|502:281|415:347,1,140
359,301,61211,2,0,L|369:257,2,35,2|0|0,3:2|0:0|0:0,0:0:0:0:
341,381,61549,1,2,1:2:0:0:
284,322,61718,6,0,B|231:295|188:334|134:305,1,140
81,355,62225,2,0,P|67:303|120:232,1,140,2|2,1:2|3:2,0:0:0:0:
188,240,62733,2,0,P|215:217|232:186,1,70,0|2,0:0|1:2,0:0:0:0:
201,107,63071,6,0,P|265:84|346:78,1,140
406,111,63578,1,2,1:2:0:0:
453,174,63747,1,0,0:0:0:0:
476,247,63916,2,0,L|468:298,2,35,2|0|0,3:2|0:0|3:0,0:0:0:0:
400,242,64254,2,0,P|358:232|320:211,1,70,2|0,1:2|3:0,0:0:0:0:
283,149,64592,6,0,P|253:211|253:229,1,70,0|0,3:0|0:0,0:0:0:0:
289,288,64930,2,0,P|265:318|163:328,1,140,6|2,1:2|3:2,0:0:0:0:
121,266,65437,1,0,0:0:0:0:
90,354,65606,1,2,1:2:0:0:
45,283,65775,2,0,L|-9:257,2,35,0|0|0,0:0|0:0|3:0,0:0:0:0:
62,201,66113,5,0,0:0:0:0:
140,175,66282,2,0,P|161:141|173:98,1,70,2|0,1:2|0:0,0:0:0:0:
266,73,66620,2,0,P|248:126|245:171,1,70,2|0,3:2|0:0,0:0:0:0:
285,218,66958,2,0,P|318:232|358:238,1,70,2|0,1:2|0:0,0:0:0:0:
427,202,67296,6,0,P|454:252|414:329,1,140,0|2,0:0|1:2,0:0:0:0:
351,364,67803,1,0,0:0:0:0:
276,304,67972,2,0,L|226:321,2,35,2|0|0,3:2|0:0|1:0,0:0:0:0:
331,243,68310,1,2,1:2:0:0:
250,224,68479,1,0,1:0:0:0:
171,258,68648,2,0,P|131:248|93:224,1,70,0|0,0:0|3:0,0:0:0:0:
165,172,68986,2,0,P|188:130|191:87,1,70,6|0,1:2|0:0,0:0:0:0:
105,115,69324,2,0,P|56:126|23:213,1,140,2|2,3:2|1:2,0:0:0:0:
1,278,69831,6,0,P|75:301|119:372,1,140,0|0,3:0|3:2,0:0:0:0:
195,378,70338,2,0,P|233:360|269:330,1,70,6|0,1:2|0:0,0:0:0:0:
294,264,70676,2,0,L|335:242,2,35,2|0|0,3:2|0:0|0:0,0:0:0:0:
215,237,71014,2,0,P|183:197|172:163,1,70,2|0,1:2|0:0,0:0:0:0:
260,160,71352,6,0,P|285:105|281:13,1,140,0|2,3:0|1:2,0:0:0:0:
203,81,71859,1,0,0:0:0:0:
128,116,72028,2,0,P|86:122|40:116,2,70,2|0|2,3:2|0:0|1:2,0:0:0:0:
169,189,72535,2,0,P|222:211|228:292,1,140
276,348,73042,2,0,P|310:366|355:375,1,70,2|0,1:2|0:0,0:0:0:0:
345,294,73380,2,0,P|392:279|420:252,1,70,2|0,3:2|0:0,0:0:0:0:
442,187,73718,1,2,1:2:0:0:
358,207,73887,2,0,P|310:185|269:102,1,140
356,117,74394,2,0,P|317:157|213:168,1,140,2|2,1:2|3:2,0:0:0:0:
177,111,74902,6,0,L|187:64,2,35,0|0|2,3:0|3:0|1:2,0:0:0:0:
109,170,75240,2,0,L|99:214,2,35,0|0|0,3:0|3:0|3:0,0:0:0:0:
56,101,75578,1,0,0:0:0:0:
14,186,75747,2,0,P|22:241|94:292,1,140,6|2,1:2|3:2,0:0:0:0:
161,255,76254,1,0,0:0:0:0:
183,175,76423,2,0,P|246:174|309:232,1,140,2|0,1:2|3:0,0:0:0:0:
326,302,76930,1,0,0:0:0:0:
338,380,77099,2,0,P|396:378|440:367,1,70,2|0,1:2|0:0,0:0:0:0:
487,296,77437,6,0,P|448:299|408:296,1,70,2|0,3:2|0:0,0:0:0:0:
387,220,77775,1,2,1:2:0:0:
384,139,77944,2,0,P|323:127|239:165,1,140
197,210,78451,1,2,1:2:0:0:
194,289,78620,1,0,0:0:0:0:
256,337,78789,2,0,L|301:371,2,35,2|0|0,3:2|0:0|0:0,0:0:0:0:
181,369,79127,5,2,1:2:0:0:
114,320,79296,2,0,P|71:274|69:172,1,140,4|0,0:0|0:0,0:0:0:0:
89,123,79803,1,2,1:2:0:0:
89,123,79972,1,0,0:0:0:0:
142,193,80141,1,2,3:2:0:0:
142,193,80310,1,0,0:0:0:0:
170,120,80479,6,0,L|253:69,1,70,2|2,1:2|3:2,0:0:0:0:
256,192,82169,12,0,83521,3:0:0:0:
