osu file format v14

[General]
AudioFilename: audio.mp3
AudioLeadIn: 0
PreviewTime: -1
Countdown: 1
SampleSet: Normal
StackLeniency: 0.7
Mode: 0
LetterboxInBreaks: 0
WidescreenStoryboard: 1

[Editor]
Bookmarks: 13748,21860,34500,42951,47387,50768,54148
DistanceSpacing: 1
BeatDivisor: 4
GridSize: 32
TimelineZoom: 1.199999

[Metadata]
Title:Only my railgun
TitleUnicode:Only my railgun
Artist:fripSide
ArtistUnicode:fripSide
Creator:Rin Adler
Version:Normal
Source:
Tags:
BeatmapID:1319524
BeatmapSetID:625973

[Difficulty]
HPDrainRate:5
CircleSize:5
OverallDifficulty:5
ApproachRate:9
SliderMultiplier:1.7
SliderTickRate:4

[Events]
//Background and Video events
0,0,"91b90e63d07a93fecb834c7018589552a9cd02b5_hq.jpg",0,0
//Break Periods
2,157393,184704
//Storyboard Layer 0 (Background)
//Storyboard Layer 1 (Fail)
//Storyboard Layer 2 (Pass)
//Storyboard Layer 3 (Foreground)
//Storyboard Sound Samples

[TimingPoints]
2437.83916083916,419.58041958042,4,1,0,100,1,0
13490,-66.6666666666667,4,1,0,100,0,0
20818,-76.9230769230769,4,1,0,100,0,0
24182,-66.6666666666667,4,1,0,100,0,0
25983,-100,4,1,0,100,0,0
34281,-133.333333333333,4,1,0,100,0,0
40947,-100,4,1,0,100,0,0
47681,-66.6666666666667,4,1,0,100,0,0
50237.9285714286,-100,4,1,0,100,0,0
50946,-100,4,1,0,100,0,0
54379,-66.6666666666667,4,1,0,100,0,0
62845,-62.5,4,1,0,100,0,0
66077,-66.6666666666667,4,1,0,100,0,0
76145,-58.8235294117647,4,1,0,100,0,0
89610,-100,4,1,0,100,0,0
96308,-133.333333333333,4,1,0,100,0,0
103038,-100,4,1,0,100,0,0
109705,-76.9230769230769,4,1,0,100,0,0
116505,-100,4,1,0,100,0,0
124902,-71.4285714285714,4,1,0,100,0,0
131635,-66.6666666666667,4,1,0,100,0,0
138235,-66.6666666666667,4,1,0,100,0,0
145036,-55.5555555555556,4,1,0,100,0,0
149166,-66.6666666666667,4,1,0,100,0,0
156982,-100,4,1,0,100,0,0
170232,-133.333333333333,4,1,0,100,0,0
180231,-100,4,1,0,100,0,0
185331,-133.333333333333,4,1,0,100,0,0
198732,-100,4,1,0,100,0,0
207095,-83.3333333333333,4,1,0,100,0,0
212095,-66.6666666666667,4,1,0,100,0,0
218829,-62.5,4,1,0,100,0,0
222127,-66.6666666666667,4,1,0,100,0,0
225493,-66.6666666666667,4,1,0,100,0,0
232291,-52.6315789473684,4,1,0,100,0,0
235657,-66.6666666666667,4,1,0,100,0,0
238954,-66.6666666666667,4,1,0,100,0,0
240722,-100,4,1,0,100,0,0
243952,-66.6666666666667,4,1,0,100,0,0

[HitObjects]
48,48,13556,6,0,L|240:48,1,191.250007295609
313,97,13976,1,0,0:0:0:0:
337,202,14081,1,0,0:0:0:0:
253,298,14186,1,0,0:0:0:0:
122,298,14290,1,0,0:0:0:0:
121,204,14500,2,0,P|120:138|120:204,1,191.250007295609
218,199,15025,2,0,B|369:197|225:200,2,127.500004863739
153,200,15654,1,0,0:0:0:0:
50,116,15864,1,0,0:0:0:0:
225,65,16074,1,0,0:0:0:0:
411,75,16283,5,0,0:0:0:0:
470,232,16493,1,0,0:0:0:0:
255,328,16703,1,0,0:0:0:0:
61,243,16913,1,0,0:0:0:0:
88,47,17123,1,0,0:0:0:0:
296,47,17332,1,0,0:0:0:0:
391,197,17542,1,0,0:0:0:0:
317,285,17752,2,0,B|176:336|384:252,1,191.250007295609
347,200,18172,2,0,P|290:79|282:107,1,382.500014591218
258,122,18906,6,0,P|207:175|174:124,1,127.500004863739
246,35,19221,2,0,P|347:43|349:108,1,127.500004863739
328,234,19535,2,0,P|220:269|201:187,1,191.250007295609
150,132,19955,2,0,P|166:46|325:78,1,255.000009727478
326,183,20479,2,0,B|217:323|316:194,2,127.500004863739
365,124,21004,2,0,B|438:29|163:154,1,220.999989883423
146,166,21528,1,0,0:0:0:0:
146,166,21633,1,0,0:0:0:0:
146,166,21738,1,0,0:0:0:0:
146,166,21843,6,0,P|288:240|176:240,1,441.999979766847
190,249,22857,1,0,0:0:0:0:
190,249,22927,1,0,0:0:0:0:
190,249,22997,1,0,0:0:0:0:
198,256,23102,2,0,B|422:256|222:259,1,165.749992412568
403,184,23521,2,0,L|446:40,1,110.499994941712
371,52,23836,6,0,L|216:67,1,110.499994941712
204,97,24151,1,0,0:0:0:0:
136,145,24256,1,0,0:0:0:0:
92,226,24360,1,0,0:0:0:0:
171,299,24465,1,0,0:0:0:0:
326,288,24570,1,0,0:0:0:0:
401,170,24675,1,0,0:0:0:0:
390,52,24780,1,0,0:0:0:0:
242,57,24885,1,0,0:0:0:0:
97,57,24990,1,0,0:0:0:0:
85,170,25200,2,0,L|232:168,1,127.500004863739
454,164,25514,6,0,L|250:169,1,191.250007295609
202,99,25934,1,0,0:0:0:0:
88,168,26039,1,0,0:0:0:0:
167,272,26144,1,0,0:0:0:0:
295,271,26249,1,0,0:0:0:0:
377,167,26353,1,0,0:0:0:0:
322,59,26458,1,0,0:0:0:0:
197,56,26563,1,0,0:0:0:0:
141,92,26668,1,0,0:0:0:0:
97,138,26773,1,0,0:0:0:0:
97,202,26878,5,0,0:0:0:0:
153,224,26983,1,0,0:0:0:0:
207,188,27088,1,0,0:0:0:0:
255,142,27193,1,0,0:0:0:0:
330,137,27297,1,0,0:0:0:0:
352,226,27402,1,0,0:0:0:0:
253,323,27507,1,0,0:0:0:0:
66,313,27612,1,0,0:0:0:0:
67,151,27717,1,0,0:0:0:0:
134,150,27822,2,0,L|339:149,1,170
314,159,28556,6,0,L|139:159,1,170
256,192,29290,12,0,30864,0:0:0:0:
43,67,31074,6,0,L|155:178,1,127.5
296,173,31493,2,0,L|183:42,1,170
326,37,32018,2,0,L|465:182,1,170
468,272,32542,2,0,L|277:272,1,170
67,189,33067,2,0,L|253:186,1,170
263,96,33591,2,0,P|146:84|153:258,1,297.5
161,282,34430,1,0,0:0:0:0:
223,284,34640,6,0,B|363:285|225:284,2,127.500004863739
161,269,35584,1,0,0:0:0:0:
116,220,35689,1,0,0:0:0:0:
93,158,35794,1,0,0:0:0:0:
105,93,35899,1,0,0:0:0:0:
162,59,36004,1,0,0:0:0:0:
217,69,36109,2,0,L|344:69,1,127.500004863739
338,137,36738,2,0,L|228:237,1,127.500004863739
158,198,37263,2,0,L|88:82,1,127.500004863739
177,99,37787,6,0,L|317:101,1,127.500004863739
298,185,38311,2,0,L|172:287,1,159.375006079674
58,136,38941,1,0,0:0:0:0:
141,91,39046,1,0,0:0:0:0:
246,68,39151,1,0,0:0:0:0:
312,68,39256,1,0,0:0:0:0:
389,127,39360,1,0,0:0:0:0:
369,193,39465,2,0,L|274:263,1,95.6250036478044
230,283,39885,2,0,L|120:295,1,95.6250036478044
83,162,40304,6,0,L|172:93,1,95.6250036478044
252,110,40724,1,0,0:0:0:0:
444,67,40829,1,0,0:0:0:0:
271,298,40934,1,0,0:0:0:0:
492,266,41039,1,0,0:0:0:0:
484,202,41249,2,0,B|316:89|346:127,1,170
311,159,41773,2,0,P|250:213|202:123,1,212.5
255,99,42402,2,0,P|346:66|379:131,1,170
316,118,42927,6,0,B|269:261|349:3,1,212.5
290,32,43661,1,0,0:0:0:0:
40,94,43871,1,0,0:0:0:0:
188,266,44081,1,0,0:0:0:0:
293,129,44290,1,0,0:0:0:0:
131,86,44500,1,0,0:0:0:0:
71,285,44710,1,0,0:0:0:0:
136,285,44920,6,0,B|405:236|58:298,1,297.5
62,232,45864,2,0,L|116:112,1,127.5
158,88,46388,2,0,L|339:93,1,170
371,126,47018,2,0,L|468:264,1,127.5
414,274,47542,6,0,L|85:287,1,297.5
96,208,48486,2,0,P|64:128|112:128,1,127.500004863739
144,112,48801,1,0,0:0:0:0:
256,256,49011,1,0,0:0:0:0:
400,160,49221,1,0,0:0:0:0:
400,160,49430,2,0,P|448:96|416:80,1,127.500004863739
416,64,49850,2,0,L|272:64,1,127.500004863739
77,70,50270,6,0,L|406:68,1,297.5
48,176,51109,2,0,P|208:176|192:208,1,297.5
112,288,51948,1,0,0:0:0:0:
304,272,52158,1,0,0:0:0:0:
416,112,52472,1,0,0:0:0:0:
128,64,52787,1,0,0:0:0:0:
128,144,52997,2,0,L|32:192,1,85
51,182,53311,2,0,L|144:272,1,127.5
143,271,53731,2,0,L|224:208,1,85
208,208,54046,6,0,B|144:128|192:192,2,85
208,208,54675,2,0,P|416:208|240:208,1,382.500014591218
144,160,55409,1,0,0:0:0:0:
320,96,55619,1,0,0:0:0:0:
432,256,55934,1,0,0:0:0:0:
224,336,56144,1,0,0:0:0:0:
144,160,56353,1,0,0:0:0:0:
320,96,56563,1,0,0:0:0:0:
432,256,56773,1,0,0:0:0:0:
224,336,56983,1,0,0:0:0:0:
176,288,57193,1,0,0:0:0:0:
160,224,57297,1,0,0:0:0:0:
160,160,57402,1,0,0:0:0:0:
192,112,57507,1,0,0:0:0:0:
240,80,57612,1,0,0:0:0:0:
304,96,57717,5,0,0:0:0:0:
320,160,57822,1,0,0:0:0:0:
272,208,57927,1,0,0:0:0:0:
208,224,58032,1,0,0:0:0:0:
192,160,58137,1,0,0:0:0:0:
208,96,58242,1,0,0:0:0:0:
144,96,58346,1,0,0:0:0:0:
96,144,58451,1,0,0:0:0:0:
112,208,58556,1,0,0:0:0:0:
144,256,58661,1,0,0:0:0:0:
192,288,58766,1,0,0:0:0:0:
256,272,58871,1,0,0:0:0:0:
288,224,58976,1,0,0:0:0:0:
304,160,59081,1,0,0:0:0:0:
272,64,59290,2,0,L|96:64,1,127.500004863739
128,160,59710,2,0,L|320:160,1,191.250007295609
410,67,60235,2,0,P|337:140|257:156,1,127.500004863739
218,88,60549,2,0,L|51:248,1,191.250007295609
64,301,61074,5,0,0:0:0:0:
86,245,61179,2,0,L|112:172,1,63.7500024318696
129,101,61388,1,0,0:0:0:0:
177,148,61493,2,0,L|276:248,1,127.500004863739
306,275,61808,1,0,0:0:0:0:
393,182,62018,2,0,L|283:180,3,63.7500024318696
347,91,62542,1,0,0:0:0:0:
174,69,62647,1,0,0:0:0:0:
42,204,62752,1,0,0:0:0:0:
155,311,62857,1,0,0:0:0:0:
361,313,62962,1,0,0:0:0:0:
454,190,63067,1,0,0:0:0:0:
358,190,63277,6,0,B|118:193|482:191,1,272
212,195,63906,2,0,B|22:197|377:194,1,272
212,195,64430,2,0,B|212:8|209:350,1,272
212,195,64955,2,0,B|503:201|7:197,2,408
106,147,66318,2,0,L|360:151,1,255.000009727478
352,288,67053,5,0,0:0:0:0:
352,64,67263,1,0,0:0:0:0:
96,64,67472,1,0,0:0:0:0:
96,288,67682,1,0,0:0:0:0:
352,288,67892,1,0,0:0:0:0:
352,64,68102,1,0,0:0:0:0:
96,64,68311,1,0,0:0:0:0:
96,288,68521,1,0,0:0:0:0:
288,224,68731,1,0,0:0:0:0:
288,96,68941,1,0,0:0:0:0:
160,96,69151,1,0,0:0:0:0:
160,224,69360,1,0,0:0:0:0:
288,224,69570,1,0,0:0:0:0:
288,96,69780,1,0,0:0:0:0:
160,96,69990,1,0,0:0:0:0:
160,224,70200,1,0,0:0:0:0:
256,192,70409,1,0,0:0:0:0:
256,128,70619,1,0,0:0:0:0:
192,128,70829,1,0,0:0:0:0:
192,192,71039,1,0,0:0:0:0:
256,192,71249,1,0,0:0:0:0:
256,128,71458,1,0,0:0:0:0:
192,128,71668,1,0,0:0:0:0:
192,192,71878,1,0,0:0:0:0:
288,224,72088,1,0,0:0:0:0:
288,96,72297,1,0,0:0:0:0:
160,96,72507,1,0,0:0:0:0:
160,224,72717,1,0,0:0:0:0:
352,288,72927,1,0,0:0:0:0:
352,64,73137,1,0,0:0:0:0:
96,64,73347,1,0,0:0:0:0:
96,288,73556,1,0,0:0:0:0:
256,288,73766,1,0,0:0:0:0:
352,192,73976,1,0,0:0:0:0:
256,96,74186,1,0,0:0:0:0:
160,192,74395,1,0,0:0:0:0:
256,320,74605,1,0,0:0:0:0:
384,192,74815,1,0,0:0:0:0:
256,64,75025,1,0,0:0:0:0:
128,192,75235,1,0,0:0:0:0:
256,352,75444,1,0,0:0:0:0:
448,192,75654,1,0,0:0:0:0:
256,32,75864,1,0,0:0:0:0:
64,192,76074,1,0,0:0:0:0:
256,192,76283,5,0,0:0:0:0:
64,32,76388,2,0,L|160:32,1,72.2500013780594
64,96,76703,2,0,L|160:96,1,72.2500013780594
64,160,77018,2,0,L|160:160,1,72.2500013780594
192,32,77332,2,0,P|192:256|512:256,1,578.000011024475
480,224,78277,2,0,P|256:224|256:128,2,361.250006890297
320,64,79430,1,0,0:0:0:0:
320,64,79483,1,0,0:0:0:0:
320,64,79535,1,0,0:0:0:0:
320,64,79640,2,0,L|96:64,1,216.750004134178
96,128,80060,6,0,L|320:128,1,216.750004134178
320,192,80479,2,0,L|64:192,1,216.750004134178
256,192,80899,12,0,81738,0:0:0:0:
32,32,81843,6,0,B|32:352|416:0,1,505.750009646416
384,32,82682,1,0,0:0:0:0:
337,66,82787,1,0,0:0:0:0:
286,103,82892,1,0,0:0:0:0:
234,139,82997,1,0,0:0:0:0:
183,167,83102,1,0,0:0:0:0:
126,185,83207,1,0,0:0:0:0:
67,166,83311,1,0,0:0:0:0:
40,115,83416,1,0,0:0:0:0:
32,52,83521,1,0,0:0:0:0:
96,64,83626,6,0,L|192:64,2,144.500002756119
96,128,84151,2,0,P|320:128|128:128,2,361.250006890297
32,96,85304,2,0,L|128:0,1,72.2500013780594
64,128,85514,2,0,L|128:64,1,72.2500013780594
96,160,85724,2,0,L|160:96,1,72.2500013780594
128,192,85934,2,0,L|192:128,1,72.2500013780594
160,224,86144,2,0,L|224:160,1,72.2500013780594
192,256,86353,2,0,L|256:192,1,72.2500013780594
224,288,86563,2,0,L|288:224,1,72.2500013780594
256,320,86773,2,0,L|320:256,1,72.2500013780594
480,384,86983,2,0,L|0:0,3,578.000011024475
32,160,89605,6,0,L|192:160,1,216.750004134178
256,160,90025,2,0,P|384:160|288:160,1,212.5
256,160,90654,2,0,L|192:160,1,42.5
128,128,90864,1,0,0:0:0:0:
128,64,90969,1,0,0:0:0:0:
192,64,91074,1,0,0:0:0:0:
256,64,91179,2,0,L|352:64,1,85
384,64,91493,1,0,0:0:0:0:
384,128,91598,1,0,0:0:0:0:
288,192,91703,1,0,0:0:0:0:
160,192,91808,1,0,0:0:0:0:
160,96,91913,1,0,0:0:0:0:
288,96,92018,1,0,0:0:0:0:
288,192,92123,1,0,0:0:0:0:
160,192,92228,1,0,0:0:0:0:
160,288,92332,1,0,0:0:0:0:
288,288,92437,1,0,0:0:0:0:
352,288,92542,1,0,0:0:0:0:
352,224,92647,1,0,0:0:0:0:
352,160,92752,1,0,0:0:0:0:
352,128,92857,1,0,0:0:0:0:
352,96,92962,1,0,0:0:0:0:
352,64,93067,1,0,0:0:0:0:
320,64,93172,1,0,0:0:0:0:
288,64,93277,1,0,0:0:0:0:
256,64,93381,1,0,0:0:0:0:
224,64,93486,1,0,0:0:0:0:
160,64,93591,1,0,0:0:0:0:
64,64,93696,1,0,0:0:0:0:
64,192,93801,1,0,0:0:0:0:
64,352,93906,1,0,0:0:0:0:
256,352,94011,1,0,0:0:0:0:
448,352,94116,1,0,0:0:0:0:
448,192,94221,1,0,0:0:0:0:
384,192,94325,2,0,P|192:192|352:192,1,340
64,64,95270,1,0,0:0:0:0:
64,320,95374,1,0,0:0:0:0:
416,320,95479,1,0,0:0:0:0:
416,64,95584,1,0,0:0:0:0:
64,64,95689,1,0,0:0:0:0:
64,320,95794,1,0,0:0:0:0:
64,320,95899,6,0,L|256:192,1,212.5
384,96,96528,1,0,0:0:0:0:
128,96,96633,1,0,0:0:0:0:
128,320,96738,1,0,0:0:0:0:
384,320,96843,1,0,0:0:0:0:
384,96,96948,1,0,0:0:0:0:
320,128,97053,2,0,P|256:160|224:96,1,159.375006079674
224,96,97682,1,0,0:0:0:0:
448,96,97787,1,0,0:0:0:0:
224,96,97892,1,0,0:0:0:0:
32,96,97997,1,0,0:0:0:0:
224,96,98102,1,0,0:0:0:0:
224,96,98207,6,0,L|224:224,1,127.500004863739
320,224,98626,2,0,L|320:192,1,31.8750012159348
320,96,98836,2,0,L|320:128,1,31.8750012159348
256,160,99046,2,0,L|192:160,1,63.7500024318696
384,160,99360,2,0,L|448:160,1,63.7500024318696
320,160,99675,2,0,P|192:160|192:96,1,223.125008511544
256,64,100514,2,0,B|384:64|160:96,1,191.250007295609
96,128,101249,6,0,P|96:256|96:96,1,286.875010943413
96,96,102297,1,0,0:0:0:0:
160,64,102402,2,0,P|256:64|224:96,1,223.125008511544
192,160,103242,6,0,B|32:192|384:96,1,297.5
448,160,104081,1,0,0:0:0:0:
448,256,104186,1,0,0:0:0:0:
352,256,104290,1,0,0:0:0:0:
256,256,104395,1,0,0:0:0:0:
160,256,104500,2,0,L|160:192,1,85
160,128,104815,2,0,B|160:64|256:64|256:128,1,127.5
256,160,105235,1,0,0:0:0:0:
256,224,105339,1,0,0:0:0:0:
320,224,105444,1,0,0:0:0:0:
320,160,105549,2,0,L|320:32,1,127.5
256,32,105969,6,0,L|32:32,1,212.5
32,96,106598,2,0,L|256:96,1,212.5
320,96,107228,1,0,0:0:0:0:
320,160,107332,1,0,0:0:0:0:
320,224,107437,1,0,0:0:0:0:
192,224,107542,1,0,0:0:0:0:
64,224,107647,1,0,0:0:0:0:
64,96,107752,1,0,0:0:0:0:
192,96,107857,1,0,0:0:0:0:
320,96,107962,1,0,0:0:0:0:
384,96,108067,6,0,P|384:288|256:288,1,340
224,256,109011,2,0,L|192:224,1,42.5
96,128,109221,2,0,L|128:96,1,42.5
288,64,109430,2,0,L|352:64,1,42.5
384,160,109640,2,0,L|384:224,1,42.5
384,320,109850,2,0,P|256:320|256:192,1,276.249987354279
256,192,110479,6,0,P|96:192|128:64,1,331.499984825135
192,64,111214,1,0,0:0:0:0:
256,128,111318,1,0,0:0:0:0:
320,192,111423,1,0,0:0:0:0:
384,256,111528,1,0,0:0:0:0:
384,64,111633,1,0,0:0:0:0:
160,288,111738,1,0,0:0:0:0:
160,96,111843,1,0,0:0:0:0:
352,192,111948,1,0,0:0:0:0:
96,224,112053,1,0,0:0:0:0:
256,96,112158,1,0,0:0:0:0:
288,288,112263,1,0,0:0:0:0:
384,160,112367,1,0,0:0:0:0:
320,160,112472,2,0,L|64:160,1,220.999989883423
96,96,112997,2,0,L|320:96,1,220.999989883423
288,32,113521,6,0,L|448:128,1,165.749992412568
128,64,113941,2,0,L|64:96,1,55.2499974708558
160,256,114151,2,0,L|224:192,1,55.2499974708558
224,96,114360,2,0,L|288:64,1,55.2499974708558
96,160,114570,2,0,L|32:192,1,55.2499974708558
192,192,114780,2,0,L|256:256,1,55.2499974708558
384,192,114990,2,0,L|416:128,1,55.2499974708558
320,128,115200,2,0,L|256:160,1,55.2499974708558
96,96,115409,2,0,L|160:64,1,55.2499974708558
288,32,115619,2,0,L|352:64,1,55.2499974708558
384,96,115829,1,0,0:0:0:0:
384,128,115934,1,0,0:0:0:0:
384,160,116039,1,0,0:0:0:0:
384,192,116144,1,0,0:0:0:0:
384,224,116249,1,0,0:0:0:0:
384,256,116353,1,0,0:0:0:0:
384,288,116458,1,0,0:0:0:0:
352,288,116563,1,0,0:0:0:0:
288,288,116668,6,0,L|128:288,1,127.5
160,224,117088,1,0,0:0:0:0:
320,128,117297,1,0,0:0:0:0:
64,96,117507,1,0,0:0:0:0:
288,256,117717,1,0,0:0:0:0:
128,288,117927,2,0,L|32:288,1,85
32,224,118242,2,0,P|224:224|160:224,1,255
96,160,118976,6,0,L|192:64,1,127.5
288,64,119395,2,0,L|416:160,1,127.5
288,160,119815,1,0,0:0:0:0:
64,32,119920,1,0,0:0:0:0:
64,288,120025,1,0,0:0:0:0:
288,160,120130,1,0,0:0:0:0:
352,32,120235,2,0,L|352:352,1,297.5
128,32,121074,2,0,L|64:64,1,42.5
89,51,121283,2,0,L|128:32,1,42.5
128,32,121493,2,0,L|64:64,1,42.5
96,64,121703,6,0,L|320:320,1,340
256,192,122647,12,0,123906,0:0:0:0:
96,96,124168,5,0,0:0:0:0:
96,96,124221,5,0,0:0:0:0:
96,96,124273,1,0,0:0:0:0:
96,320,124378,1,0,0:0:0:0:
96,320,124430,1,0,0:0:0:0:
96,320,124483,1,0,0:0:0:0:
320,96,124588,1,0,0:0:0:0:
320,96,124640,1,0,0:0:0:0:
320,96,124693,1,0,0:0:0:0:
416,320,124797,1,0,0:0:0:0:
416,320,124850,1,0,0:0:0:0:
416,320,124902,1,0,0:0:0:0:
32,192,125007,1,0,0:0:0:0:
32,192,125060,1,0,0:0:0:0:
32,192,125112,1,0,0:0:0:0:
384,160,125217,1,0,0:0:0:0:
384,160,125270,1,0,0:0:0:0:
384,160,125322,1,0,0:0:0:0:
192,320,125427,1,0,0:0:0:0:
192,320,125479,1,0,0:0:0:0:
192,320,125532,1,0,0:0:0:0:
96,96,125637,1,0,0:0:0:0:
96,96,125689,1,0,0:0:0:0:
96,96,125742,1,0,0:0:0:0:
320,96,125846,1,0,0:0:0:0:
320,96,125899,1,0,0:0:0:0:
320,96,125951,1,0,0:0:0:0:
160,256,126056,1,0,0:0:0:0:
160,256,126109,1,0,0:0:0:0:
160,256,126161,1,0,0:0:0:0:
384,256,126266,1,0,0:0:0:0:
384,256,126318,1,0,0:0:0:0:
384,256,126371,1,0,0:0:0:0:
256,128,126476,1,0,0:0:0:0:
256,128,126528,1,0,0:0:0:0:
256,128,126581,1,0,0:0:0:0:
96,128,126686,1,0,0:0:0:0:
96,128,126738,1,0,0:0:0:0:
96,128,126790,1,0,0:0:0:0:
96,256,126895,1,0,0:0:0:0:
96,256,126948,1,0,0:0:0:0:
96,256,127000,1,0,0:0:0:0:
256,256,127105,1,0,0:0:0:0:
256,256,127158,1,0,0:0:0:0:
256,256,127210,1,0,0:0:0:0:
384,128,127315,1,0,0:0:0:0:
384,128,127367,1,0,0:0:0:0:
384,128,127420,1,0,0:0:0:0:
224,32,127525,1,0,0:0:0:0:
224,32,127577,1,0,0:0:0:0:
224,32,127630,1,0,0:0:0:0:
96,128,127735,1,0,0:0:0:0:
96,128,127787,1,0,0:0:0:0:
96,128,127839,1,0,0:0:0:0:
224,256,127944,1,0,0:0:0:0:
224,256,127997,1,0,0:0:0:0:
224,256,128049,1,0,0:0:0:0:
384,128,128154,1,0,0:0:0:0:
384,128,128207,1,0,0:0:0:0:
384,128,128259,1,0,0:0:0:0:
96,128,128364,1,0,0:0:0:0:
96,128,128416,1,0,0:0:0:0:
96,128,128469,1,0,0:0:0:0:
224,32,128574,1,0,0:0:0:0:
224,32,128626,1,0,0:0:0:0:
224,32,128679,1,0,0:0:0:0:
224,256,128783,1,0,0:0:0:0:
224,256,128836,1,0,0:0:0:0:
224,256,128888,1,0,0:0:0:0:
384,128,128993,1,0,0:0:0:0:
384,128,129046,1,0,0:0:0:0:
384,128,129098,1,0,0:0:0:0:
96,128,129203,1,0,0:0:0:0:
96,128,129256,1,0,0:0:0:0:
96,128,129308,1,0,0:0:0:0:
384,256,129413,1,0,0:0:0:0:
384,256,129465,1,0,0:0:0:0:
384,256,129518,1,0,0:0:0:0:
96,256,129623,1,0,0:0:0:0:
96,256,129675,1,0,0:0:0:0:
96,256,129728,1,0,0:0:0:0:
384,64,129832,1,0,0:0:0:0:
384,64,129885,1,0,0:0:0:0:
384,64,129937,1,0,0:0:0:0:
128,64,130042,1,0,0:0:0:0:
128,64,130095,1,0,0:0:0:0:
128,64,130147,1,0,0:0:0:0:
384,256,130252,1,0,0:0:0:0:
384,256,130304,1,0,0:0:0:0:
384,256,130357,1,0,0:0:0:0:
128,256,130462,1,0,0:0:0:0:
128,256,130514,1,0,0:0:0:0:
128,256,130567,1,0,0:0:0:0:
384,64,130672,1,0,0:0:0:0:
384,64,130724,1,0,0:0:0:0:
384,64,130777,1,0,0:0:0:0:
128,64,130881,1,0,0:0:0:0:
128,64,130934,1,0,0:0:0:0:
128,64,130986,1,0,0:0:0:0:
384,256,131091,1,0,0:0:0:0:
384,256,131144,1,0,0:0:0:0:
384,256,131196,1,0,0:0:0:0:
128,256,131301,1,0,0:0:0:0:
128,256,131353,1,0,0:0:0:0:
128,256,131406,1,0,0:0:0:0:
256,192,131511,1,0,0:0:0:0:
256,192,131563,1,0,0:0:0:0:
256,192,131616,1,0,0:0:0:0:
256,192,131668,1,0,0:0:0:0:
32,64,131773,6,0,P|160:64|64:64,1,191.250007295609
224,64,132193,1,0,0:0:0:0:
320,64,132297,1,0,0:0:0:0:
384,64,132402,1,0,0:0:0:0:
448,64,132507,1,0,0:0:0:0:
448,128,132612,2,0,L|320:128,1,127.500004863739
224,128,132927,2,0,L|224:64,1,63.7500024318696
192,32,133137,1,0,0:0:0:0:
160,64,133242,2,0,L|160:128,1,63.7500024318696
160,192,133451,2,0,L|384:192,1,191.250007295609
416,64,133871,2,0,P|288:64|288:128,1,191.250007295609
352,128,134290,2,0,P|352:224|224:256,1,191.250007295609
256,192,134710,2,0,P|256:128|192:128,1,127.500004863739
160,192,135025,6,0,P|160:256|224:256,1,127.500004863739
352,160,135339,2,0,L|288:128,1,63.7500024318696
192,96,135549,1,0,0:0:0:0:
32,224,135654,1,0,0:0:0:0:
224,288,135759,1,0,0:0:0:0:
352,160,135864,1,0,0:0:0:0:
192,96,135969,1,0,0:0:0:0:
32,224,136074,1,0,0:0:0:0:
224,288,136179,1,0,0:0:0:0:
352,160,136283,1,0,0:0:0:0:
192,96,136388,2,0,L|224:288,1,191.250007295609
352,160,136808,6,0,L|32:224,1,318.750012159348
96,160,137437,2,0,L|96:96,3,63.7500024318696
224,64,137804,1,0,0:0:0:0:
224,64,137857,1,0,0:0:0:0:
224,64,137909,1,0,0:0:0:0:
224,64,137962,2,0,L|416:64,1,191.250007295609
64,128,138381,1,0,0:0:0:0:
64,128,138434,1,0,0:0:0:0:
64,128,138486,6,0,L|64:224,1,63.7500024318696
64,288,138644,1,0,0:0:0:0:
64,288,138696,1,0,0:0:0:0:
64,288,138749,1,0,0:0:0:0:
64,288,138801,2,0,L|192:320,1,127.500004863739
256,224,139063,1,0,0:0:0:0:
256,224,139116,1,0,0:0:0:0:
256,224,139168,1,0,0:0:0:0:
256,224,139221,2,0,L|192:160,1,63.7500024318696
128,64,139430,1,0,0:0:0:0:
128,64,139483,1,0,0:0:0:0:
128,64,139535,1,0,0:0:0:0:
128,64,139640,2,0,L|288:64,1,127.500004863739
320,64,139955,2,0,L|416:192,1,127.500004863739
128,64,140270,5,0,0:0:0:0:
0,192,140374,1,0,0:0:0:0:
128,320,140479,1,0,0:0:0:0:
224,288,140584,2,0,L|288:224,1,63.7500024318696
224,96,140794,2,0,L|160:160,1,63.7500024318696
352,160,141004,2,0,L|416:96,1,63.7500024318696
416,256,141214,2,0,L|352:320,1,63.7500024318696
192,128,141423,2,0,L|256:64,1,63.7500024318696
256,256,141633,2,0,L|192:320,1,63.7500024318696
352,160,141843,2,0,L|416:96,1,63.7500024318696
256,256,142053,1,0,0:0:0:0:
192,128,142158,1,0,0:0:0:0:
352,160,142263,1,0,0:0:0:0:
416,256,142367,5,0,0:0:0:0:
256,256,142472,1,0,0:0:0:0:
192,128,142577,1,0,0:0:0:0:
352,160,142682,1,0,0:0:0:0:
256,256,142787,1,0,0:0:0:0:
416,256,142892,1,0,0:0:0:0:
32,32,142997,1,0,0:0:0:0:
96,224,143102,2,0,L|192:224,2,63.7500024318696
32,224,143416,2,0,L|32:128,2,63.7500024318696
96,160,143731,6,0,L|160:160,2,63.7500024318696
96,96,144046,1,0,0:0:0:0:
160,96,144151,1,0,0:0:0:0:
224,96,144256,1,0,0:0:0:0:
288,96,144360,2,0,L|288:192,1,63.7500024318696
256,192,144570,12,0,145095,0:0:0:0:
32,32,145200,2,0,L|32:352,1,305.999990661621
256,192,145724,12,0,146249,0:0:0:0:
32,32,146353,5,0,0:0:0:0:
96,32,146423,1,0,0:0:0:0:
160,32,146493,1,0,0:0:0:0:
224,32,146563,1,0,0:0:0:0:
288,32,146633,1,0,0:0:0:0:
352,32,146703,1,0,0:0:0:0:
416,32,146773,1,0,0:0:0:0:
480,32,146843,1,0,0:0:0:0:
480,96,146913,1,0,0:0:0:0:
416,96,146983,1,0,0:0:0:0:
384,96,147053,1,0,0:0:0:0:
352,96,147123,1,0,0:0:0:0:
320,96,147193,1,0,0:0:0:0:
288,96,147263,1,0,0:0:0:0:
256,96,147332,5,0,0:0:0:0:
224,128,147402,1,0,0:0:0:0:
192,160,147472,1,0,0:0:0:0:
160,192,147542,1,0,0:0:0:0:
128,224,147612,1,0,0:0:0:0:
160,256,147682,1,0,0:0:0:0:
192,288,147752,1,0,0:0:0:0:
256,288,147822,1,0,0:0:0:0:
320,288,147892,1,0,0:0:0:0:
384,224,147962,1,0,0:0:0:0:
448,128,148032,1,0,0:0:0:0:
352,64,148102,1,0,0:0:0:0:
224,64,148172,1,0,0:0:0:0:
96,64,148242,1,0,0:0:0:0:
96,96,148311,1,0,0:0:0:0:
96,128,148381,1,0,0:0:0:0:
96,160,148451,1,0,0:0:0:0:
96,192,148521,1,0,0:0:0:0:
96,224,148591,5,0,0:0:0:0:
96,256,148661,1,0,0:0:0:0:
128,256,148731,1,0,0:0:0:0:
160,256,148801,1,0,0:0:0:0:
224,256,148871,1,0,0:0:0:0:
224,192,148941,1,0,0:0:0:0:
224,128,149011,1,0,0:0:0:0:
224,96,149081,1,0,0:0:0:0:
224,64,149151,1,0,0:0:0:0:
288,64,149221,1,0,0:0:0:0:
352,64,149290,1,0,0:0:0:0:
416,64,149360,1,0,0:0:0:0:
416,128,149430,1,0,0:0:0:0:
416,192,149500,1,0,0:0:0:0:
416,256,149570,1,0,0:0:0:0:
352,256,149640,1,0,0:0:0:0:
288,256,149710,1,0,0:0:0:0:
224,256,149780,1,0,0:0:0:0:
160,256,149850,5,0,0:0:0:0:
128,192,149920,1,0,0:0:0:0:
96,128,149990,1,0,0:0:0:0:
64,64,150060,1,0,0:0:0:0:
128,64,150130,1,0,0:0:0:0:
192,64,150200,1,0,0:0:0:0:
224,64,150270,1,0,0:0:0:0:
256,64,150339,1,0,0:0:0:0:
288,64,150409,1,0,0:0:0:0:
320,64,150479,1,0,0:0:0:0:
352,64,150549,1,0,0:0:0:0:
384,64,150619,1,0,0:0:0:0:
416,192,150654,2,0,L|224:352,1,191.250007295609
192,256,151074,6,0,L|352:128,1,191.250007295609
288,96,151493,2,0,B|128:224|384:32,1,255.000009727478
192,64,152018,2,0,B|64:224|288:32,1,255.000009727478
320,96,152542,2,0,B|128:288|352:96,1,255.000009727478
32,64,153067,2,0,P|32:288|64:320,1,255.000009727478
64,288,153591,2,0,B|96:192|0:384,1,127.500004863739
192,288,153906,2,0,B|288:256|64:320,1,191.250007295609
160,224,154325,2,0,B|64:96|192:256,2,127.500004863739
96,128,154850,6,0,B|224:96|-32:128,2,191.250007295609
64,192,155479,1,0,0:0:0:0:
96,192,155584,1,0,0:0:0:0:
128,192,155689,1,0,0:0:0:0:
160,192,155794,1,0,0:0:0:0:
192,192,155899,1,0,0:0:0:0:
224,192,156004,1,0,0:0:0:0:
256,192,156109,1,0,0:0:0:0:
288,192,156214,1,0,0:0:0:0:
320,192,156318,1,0,0:0:0:0:
352,192,156423,1,0,0:0:0:0:
384,192,156528,1,0,0:0:0:0:
384,160,156633,1,0,0:0:0:0:
384,128,156738,1,0,0:0:0:0:
384,96,156843,1,0,0:0:0:0:
320,64,156948,1,0,0:0:0:0:
160,128,157053,1,0,0:0:0:0:
256,192,157193,5,0,0:0:0:0:
256,192,185304,5,0,0:0:0:0:
256,192,185374,2,0,P|128:96|96:64,1,191.250007295609
64,64,186109,1,0,0:0:0:0:
64,64,186214,2,0,L|32:128,1,63.7500024318696
32,128,186528,2,0,L|32:224,1,95.6250036478044
64,320,186948,1,0,0:0:0:0:
128,320,187053,2,0,L|128:288,1,31.8750012159348
160,288,187263,2,0,L|160:320,1,31.8750012159348
192,320,187472,6,0,L|192:256,1,63.7500024318696
256,320,187787,1,0,0:0:0:0:
256,320,187892,2,0,L|256:256,1,63.7500024318696
256,192,188207,1,0,0:0:0:0:
256,192,188311,2,0,L|320:192,1,63.7500024318696
416,192,188626,1,0,0:0:0:0:
416,192,188731,2,0,L|352:192,1,63.7500024318696
256,192,189046,1,0,0:0:0:0:
192,192,189151,2,0,L|160:192,1,31.8750012159348
64,192,189360,1,0,0:0:0:0:
64,128,189465,2,0,L|64:96,1,31.8750012159348
128,96,189675,2,0,L|160:96,1,31.8750012159348
192,128,189885,1,0,0:0:0:0:
192,128,189990,6,0,L|128:128,1,63.7500024318696
64,96,190304,1,0,0:0:0:0:
64,96,190409,2,0,L|64:160,1,63.7500024318696
64,192,190724,1,0,0:0:0:0:
64,288,190829,2,0,L|128:288,1,63.7500024318696
128,192,191144,1,0,0:0:0:0:
128,64,191249,2,0,L|192:64,1,63.7500024318696
192,192,191563,1,0,0:0:0:0:
256,160,191668,2,0,L|320:128,1,63.7500024318696
384,96,191983,1,0,0:0:0:0:
384,160,192088,2,0,L|384:224,1,63.7500024318696
384,288,192402,5,0,0:0:0:0:
352,256,192507,2,0,L|288:224,1,63.7500024318696
256,192,192822,1,0,0:0:0:0:
224,160,192927,2,0,L|160:128,1,63.7500024318696
128,96,193242,1,0,0:0:0:0:
128,160,193346,2,0,L|128:224,1,63.7500024318696
128,288,193661,1,0,0:0:0:0:
192,256,193766,6,0,P|192:224|224:224,1,63.7500024318696
256,192,194081,1,0,0:0:0:0:
288,160,194186,2,0,L|352:128,1,63.7500024318696
384,96,194500,1,0,0:0:0:0:
384,320,194710,1,0,0:0:0:0:
256,192,194920,1,0,0:0:0:0:
128,128,195130,1,0,0:0:0:0:
160,256,195339,1,0,0:0:0:0:
160,256,195444,2,0,L|224:224,1,63.7500024318696
256,192,195759,5,0,0:0:0:0:
256,192,195864,2,0,L|192:160,1,63.7500024318696
192,96,196179,1,0,0:0:0:0:
192,96,196283,2,0,L|256:32,1,63.7500024318696
320,64,196598,1,0,0:0:0:0:
358,117,196703,2,0,L|411:185,1,63.7500024318696
448,224,197018,1,0,0:0:0:0:
396,260,197123,6,0,L|320:297,1,63.7500024318696
256,320,197437,1,0,0:0:0:0:
204,297,197542,2,0,L|137:239,1,63.7500024318696
96,192,197857,1,0,0:0:0:0:
96,192,198067,1,0,0:0:0:0:
96,192,198277,1,0,0:0:0:0:
96,192,198486,1,0,0:0:0:0:
256,192,198696,1,0,0:0:0:0:
256,192,198801,6,0,P|256:126|249:107,1,85
256,64,199116,1,0,0:0:0:0:
256,64,199325,1,0,0:0:0:0:
256,192,199535,1,0,0:0:0:0:
448,192,199745,1,0,0:0:0:0:
448,192,199850,1,0,0:0:0:0:
288,320,199955,2,0,P|277:279|269:247,1,42.5
288,320,200165,1,0,0:0:0:0:
256,192,200374,5,0,0:0:0:0:
256,192,200584,1,0,0:0:0:0:
256,192,200689,1,0,0:0:0:0:
160,256,201004,1,0,0:0:0:0:
64,160,201214,1,0,0:0:0:0:
192,64,201423,1,0,0:0:0:0:
256,192,201633,1,0,0:0:0:0:
352,96,201843,5,0,0:0:0:0:
416,224,202053,1,0,0:0:0:0:
367,263,202158,2,0,L|327:301,1,42.5
288,320,202367,1,0,0:0:0:0:
233,313,202472,2,0,P|211:271|176:288,1,85
128,288,202787,1,0,0:0:0:0:
129,236,202892,2,0,L|66:169,1,85
128,128,203311,1,0,0:0:0:0:
160,160,203626,5,0,0:0:0:0:
192,192,204151,1,0,0:0:0:0:
224,224,204360,1,0,0:0:0:0:
256,256,204570,1,0,0:0:0:0:
288,288,204780,1,0,0:0:0:0:
352,288,204990,1,0,0:0:0:0:
384,256,205200,1,0,0:0:0:0:
384,224,205409,1,0,0:0:0:0:
384,160,205724,1,0,0:0:0:0:
384,160,205829,1,0,0:0:0:0:
288,128,206039,1,0,0:0:0:0:
192,128,206249,5,0,0:0:0:0:
192,128,206458,1,0,0:0:0:0:
192,128,206563,1,0,0:0:0:0:
117,167,206668,2,0,L|121:219,1,42.5
192,224,206878,1,0,0:0:0:0:
288,224,207088,1,0,0:0:0:0:
384,160,207297,1,0,0:0:0:0:
384,160,207402,1,0,0:0:0:0:
289,163,207507,2,0,L|234:166,1,50.9999984436036
256,64,207717,1,0,0:0:0:0:
352,96,207927,1,0,0:0:0:0:
224,224,208137,5,0,0:0:0:0:
384,288,208346,1,0,0:0:0:0:
192,320,208556,1,0,0:0:0:0:
64,288,208766,1,0,0:0:0:0:
176,262,208871,2,0,L|178:150,1,101.999996887207
64,160,209186,1,0,0:0:0:0:
177,160,209290,2,0,L|173:278,1,101.999996887207
128,96,209605,1,0,0:0:0:0:
128,96,209815,1,0,0:0:0:0:
320,64,210025,5,0,0:0:0:0:
352,224,210235,1,0,0:0:0:0:
160,320,210444,1,0,0:0:0:0:
121,265,210549,2,0,L|84:207,1,50.9999984436036
64,160,210759,1,0,0:0:0:0:
110,69,210864,2,0,L|232:44,1,101.999996887207
352,96,211179,1,0,0:0:0:0:
448,125,211283,2,0,L|455:199,1,50.9999984436036
384,256,211493,1,0,0:0:0:0:
224,320,211703,5,0,0:0:0:0:
192,192,211913,1,0,0:0:0:0:
384,96,212123,1,0,0:0:0:0:
302,93,212228,2,0,L|126:65,1,127.500004863739
59,62,212542,1,0,0:0:0:0:
57,131,212647,2,0,L|57:269,1,127.500004863739
58,308,212962,1,0,0:0:0:0:
106,266,213067,2,0,L|198:167,1,127.500004863739
223,141,213381,1,0,0:0:0:0:
106,170,213486,2,0,L|105:315,1,127.500004863739
241,309,213801,1,0,0:0:0:0:
354,333,213906,6,0,L|453:243,1,127.500004863739
401,161,214221,1,0,0:0:0:0:
276,89,214325,2,0,L|116:127,1,127.500004863739
46,252,214640,1,0,0:0:0:0:
127,239,214745,2,0,L|149:110,1,127.500004863739
62,112,215060,1,0,0:0:0:0:
110,46,215165,2,0,L|249:13,1,127.500004863739
330,43,215479,1,0,0:0:0:0:
331,47,215584,2,0,L|376:107,1,63.7500024318696
369,98,215794,2,0,L|417:167,1,63.7500024318696
405,150,216004,2,0,L|489:250,1,127.500004863739
482,244,216318,1,0,0:0:0:0:
474,247,216423,2,0,L|392:275,1,63.7500024318696
413,267,216633,2,0,L|326:293,1,63.7500024318696
352,285,216843,2,0,P|250:285|239:313,1,127.500004863739
196,325,217158,1,0,0:0:0:0:
282,256,217263,2,0,L|179:168,1,127.500004863739
120,266,217577,1,0,0:0:0:0:
42,313,217682,2,0,L|18:185,1,127.500004863739
78,167,217997,1,0,0:0:0:0:
213,165,218102,2,0,L|108:93,1,127.500004863739
75,71,218416,1,0,0:0:0:0:
109,26,218521,2,0,L|236:-1,1,127.500004863739
269,32,218836,1,0,0:0:0:0:
351,30,218941,6,0,L|476:161,1,136
486,258,219256,1,0,0:0:0:0:
449,333,219360,2,0,L|291:368,1,136
174,333,219675,1,0,0:0:0:0:
231,256,219780,2,0,L|172:130,1,136
62,137,220095,1,0,0:0:0:0:
71,60,220200,2,0,L|218:35,1,136
304,77,220514,1,0,0:0:0:0:
401,59,220619,2,0,L|477:208,1,136
441,285,220934,1,0,0:0:0:0:
296,166,221039,2,0,L|217:304,1,136
180,346,221353,1,0,0:0:0:0:
108,231,221458,2,0,L|202:105,1,136
306,87,221773,1,0,0:0:0:0:
306,191,221878,2,0,L|183:274,1,136
77,218,222193,1,0,0:0:0:0:
151,103,222297,6,0,L|302:84,1,127.500004863739
382,206,222612,1,0,0:0:0:0:
404,283,222717,2,0,L|282:361,1,127.500004863739
195,314,223032,1,0,0:0:0:0:
83,336,223137,2,0,L|175:208,1,127.500004863739
64,185,223451,1,0,0:0:0:0:
97,97,223556,2,0,L|242:56,1,127.500004863739
302,85,223871,1,0,0:0:0:0:
256,192,223976,12,0,225339,0:0:0:0:
405,292,225444,5,0,0:0:0:0:
344,204,225549,2,0,L|123:215,1,191.250007295609
107,309,225969,1,0,0:0:0:0:
107,309,226074,2,0,P|72:250|15:222,1,127.500004863739
29,163,226388,1,0,0:0:0:0:
34,98,226493,2,0,L|179:37,1,127.500004863739
248,107,226808,1,0,0:0:0:0:
355,132,226913,2,0,L|400:272,1,127.500004863739
290,292,227228,1,0,0:0:0:0:
290,292,227332,2,0,P|191:264|150:293,1,127.500004863739
110,282,227647,1,0,0:0:0:0:
196,337,227752,2,0,L|349:283,1,127.500004863739
385,176,228067,1,0,0:0:0:0:
304,102,228172,2,0,L|128:138,1,127.500004863739
50,164,228486,1,0,0:0:0:0:
40,94,228591,6,0,L|156:14,1,127.500004863739
229,43,228906,1,0,0:0:0:0:
228,107,229011,2,0,L|233:254,1,127.500004863739
232,296,229325,1,0,0:0:0:0:
151,358,229430,2,0,L|26:274,1,127.500004863739
77,187,229745,1,0,0:0:0:0:
77,187,229850,2,0,L|93:61,1,127.500004863739
93,68,230165,1,0,0:0:0:0:
290,67,230270,2,0,L|356:121,1,63.7500024318696
377,279,230479,1,0,0:0:0:0:
120,343,230584,6,0,L|60:306,1,63.7500024318696
55,215,230794,2,0,L|48:138,1,63.7500024318696
175,132,231004,1,0,0:0:0:0:
175,132,231109,2,0,L|166:269,1,127.500004863739
162,306,231423,1,0,0:0:0:0:
279,359,231528,2,0,L|421:315,1,127.500004863739
435,182,231843,1,0,0:0:0:0:
356,99,231948,2,0,L|193:113,1,127.500004863739
88,196,232263,1,0,0:0:0:0:
214,185,232367,6,0,L|69:322,1,161.499995687485
234,325,232682,1,0,0:0:0:0:
339,289,232787,2,0,L|341:116,1,161.499995687485
248,72,233102,1,0,0:0:0:0:
362,38,233207,2,0,L|508:127,1,161.499995687485
471,245,233521,1,0,0:0:0:0:
391,278,233626,2,0,L|321:118,1,161.499995687485
426,66,233941,1,0,0:0:0:0:
252,62,234046,2,0,L|91:148,1,161.499995687485
125,229,234360,1,0,0:0:0:0:
45,339,234465,2,0,L|34:173,1,161.499995687485
45,122,234780,1,0,0:0:0:0:
231,82,234990,1,0,0:0:0:0:
435,236,235200,1,0,0:0:0:0:
163,304,235409,1,0,0:0:0:0:
212,176,235619,1,0,0:0:0:0:
176,93,235724,6,0,L|352:32,1,127.500004863739
358,113,236039,1,0,0:0:0:0:
433,147,236144,2,0,L|433:282,1,127.500004863739
366,306,236458,1,0,0:0:0:0:
191,303,236668,1,0,0:0:0:0:
232,166,236878,1,0,0:0:0:0:
355,241,237088,1,0,0:0:0:0:
134,260,237297,1,0,0:0:0:0:
132,208,237402,2,0,P|64:175|118:126,1,127.500004863739
126,93,237717,1,0,0:0:0:0:
188,68,237822,2,0,P|220:14|269:60,1,127.500004863739
320,37,238137,1,0,0:0:0:0:
365,73,238242,2,0,P|446:103|475:185,1,127.500004863739
498,213,238556,1,0,0:0:0:0:
446,250,238661,2,0,L|381:293,1,63.7500024318696
309,318,238871,1,0,0:0:0:0:
252,312,238976,6,0,L|160:277,1,63.7500024318696
144,262,239290,1,0,0:0:0:0:
165,223,239395,2,0,L|209:135,1,63.7500024318696
236,82,239605,1,0,0:0:0:0:
381,129,239815,1,0,0:0:0:0:
395,207,240025,1,0,0:0:0:0:
395,207,240130,1,0,0:0:0:0:
351,247,240235,2,0,L|296:290,1,63.7500024318696
252,311,240444,1,0,0:0:0:0:
106,223,240654,1,0,0:0:0:0:
225,158,240864,5,0,0:0:0:0:
217,260,240969,1,0,0:0:0:0:
261,237,241074,2,0,L|325:199,1,42.5
384,160,241283,1,0,0:0:0:0:
416,274,241493,1,0,0:0:0:0:
93,174,241703,1,0,0:0:0:0:
344,72,241913,1,0,0:0:0:0:
195,277,242123,1,0,0:0:0:0:
158,68,242332,1,0,0:0:0:0:
244,67,242437,2,0,L|338:147,1,85
355,239,242752,1,0,0:0:0:0:
268,308,242857,2,0,L|160:287,1,85
43,183,243172,1,0,0:0:0:0:
361,106,243381,1,0,0:0:0:0:
171,264,243591,1,0,0:0:0:0:
177,102,243801,1,0,0:0:0:0:
333,257,244011,1,0,0:0:0:0:
256,192,244116,12,0,250304,0:0:0:0:
