osu file format v14

[General]
AudioFilename: audio.mp3
AudioLeadIn: 0
PreviewTime: -1
Countdown: 1
SampleSet: None
StackLeniency: 0.7
Mode: 1
LetterboxInBreaks: 0
WidescreenStoryboard: 1

[Editor]
Bookmarks: 34500,42951,47387,50768,54148
DistanceSpacing: 1
BeatDivisor: 4
GridSize: 16
TimelineZoom: 0.4

[Metadata]
Title:Only my railgun
TitleUnicode:Only my railgun
Artist:fripSide
ArtistUnicode:fripSide
Creator:Rin Adler
Version:InsaneTaiko
Source:
Tags:
BeatmapID:1319523
BeatmapSetID:625973

[Difficulty]
HPDrainRate:5
CircleSize:6
OverallDifficulty:5
ApproachRate:7
SliderMultiplier:2
SliderTickRate:2

[Events]
//Background and Video events
0,0,"91b90e63d07a93fecb834c7018589552a9cd02b5_hq.jpg",0,0
//Break Periods
//Storyboard Layer 0 (Background)
//Storyboard Layer 1 (Fail)
//Storyboard Layer 2 (Pass)
//Storyboard Layer 3 (Foreground)
//Storyboard Sound Samples

[TimingPoints]
4113,374.766666666666,4,2,0,30,1,0
14086,-66.6666666666667,4,2,0,30,0,0
20818,-76.9230769230769,4,2,0,30,0,0
24182,-66.6666666666667,4,2,0,30,0,0
25983,-100,4,2,0,30,0,0
34281,-133.333333333333,4,2,0,30,0,0
40947,-100,4,2,0,30,0,0
47681,-66.6666666666667,4,2,0,30,0,0
50946,-100,4,2,0,30,0,0
54379,-66.6666666666667,4,2,0,30,0,0
62845,-62.5,4,2,0,30,0,0
66077,-66.6666666666667,4,2,0,30,0,0
76145,-58.8235294117647,4,2,0,30,0,0
89610,-100,4,2,0,30,0,0
96308,-133.333333333333,4,2,0,30,0,0
103038,-100,4,2,0,30,0,0
109705,-76.9230769230769,4,2,0,30,0,0
116505,-100,4,2,0,30,0,0
124902,-71.4285714285714,4,2,0,30,0,0
131635,-66.6666666666667,4,2,0,30,0,0
138235,-66.6666666666667,4,2,0,30,0,0
145036,-55.5555555555556,4,2,0,30,0,0
149166,-66.6666666666667,4,2,0,30,0,0
156982,-100,4,2,0,30,0,0
170232,-133.333333333333,4,2,0,30,0,0
180231,-100,4,2,0,30,0,0
185331,-133.333333333333,4,2,0,30,0,0
198732,-100,4,2,0,30,0,0
207095,-83.3333333333333,4,2,0,30,0,0
212095,-66.6666666666667,4,2,0,30,0,0
218829,-62.5,4,2,0,30,0,0
222127,-66.6666666666667,4,2,0,30,0,0
225493,-66.6666666666667,4,2,0,30,0,0
232291,-52.6315789473684,4,2,0,30,0,0
235657,-66.6666666666667,4,2,0,30,0,0
238954,-66.6666666666667,4,2,0,30,0,0
240722,-100,4,2,0,30,0,0
243952,-66.6666666666667,4,2,0,30,0,0

[HitObjects]
16,96,4206,6,0,L|448:96,12,425
112,144,14138,1,0,0:0:0:0:
112,144,14325,1,8,0:0:0:0:
112,144,14419,1,0,0:0:0:0:
112,144,14793,1,8,0:0:0:0:
112,144,14981,1,0,0:0:0:0:
112,144,15168,1,8,0:0:0:0:
112,144,15262,1,0,0:0:0:0:
112,144,15355,1,8,0:0:0:0:
112,144,15637,1,0,0:0:0:0:
112,144,15824,1,8,0:0:0:0:
112,144,16011,1,0,0:0:0:0:
112,144,16105,1,8,0:0:0:0:
112,144,16199,1,8,0:0:0:0:
112,144,16480,1,8,0:0:0:0:
112,144,16667,1,8,0:0:0:0:
112,144,16948,1,0,0:0:0:0:
112,144,17136,1,8,0:0:0:0:
112,144,17417,1,8,0:0:0:0:
112,144,17604,1,0,0:0:0:0:
112,144,17979,1,8,0:0:0:0:
112,144,18354,1,0,0:0:0:0:
112,144,18728,1,8,0:0:0:0:
112,144,18822,1,8,0:0:0:0:
112,144,19197,1,0,0:0:0:0:
112,144,19384,1,8,0:0:0:0:
112,144,19478,1,0,0:0:0:0:
112,144,19665,1,8,0:0:0:0:
112,144,19759,1,0,0:0:0:0:
112,144,19946,1,8,0:0:0:0:
112,144,20227,1,8,0:0:0:0:
112,144,20321,1,0,0:0:0:0:
112,144,20415,1,0,0:0:0:0:
112,144,20602,1,8,0:0:0:0:
112,144,20790,1,0,0:0:0:0:
112,144,20977,1,8,0:0:0:0:
112,144,21071,1,0,0:0:0:0:
112,144,21164,1,8,0:0:0:0:
112,144,21258,1,0,0:0:0:0:
112,144,21633,1,8,0:0:0:0:
112,144,21727,1,0,0:0:0:0:
112,144,21820,1,8,0:0:0:0:
112,144,21914,1,0,0:0:0:0:
112,144,22008,1,8,0:0:0:0:
112,144,22382,1,8,0:0:0:0:
112,144,22570,1,0,0:0:0:0:
112,144,22663,1,8,0:0:0:0:
112,144,22757,1,0,0:0:0:0:
112,144,22851,1,0,0:0:0:0:
112,144,23132,1,0,0:0:0:0:
112,144,23319,1,8,0:0:0:0:
112,144,23600,1,8,0:0:0:0:
112,144,23788,1,0,0:0:0:0:
112,144,24069,1,8,0:0:0:0:
112,144,24256,1,8,0:0:0:0:
112,224,24350,2,0,L|384:224,2,225.000008583069
112,144,25099,1,8,0:0:0:0:
112,144,25287,1,8,0:0:0:0:
112,144,25474,1,8,0:0:0:0:
112,144,25568,1,0,0:0:0:0:
112,144,25755,1,0,0:0:0:0:
112,144,25943,1,8,0:0:0:0:
112,144,26224,1,0,0:0:0:0:
112,144,26411,1,0,0:0:0:0:
112,144,26598,1,0,0:0:0:0:
112,144,26692,1,8,0:0:0:0:
112,144,26880,1,0,0:0:0:0:
112,144,26973,1,8,0:0:0:0:
112,144,27161,1,0,0:0:0:0:
112,144,27254,1,8,0:0:0:0:
112,144,27535,1,8,0:0:0:0:
112,144,27629,1,0,0:0:0:0:
112,144,27723,1,8,0:0:0:0:
112,144,27816,1,0,0:0:0:0:
112,144,28191,1,8,0:0:0:0:
112,144,28285,1,0,0:0:0:0:
112,144,28472,1,8,0:0:0:0:
112,144,28566,1,0,0:0:0:0:
112,144,28660,1,8,0:0:0:0:
112,144,29034,1,8,0:0:0:0:
112,144,29128,1,0,0:0:0:0:
112,144,29222,1,8,0:0:0:0:
112,144,29316,1,0,0:0:0:0:
112,144,29409,1,8,0:0:0:0:
112,144,29503,1,0,0:0:0:0:
112,144,29597,1,0,0:0:0:0:
224,64,29690,2,0,L|384:64,1,150
112,144,30159,1,0,0:0:0:0:
112,144,30252,1,0,0:0:0:0:
112,144,30440,1,0,0:0:0:0:
112,144,30627,1,8,0:0:0:0:
112,144,31002,1,8,0:0:0:0:
112,144,31189,1,8,0:0:0:0:
112,144,31377,1,0,0:0:0:0:
112,144,31658,1,8,0:0:0:0:
112,144,31845,1,8,0:0:0:0:
112,144,32033,1,8,0:0:0:0:
112,144,32126,1,0,0:0:0:0:
64,256,32220,2,0,B|144:256|160:192|48:144|240:64|288:176|480:80|448:288|160:320|16:128|160:16|464:48|464:368|128:352|0:144|112:32|448:32|432:96|48:48|48:192|32:32|32:32|400:64|400:80,1,1050
112,144,34281,1,8,0:0:0:0:
112,96,34375,2,0,L|384:80,1,262.500010013581
112,144,35124,1,0,0:0:0:0:
112,144,35312,1,0,0:0:0:0:
112,144,35593,1,8,0:0:0:0:
112,144,35780,1,8,0:0:0:0:
112,144,35968,1,0,0:0:0:0:
112,144,36249,1,0,0:0:0:0:
112,144,36436,1,0,0:0:0:0:
112,144,36624,1,0,0:0:0:0:
112,144,36811,1,0,0:0:0:0:
112,144,36998,1,8,0:0:0:0:
112,144,37186,1,8,0:0:0:0:
112,144,37373,1,0,0:0:0:0:
112,144,37654,1,0,0:0:0:0:
112,144,37841,1,0,0:0:0:0:
112,144,38123,1,0,0:0:0:0:
112,144,38310,1,0,0:0:0:0:
112,144,38497,1,0,0:0:0:0:
112,144,38685,1,8,0:0:0:0:
112,144,38872,1,8,0:0:0:0:
112,144,39059,1,8,0:0:0:0:
112,144,39247,1,0,0:0:0:0:
112,144,39434,1,8,0:0:0:0:
112,144,39715,1,8,0:0:0:0:
112,144,39903,1,0,0:0:0:0:
112,144,40090,1,8,0:0:0:0:
112,144,40184,1,0,0:0:0:0:
112,144,40465,1,8,0:0:0:0:
112,144,40559,1,0,0:0:0:0:
112,144,40652,1,0,0:0:0:0:
112,144,40933,1,8,0:0:0:0:
112,144,41308,1,8,0:0:0:0:
112,144,41495,1,8,0:0:0:0:
112,144,41683,1,0,0:0:0:0:
112,144,41870,1,0,0:0:0:0:
112,144,42058,1,8,0:0:0:0:
112,144,42339,1,8,0:0:0:0:
112,144,42526,1,8,0:0:0:0:
112,144,42713,1,8,0:0:0:0:
112,144,42901,1,0,0:0:0:0:
112,144,43182,1,8,0:0:0:0:
112,144,43276,1,8,0:0:0:0:
112,144,43463,1,0,0:0:0:0:
112,144,43650,1,0,0:0:0:0:
112,144,43931,1,8,0:0:0:0:
112,144,44119,1,8,0:0:0:0:
112,144,44213,1,0,0:0:0:0:
112,144,44400,1,0,0:0:0:0:
112,144,44587,1,8,0:0:0:0:
112,144,44681,1,8,0:0:0:0:
112,144,44868,1,0,0:0:0:0:
112,144,45149,1,8,0:0:0:0:
112,144,45337,1,8,0:0:0:0:
112,144,45524,1,0,0:0:0:0:
112,144,45618,1,0,0:0:0:0:
112,144,45712,1,8,0:0:0:0:
112,144,45805,1,0,0:0:0:0:
112,144,45899,1,8,0:0:0:0:
112,144,45993,1,0,0:0:0:0:
112,144,46086,1,8,0:0:0:0:
112,144,46555,1,0,0:0:0:0:
112,144,46649,1,8,0:0:0:0:
112,144,46742,1,0,0:0:0:0:
112,144,46836,1,0,0:0:0:0:
112,144,47304,1,8,0:0:0:0:
112,144,47585,1,8,0:0:0:0:
112,144,47773,1,8,0:0:0:0:
112,144,47960,1,0,0:0:0:0:
112,144,48054,1,0,0:0:0:0:
112,144,48148,1,8,0:0:0:0:
112,144,48241,1,0,0:0:0:0:
112,144,48522,1,8,0:0:0:0:
112,144,48710,1,8,0:0:0:0:
112,144,48991,1,8,0:0:0:0:
112,144,49178,1,0,0:0:0:0:
112,144,49366,1,0,0:0:0:0:
112,144,49740,1,8,0:0:0:0:
112,144,50021,1,8,0:0:0:0:
112,144,50115,1,0,0:0:0:0:
224,80,50209,2,0,L|384:80,2,300.000011444092
112,144,51052,1,0,0:0:0:0:
112,144,51146,1,0,0:0:0:0:
112,144,51427,1,8,0:0:0:0:
112,144,51614,1,8,0:0:0:0:
112,144,51802,1,0,0:0:0:0:
112,144,51895,1,0,0:0:0:0:
112,144,51989,1,8,0:0:0:0:
112,144,52083,1,0,0:0:0:0:
112,144,52270,1,8,0:0:0:0:
112,144,52551,1,0,0:0:0:0:
112,144,52738,1,8,0:0:0:0:
112,144,53207,1,0,0:0:0:0:
112,144,53394,1,8,0:0:0:0:
112,144,53582,1,0,0:0:0:0:
112,144,53675,1,8,0:0:0:0:
192,128,53769,2,0,P|304:128|144:128,1,250
112,144,54331,1,0,0:0:0:0:
112,144,54519,1,8,0:0:0:0:
112,144,54612,1,0,0:0:0:0:
112,144,54706,1,8,0:0:0:0:
112,144,54987,1,8,0:0:0:0:
112,144,55081,1,0,0:0:0:0:
112,144,55456,1,8,0:0:0:0:
112,144,55643,1,8,0:0:0:0:
112,144,55737,1,8,0:0:0:0:
112,144,55924,1,8,0:0:0:0:
112,144,56111,1,8,0:0:0:0:
112,144,56486,1,0,0:0:0:0:
112,144,56767,1,8,0:0:0:0:
112,144,56955,1,0,0:0:0:0:
112,144,57329,1,8,0:0:0:0:
112,144,57610,1,0,0:0:0:0:
112,144,57798,1,0,0:0:0:0:
112,144,58173,1,0,0:0:0:0:
112,144,58547,1,8,0:0:0:0:
112,144,58735,1,0,0:0:0:0:
112,144,58828,1,8,0:0:0:0:
112,144,58922,1,0,0:0:0:0:
112,144,59016,1,0,0:0:0:0:
112,144,59110,1,8,0:0:0:0:
112,144,59297,1,8,0:0:0:0:
112,144,59484,1,8,0:0:0:0:
208,80,59578,2,0,P|288:80|16:80,1,300.000011444092
112,144,60140,1,0,0:0:0:0:
112,144,60327,1,8,0:0:0:0:
256,32,60421,2,0,B|272:352|256:48,1,300.000011444092
112,144,61077,1,0,0:0:0:0:
112,144,61171,1,0,0:0:0:0:
112,144,61452,1,8,0:0:0:0:
112,144,61733,1,0,0:0:0:0:
112,144,62014,1,8,0:0:0:0:
112,144,62108,1,0,0:0:0:0:
112,144,62295,1,0,0:0:0:0:
112,144,62482,1,8,0:0:0:0:
224,192,62576,2,0,L|384:80,1,150.000005722046
112,144,62857,1,0,0:0:0:0:
112,144,62951,1,8,0:0:0:0:
112,144,63045,1,0,0:0:0:0:
112,144,63138,1,8,0:0:0:0:
176,288,63232,2,0,L|352:96,1,240
112,144,63607,1,8,0:0:0:0:
112,144,63700,1,8,0:0:0:0:
112,144,63794,1,0,0:0:0:0:
112,144,63888,1,8,0:0:0:0:
112,144,63981,1,0,0:0:0:0:
240,208,64075,2,0,L|352:80,1,160
112,144,64356,1,0,0:0:0:0:
112,144,64450,1,8,0:0:0:0:
112,144,64544,1,0,0:0:0:0:
112,144,64637,1,8,0:0:0:0:
112,144,64731,1,0,0:0:0:0:
192,288,64825,2,0,L|304:160,1,160
112,144,65106,1,0,0:0:0:0:
112,144,65293,1,8,0:0:0:0:
112,144,65481,1,0,0:0:0:0:
112,144,65668,1,8,0:0:0:0:
176,272,65762,2,0,L|224:192,1,80
112,144,65949,1,0,0:0:0:0:
240,256,66043,2,0,L|288:160,1,80
112,144,66230,1,8,0:0:0:0:
208,48,66324,2,0,L|352:64,6,75.0000028610231
112,144,66980,1,8,0:0:0:0:
112,144,67073,1,0,0:0:0:0:
256,320,67167,2,0,L|352:192,1,150.000005722046
112,144,67448,1,8,0:0:0:0:
240,224,67542,2,0,L|336:96,1,150.000005722046
112,144,67823,1,0,0:0:0:0:
112,144,67917,1,8,0:0:0:0:
112,144,68010,1,0,0:0:0:0:
112,144,68198,1,8,0:0:0:0:
112,144,68385,1,0,0:0:0:0:
288,224,68479,2,0,L|352:128,1,75.0000028610231
112,144,68666,1,8,0:0:0:0:
272,272,68760,2,0,L|208:224,1,75.0000028610231
112,144,68947,1,0,0:0:0:0:
112,144,69041,1,8,0:0:0:0:
144,96,69135,2,0,L|240:96,1,75.0000028610231
112,144,69322,1,0,0:0:0:0:
112,144,69509,1,0,0:0:0:0:
112,144,69603,1,8,0:0:0:0:
112,144,69697,1,0,0:0:0:0:
112,144,69790,1,0,0:0:0:0:
64,224,69884,2,0,L|368:240,1,300.000011444092
112,144,70353,1,0,0:0:0:0:
112,144,70446,1,8,0:0:0:0:
112,144,70540,1,0,0:0:0:0:
96,80,70634,2,0,L|416:80,1,300.000011444092
112,144,71102,1,0,0:0:0:0:
112,144,71196,1,8,0:0:0:0:
112,144,71289,1,0,0:0:0:0:
112,144,71383,1,0,0:0:0:0:
112,144,71477,1,0,0:0:0:0:
176,224,71570,2,0,L|432:224,1,225.000008583069
112,144,71945,1,8,0:0:0:0:
112,144,72039,1,8,0:0:0:0:
112,144,72226,1,8,0:0:0:0:
112,144,72414,1,0,0:0:0:0:
112,144,72601,1,0,0:0:0:0:
256,272,72695,2,0,L|368:256,1,75.0000028610231
112,144,72882,1,0,0:0:0:0:
144,80,72976,2,0,L|352:80,4,150.000005722046
112,144,73819,1,0,0:0:0:0:
112,144,74006,1,8,0:0:0:0:
112,144,74194,1,0,0:0:0:0:
112,144,74381,1,8,0:0:0:0:
112,144,74569,1,8,0:0:0:0:
112,144,74756,1,8,0:0:0:0:
112,144,74943,1,0,0:0:0:0:
112,144,75037,1,8,0:0:0:0:
112,144,75224,1,0,0:0:0:0:
112,144,75318,1,8,0:0:0:0:
112,144,75506,1,8,0:0:0:0:
112,144,75599,1,8,0:0:0:0:
112,144,75787,1,0,0:0:0:0:
112,144,75880,1,0,0:0:0:0:
112,144,75974,1,8,0:0:0:0:
272,240,76068,2,0,L|368:240,1,75.0000028610231
112,144,76255,1,8,0:0:0:0:
112,144,76442,1,0,0:0:0:0:
112,144,76630,1,8,0:0:0:0:
192,112,76724,2,0,L|368:112,1,170.000003242493
112,144,77005,1,0,0:0:0:0:
112,144,77192,1,8,0:0:0:0:
112,144,77286,1,0,0:0:0:0:
112,144,77379,1,8,0:0:0:0:
224,208,77473,2,0,L|512:0,1,340.000006484985
112,144,77942,1,8,0:0:0:0:
112,144,78035,1,0,0:0:0:0:
112,144,78129,1,8,0:0:0:0:
112,144,78223,1,0,0:0:0:0:
192,224,78316,2,0,L|432:112,1,255.000004863739
112,144,78691,1,0,0:0:0:0:
112,144,78878,1,8,0:0:0:0:
128,112,78972,2,0,L|224:96,1,85.0000016212464
112,144,79160,1,8,0:0:0:0:
256,208,79253,2,0,L|448:32,1,255.000004863739
112,144,79628,1,0,0:0:0:0:
48,64,79722,2,0,L|384:32,1,255.000004863739
112,144,80096,1,8,0:0:0:0:
128,288,80190,2,0,B|352:176|304:192,1,170.000003242493
112,144,80471,1,8,0:0:0:0:
320,304,80565,2,0,L|384:112,1,170.000003242493
112,144,80846,1,0,0:0:0:0:
144,256,80940,2,0,L|256:80,1,170.000003242493
112,144,81221,1,8,0:0:0:0:
272,272,81314,2,0,L|368:96,1,170.000003242493
112,144,81596,1,0,0:0:0:0:
96,256,81689,2,0,L|304:80,1,255.000004863739
112,144,82064,1,8,0:0:0:0:
112,144,82251,1,8,0:0:0:0:
112,144,82345,1,0,0:0:0:0:
112,144,82439,1,8,0:0:0:0:
176,288,82532,2,0,L|352:48,1,255.000004863739
112,144,82907,1,0,0:0:0:0:
112,144,83001,1,8,0:0:0:0:
112,144,83188,1,0,0:0:0:0:
240,288,83282,2,0,L|320:112,1,170.000003242493
112,144,83563,1,0,0:0:0:0:
112,144,83750,1,8,0:0:0:0:
112,144,83844,1,8,0:0:0:0:
112,144,83938,1,0,0:0:0:0:
272,288,84031,2,0,L|384:112,1,170.000003242493
112,144,84313,1,8,0:0:0:0:
112,144,84406,1,8,0:0:0:0:
256,192,84500,1,0,0:0:0:0:
256,192,84687,1,8,0:0:0:0:
256,192,84875,1,0,0:0:0:0:
256,192,85062,1,0,0:0:0:0:
256,192,85249,1,8,0:0:0:0:
176,96,85343,2,0,L|288:80,1,85.0000016212464
256,192,85531,1,0,0:0:0:0:
256,192,85718,1,8,0:0:0:0:
256,192,85905,1,0,0:0:0:0:
256,192,86093,1,0,0:0:0:0:
256,192,86280,1,0,0:0:0:0:
256,192,86374,1,8,0:0:0:0:
272,96,86467,2,0,L|448:112,1,170.000003242493
256,192,86749,1,8,0:0:0:0:
80,112,86842,2,0,L|352:64,1,255.000004863739
256,192,87217,5,0,0:0:0:0:
256,192,87404,1,8,0:0:0:0:
256,192,87592,1,0,0:0:0:0:
144,240,87685,2,0,L|176:128,1,85.0000016212464
256,192,87873,1,0,0:0:0:0:
256,192,88060,1,8,0:0:0:0:
288,128,88154,2,0,L|384:128,1,85.0000016212464
256,192,88341,1,0,0:0:0:0:
256,192,88435,1,8,0:0:0:0:
304,304,88529,2,0,L|400:128,1,170.000003242493
256,192,88810,1,0,0:0:0:0:
256,192,88903,1,0,0:0:0:0:
224,272,88997,2,0,L|336:96,1,170.000003242493
256,192,89278,1,8,0:0:0:0:
368,240,89372,2,0,L|416:160,1,85.0000016212464
256,192,89559,1,0,0:0:0:0:
96,176,89653,2,0,L|144:112,1,50
256,192,89840,1,8,0:0:0:0:
256,192,89934,1,0,0:0:0:0:
256,192,90028,1,8,0:0:0:0:
240,112,90121,2,0,L|336:112,1,50
256,192,90309,1,0,0:0:0:0:
256,192,90496,1,0,0:0:0:0:
256,192,90684,1,0,0:0:0:0:
256,192,90777,1,8,0:0:0:0:
256,192,90965,1,0,0:0:0:0:
256,192,91152,1,0,0:0:0:0:
320,144,91246,2,0,L|384:144,1,50
256,192,91433,1,8,0:0:0:0:
256,192,91621,1,8,0:0:0:0:
256,192,91808,1,0,0:0:0:0:
256,192,91902,1,0,0:0:0:0:
256,192,92089,1,0,0:0:0:0:
256,192,92276,1,0,0:0:0:0:
256,192,92370,1,8,0:0:0:0:
256,192,92464,1,0,0:0:0:0:
256,192,92557,1,8,0:0:0:0:
256,192,92651,1,0,0:0:0:0:
256,192,92745,1,8,0:0:0:0:
96,96,92839,2,0,L|224:80,1,100
256,192,93120,1,0,0:0:0:0:
256,192,93307,1,8,0:0:0:0:
256,192,93401,1,0,0:0:0:0:
256,192,93494,1,8,0:0:0:0:
256,192,93588,1,0,0:0:0:0:
256,192,93682,1,8,0:0:0:0:
256,192,93775,1,0,0:0:0:0:
256,192,93869,1,8,0:0:0:0:
256,192,93963,1,0,0:0:0:0:
256,192,94056,1,8,0:0:0:0:
256,192,94150,1,0,0:0:0:0:
256,192,94244,1,8,0:0:0:0:
272,128,94338,2,0,L|400:128,1,100
256,192,94619,1,0,0:0:0:0:
272,208,94712,2,0,L|336:192,1,50
256,192,94900,1,0,0:0:0:0:
256,192,95087,1,8,0:0:0:0:
256,192,95274,1,0,0:0:0:0:
256,192,95462,1,8,0:0:0:0:
256,192,95649,1,8,0:0:0:0:
272,96,95743,2,0,L|336:96,1,50
256,192,95930,1,8,0:0:0:0:
256,192,96118,1,8,0:0:0:0:
256,192,96305,1,0,0:0:0:0:
48,208,96492,2,0,L|208:176,1,150.000005722046
256,192,97148,5,8,0:0:0:0:
16,144,97242,2,0,L|48:96,1,37.5000014305115
256,192,97429,1,8,0:0:0:0:
256,192,97617,1,8,0:0:0:0:
256,192,97804,1,8,0:0:0:0:
256,192,97992,1,0,0:0:0:0:
96,240,98179,2,0,L|240:96,1,187.500007152558
256,192,98928,5,8,0:0:0:0:
256,192,99116,1,8,0:0:0:0:
256,192,99303,1,8,0:0:0:0:
256,192,99397,1,8,0:0:0:0:
128,160,99491,2,0,L|192:128,1,37.5000014305115
256,192,99678,1,0,0:0:0:0:
256,192,99772,12,0,100428,0:0:0:0:
256,192,100521,5,8,0:0:0:0:
256,192,100709,1,8,0:0:0:0:
256,192,100896,1,8,0:0:0:0:
48,224,100990,2,0,L|64:160,1,37.5000014305115
256,192,101177,1,0,0:0:0:0:
256,192,101364,1,8,0:0:0:0:
256,192,101552,1,0,0:0:0:0:
128,160,101646,2,0,L|128:112,1,37.5000014305115
256,192,101833,1,8,0:0:0:0:
256,192,102020,1,0,0:0:0:0:
256,192,102208,1,0,0:0:0:0:
160,112,102301,2,0,L|304:96,1,112.500004291535
256,192,102676,1,0,0:0:0:0:
352,112,102770,2,0,L|384:160,1,37.5000014305115
256,192,102957,1,8,0:0:0:0:
256,192,103051,1,0,0:0:0:0:
256,192,103145,1,8,0:0:0:0:
384,224,103238,2,0,L|288:288,1,100
256,192,103519,1,0,0:0:0:0:
112,208,103613,2,0,L|256:80,1,150
256,192,103988,1,0,0:0:0:0:
256,192,104175,1,0,0:0:0:0:
256,192,104363,1,0,0:0:0:0:
256,192,104550,1,0,0:0:0:0:
256,192,104737,1,8,0:0:0:0:
256,192,104831,1,0,0:0:0:0:
256,192,104925,1,8,0:0:0:0:
208,80,105018,2,0,L|416:96,1,200
256,192,105487,1,0,0:0:0:0:
368,176,105581,2,0,L|320:224,1,50
256,192,105768,1,0,0:0:0:0:
256,192,105955,1,0,0:0:0:0:
256,192,106143,1,8,0:0:0:0:
96,192,106236,2,0,L|144:208,1,50
256,192,106424,1,0,0:0:0:0:
128,128,106517,2,0,L|256:112,1,100
256,192,106799,1,8,0:0:0:0:
288,128,106892,2,0,L|448:112,1,150
256,192,107267,1,0,0:0:0:0:
304,272,107361,2,0,L|368:192,1,100
256,192,107642,1,8,0:0:0:0:
144,160,107735,2,0,L|208:144,1,50
256,192,107923,1,0,0:0:0:0:
256,192,108110,1,8,0:0:0:0:
256,192,108204,12,0,108672,0:0:0:0:
256,192,108766,5,0,0:0:0:0:
256,192,108860,1,0,0:0:0:0:
256,192,108953,1,8,0:0:0:0:
64,160,109047,2,0,L|240:112,1,150
256,192,109422,1,0,0:0:0:0:
320,128,109516,2,0,L|416:80,1,100
256,192,109797,1,0,0:0:0:0:
256,192,109984,1,0,0:0:0:0:
256,192,110171,1,8,0:0:0:0:
256,192,110265,1,0,0:0:0:0:
256,192,110453,1,8,0:0:0:0:
352,144,110546,2,0,L|448:48,1,129.999994049073
256,192,110827,1,0,0:0:0:0:
80,192,110921,2,0,L|160:176,1,64.9999970245363
256,192,111108,1,0,0:0:0:0:
256,192,111296,1,8,0:0:0:0:
256,192,111483,1,0,0:0:0:0:
112,160,111577,2,0,L|272:128,1,129.999994049073
256,192,111858,1,8,0:0:0:0:
320,160,111952,2,0,L|400:144,1,64.9999970245363
256,192,112139,1,0,0:0:0:0:
256,192,112233,1,8,0:0:0:0:
256,192,112326,1,0,0:0:0:0:
256,192,112420,1,8,0:0:0:0:
288,272,112514,2,0,L|464:160,1,194.999991073609
256,192,112889,1,0,0:0:0:0:
256,192,112982,1,8,0:0:0:0:
256,192,113076,1,0,0:0:0:0:
256,192,113170,1,8,0:0:0:0:
256,192,113357,1,0,0:0:0:0:
320,320,113451,2,0,L|368:272,1,64.9999970245363
256,192,113638,1,0,0:0:0:0:
256,192,113825,1,8,0:0:0:0:
256,192,113919,1,0,0:0:0:0:
256,192,114013,1,8,0:0:0:0:
256,192,114107,1,0,0:0:0:0:
0,176,114200,2,0,L|64:144,1,64.9999970245363
256,192,114388,1,0,0:0:0:0:
256,192,114669,1,8,0:0:0:0:
256,192,114762,1,0,0:0:0:0:
256,192,114856,1,8,0:0:0:0:
256,192,114950,1,0,0:0:0:0:
256,192,115137,1,0,0:0:0:0:
256,192,115418,1,8,0:0:0:0:
256,192,115699,1,0,0:0:0:0:
96,144,115793,2,0,L|400:144,1,259.999988098145
256,192,116261,1,8,0:0:0:0:
256,192,116355,1,0,0:0:0:0:
256,192,116449,1,8,0:0:0:0:
256,192,116730,1,0,0:0:0:0:
256,192,116917,1,8,0:0:0:0:
256,192,117105,1,0,0:0:0:0:
256,192,117292,1,8,0:0:0:0:
208,128,117386,2,0,L|272:112,1,50
256,192,117573,1,0,0:0:0:0:
256,192,117760,1,0,0:0:0:0:
272,96,117854,2,0,L|336:96,1,50
256,192,118042,1,0,0:0:0:0:
256,192,118229,1,0,0:0:0:0:
224,96,118323,2,0,L|352:96,1,100
256,192,118604,1,0,0:0:0:0:
256,192,118885,1,8,0:0:0:0:
256,192,119072,1,0,0:0:0:0:
256,192,119260,1,8,0:0:0:0:
256,192,119447,1,0,0:0:0:0:
256,192,119634,1,8,0:0:0:0:
256,192,119728,1,0,0:0:0:0:
256,192,119822,1,8,0:0:0:0:
256,192,120009,1,0,0:0:0:0:
256,192,120290,1,8,0:0:0:0:
224,96,120384,2,0,P|336:96|288:96,1,150
256,192,120759,1,0,0:0:0:0:
256,192,120946,1,8,0:0:0:0:
256,192,121040,1,0,0:0:0:0:
256,192,121321,1,8,0:0:0:0:
256,192,121508,1,0,0:0:0:0:
256,192,121602,1,8,0:0:0:0:
144,128,121696,2,0,L|368:96,1,200
256,192,122164,1,0,0:0:0:0:
256,192,122351,1,8,0:0:0:0:
256,192,122445,1,0,0:0:0:0:
160,144,122539,2,0,L|288:112,1,100
256,192,122820,1,8,0:0:0:0:
256,192,122914,1,0,0:0:0:0:
256,192,123101,1,8,0:0:0:0:
192,144,123195,2,0,L|336:96,1,150
256,192,123569,1,0,0:0:0:0:
256,192,123850,1,8,0:0:0:0:
256,192,124132,1,0,0:0:0:0:
256,192,124225,1,8,0:0:0:0:
256,192,124319,1,0,0:0:0:0:
256,192,124413,1,8,0:0:0:0:
256,192,124600,1,0,0:0:0:0:
256,192,124881,1,0,0:0:0:0:
256,192,125068,1,0,0:0:0:0:
256,192,125162,1,0,0:0:0:0:
256,192,125443,1,0,0:0:0:0:
256,192,125724,1,8,0:0:0:0:
256,192,125912,1,0,0:0:0:0:
256,192,126005,1,0,0:0:0:0:
256,192,126193,1,0,0:0:0:0:
160,128,126286,2,0,L|352:96,1,139.999995727539
256,192,126568,1,8,0:0:0:0:
256,192,126661,1,0,0:0:0:0:
256,192,126849,1,8,0:0:0:0:
256,192,126942,1,0,0:0:0:0:
256,192,127223,1,0,0:0:0:0:
256,192,127411,1,8,0:0:0:0:
256,192,127598,1,0,0:0:0:0:
256,192,127879,1,8,0:0:0:0:
256,192,128067,1,0,0:0:0:0:
160,160,128160,2,0,P|384:48|320:80,1,279.999991455078
256,192,128629,1,8,0:0:0:0:
256,192,128722,1,0,0:0:0:0:
256,192,128816,1,8,0:0:0:0:
304,96,128910,2,0,L|432:32,1,139.999995727539
256,192,129191,1,0,0:0:0:0:
176,208,129285,2,0,L|288:128,1,69.9999978637696
256,192,129566,1,0,0:0:0:0:
256,192,129847,1,8,0:0:0:0:
256,192,129940,1,0,0:0:0:0:
256,192,130034,1,8,0:0:0:0:
256,192,130221,1,8,0:0:0:0:
256,192,130503,1,0,0:0:0:0:
256,192,130690,1,8,0:0:0:0:
256,192,130971,1,0,0:0:0:0:
256,192,131158,1,0,0:0:0:0:
256,192,131346,1,0,0:0:0:0:
256,192,131627,1,8,0:0:0:0:
256,192,131721,1,0,0:0:0:0:
256,192,131814,1,8,0:0:0:0:
256,192,131908,1,0,0:0:0:0:
256,192,132189,1,8,0:0:0:0:
256,192,132470,1,8,0:0:0:0:
256,192,132564,1,0,0:0:0:0:
256,192,132657,1,8,0:0:0:0:
256,192,132939,1,8,0:0:0:0:
256,192,133126,1,0,0:0:0:0:
256,192,133220,1,8,0:0:0:0:
256,192,133407,1,8,0:0:0:0:
256,192,133688,1,8,0:0:0:0:
256,192,133969,1,0,0:0:0:0:
256,192,134157,1,8,0:0:0:0:
256,192,134438,1,0,0:0:0:0:
256,192,134625,1,0,0:0:0:0:
256,192,134812,1,0,0:0:0:0:
256,192,135000,1,0,0:0:0:0:
256,192,135093,12,0,135656,0:0:0:0:
256,192,135843,5,8,0:0:0:0:
256,192,136030,1,0,0:0:0:0:
256,192,136311,1,8,0:0:0:0:
256,192,136499,1,0,0:0:0:0:
256,192,136686,1,8,0:0:0:0:
256,192,136967,1,0,0:0:0:0:
256,192,137248,1,0,0:0:0:0:
256,192,137436,1,8,0:0:0:0:
256,192,137529,1,0,0:0:0:0:
256,192,137623,1,8,0:0:0:0:
256,192,137717,1,8,0:0:0:0:
256,192,137811,1,0,0:0:0:0:
256,192,137998,1,8,0:0:0:0:
256,192,138185,1,0,0:0:0:0:
256,192,138279,1,8,0:0:0:0:
256,192,138466,1,0,0:0:0:0:
256,192,138560,1,8,0:0:0:0:
256,192,138654,1,0,0:0:0:0:
256,192,138935,1,8,0:0:0:0:
256,192,139028,1,0,0:0:0:0:
256,192,139216,1,0,0:0:0:0:
256,192,139310,1,8,0:0:0:0:
256,192,139497,1,0,0:0:0:0:
144,128,139591,6,0,L|272:32,1,150.000005722046
256,192,139872,1,8,0:0:0:0:
256,192,140059,1,8,0:0:0:0:
256,192,140246,1,8,0:0:0:0:
256,192,140340,1,0,0:0:0:0:
224,240,140528,1,0,0:0:0:0:
224,240,140621,1,8,0:0:0:0:
224,240,140715,1,0,0:0:0:0:
224,240,140809,1,8,0:0:0:0:
224,240,140902,1,0,0:0:0:0:
224,240,140996,1,8,0:0:0:0:
224,240,141183,1,8,0:0:0:0:
224,240,141371,1,0,0:0:0:0:
224,240,141558,1,8,0:0:0:0:
224,240,141652,1,0,0:0:0:0:
224,240,141839,1,8,0:0:0:0:
224,240,142027,1,0,0:0:0:0:
224,240,142120,1,8,0:0:0:0:
112,144,142214,2,0,L|256:64,1,150.000005722046
224,240,142495,1,8,0:0:0:0:
224,240,142776,1,0,0:0:0:0:
224,240,142870,1,8,0:0:0:0:
224,240,142964,1,8,0:0:0:0:
128,160,143057,2,0,L|272:96,1,150.000005722046
224,240,143338,1,8,0:0:0:0:
224,240,143432,1,0,0:0:0:0:
224,240,143619,1,8,0:0:0:0:
224,240,143713,1,8,0:0:0:0:
224,240,143807,1,8,0:0:0:0:
224,240,143900,1,0,0:0:0:0:
224,240,144088,1,0,0:0:0:0:
224,240,144369,1,0,0:0:0:0:
224,240,144463,1,8,0:0:0:0:
224,240,144556,1,0,0:0:0:0:
224,240,144744,1,0,0:0:0:0:
224,240,145025,1,8,0:0:0:0:
224,240,145118,1,0,0:0:0:0:
224,240,145212,1,0,0:0:0:0:
224,240,145306,1,8,0:0:0:0:
96,208,145400,2,0,L|352:48,1,269.999991760254
224,240,145774,1,0,0:0:0:0:
224,240,145868,1,8,0:0:0:0:
224,240,145962,1,0,0:0:0:0:
224,240,146055,1,8,0:0:0:0:
224,240,146149,1,0,0:0:0:0:
208,144,146243,2,0,L|400:32,1,179.999994506836
224,240,146524,1,0,0:0:0:0:
224,240,146711,1,0,0:0:0:0:
224,240,146805,1,8,0:0:0:0:
224,240,146899,1,0,0:0:0:0:
256,128,146992,2,0,L|432:32,1,179.999994506836
224,240,147273,1,0,0:0:0:0:
224,240,147461,1,0,0:0:0:0:
224,240,147648,1,8,0:0:0:0:
224,240,147836,1,0,0:0:0:0:
224,240,148023,1,8,0:0:0:0:
224,240,148210,1,0,0:0:0:0:
224,240,148398,1,0,0:0:0:0:
240,176,148491,2,0,L|416:64,1,179.999994506836
224,240,148772,1,0,0:0:0:0:
224,240,148866,1,8,0:0:0:0:
224,240,148960,1,0,0:0:0:0:
224,176,149054,2,0,L|384:64,1,179.999994506836
224,240,149335,1,8,0:0:0:0:
224,240,149522,1,0,0:0:0:0:
224,240,149709,1,8,0:0:0:0:
224,240,149897,1,0,0:0:0:0:
224,240,150084,1,8,0:0:0:0:
224,240,150178,1,0,0:0:0:0:
224,240,150271,1,8,0:0:0:0:
224,240,150365,1,8,0:0:0:0:
224,240,150459,1,0,0:0:0:0:
224,240,150553,1,8,0:0:0:0:
224,240,150646,1,8,0:0:0:0:
224,240,150740,1,8,0:0:0:0:
224,240,150927,1,8,0:0:0:0:
224,240,151302,1,0,0:0:0:0:
224,240,151396,1,0,0:0:0:0:
224,240,151677,1,8,0:0:0:0:
224,240,151771,1,0,0:0:0:0:
224,240,151864,1,8,0:0:0:0:
224,240,152052,1,8,0:0:0:0:
224,240,152145,1,0,0:0:0:0:
224,240,152426,1,8,0:0:0:0:
224,240,152614,1,0,0:0:0:0:
224,240,152801,1,8,0:0:0:0:
224,240,152895,1,0,0:0:0:0:
224,240,152989,1,0,0:0:0:0:
224,240,153082,1,8,0:0:0:0:
224,240,153270,1,0,0:0:0:0:
224,240,153457,1,8,0:0:0:0:
224,240,153738,1,0,0:0:0:0:
224,240,153832,1,8,0:0:0:0:
224,240,153925,1,0,0:0:0:0:
224,240,154113,1,0,0:0:0:0:
224,240,154300,1,8,0:0:0:0:
224,240,154488,1,8,0:0:0:0:
224,240,154769,1,8,0:0:0:0:
192,176,154862,2,0,L|336:96,1,150.000005722046
224,240,155143,1,8,0:0:0:0:
224,240,155237,1,8,0:0:0:0:
224,240,155425,1,0,0:0:0:0:
224,240,155518,1,8,0:0:0:0:
224,240,155612,1,0,0:0:0:0:
224,240,155893,1,0,0:0:0:0:
224,240,155987,1,8,0:0:0:0:
224,240,156080,1,0,0:0:0:0:
224,240,156174,1,8,0:0:0:0:
224,240,156268,1,0,0:0:0:0:
224,240,156549,1,8,0:0:0:0:
224,240,156643,1,0,0:0:0:0:
224,240,156830,1,8,0:0:0:0:
224,240,157017,1,0,0:0:0:0:
224,240,157205,1,0,0:0:0:0:
224,240,157392,1,8,0:0:0:0:
224,240,157579,1,8,0:0:0:0:
224,240,157673,1,8,0:0:0:0:
224,240,157861,1,0,0:0:0:0:
224,240,157954,1,8,0:0:0:0:
224,240,158142,1,8,0:0:0:0:
224,240,158329,1,8,0:0:0:0:
224,240,158423,1,0,0:0:0:0:
224,240,158516,1,8,0:0:0:0:
224,240,158610,1,8,0:0:0:0:
224,240,158797,1,0,0:0:0:0:
224,240,158891,1,0,0:0:0:0:
224,240,158985,1,8,0:0:0:0:
224,240,159172,1,0,0:0:0:0:
224,240,159360,1,8,0:0:0:0:
224,240,159547,1,0,0:0:0:0:
224,240,159734,1,8,0:0:0:0:
48,176,159828,2,0,L|208:80,1,150
224,240,160203,1,8,0:0:0:0:
224,240,160390,1,0,0:0:0:0:
224,240,160578,1,8,0:0:0:0:
224,240,160952,1,8,0:0:0:0:
224,240,161046,1,0,0:0:0:0:
224,240,161140,1,8,0:0:0:0:
224,240,161421,1,8,0:0:0:0:
224,240,161889,1,0,0:0:0:0:
224,240,162077,1,8,0:0:0:0:
224,240,162264,1,8,0:0:0:0:
224,240,162732,1,0,0:0:0:0:
224,240,162920,1,8,0:0:0:0:
224,240,163107,1,8,0:0:0:0:
224,240,163576,1,0,0:0:0:0:
224,240,163763,1,8,0:0:0:0:
224,240,163950,1,0,0:0:0:0:
224,240,164419,1,0,0:0:0:0:
224,240,164606,1,8,0:0:0:0:
224,240,164794,1,0,0:0:0:0:
224,240,165168,1,0,0:0:0:0:
224,240,165450,1,8,0:0:0:0:
224,240,165637,1,0,0:0:0:0:
224,240,166012,1,0,0:0:0:0:
224,240,166199,1,8,0:0:0:0:
224,240,166480,1,8,0:0:0:0:
224,240,166855,1,0,0:0:0:0:
224,240,166949,1,0,0:0:0:0:
224,240,167230,1,8,0:0:0:0:
224,240,167323,1,0,0:0:0:0:
224,240,167511,1,8,0:0:0:0:
224,240,167698,1,0,0:0:0:0:
224,240,167886,1,8,0:0:0:0:
224,240,168073,1,0,0:0:0:0:
224,240,168260,1,0,0:0:0:0:
224,240,168541,1,0,0:0:0:0:
224,240,168635,1,8,0:0:0:0:
224,240,168729,1,0,0:0:0:0:
224,240,168822,1,8,0:0:0:0:
224,240,168916,1,0,0:0:0:0:
224,240,169010,1,8,0:0:0:0:
224,240,169104,1,0,0:0:0:0:
224,240,169197,1,0,0:0:0:0:
224,240,169291,1,8,0:0:0:0:
224,240,169385,1,0,0:0:0:0:
224,240,169478,1,8,0:0:0:0:
224,240,169572,1,0,0:0:0:0:
224,240,169666,1,8,0:0:0:0:
224,240,169759,1,0,0:0:0:0:
224,240,169853,1,8,0:0:0:0:
224,240,169947,1,0,0:0:0:0:
224,240,170228,1,8,0:0:0:0:
224,240,170696,1,0,0:0:0:0:
224,240,171071,1,0,0:0:0:0:
224,240,171352,1,0,0:0:0:0:
224,240,171633,1,8,0:0:0:0:
224,240,171914,1,8,0:0:0:0:
224,240,172195,1,0,0:0:0:0:
224,240,172476,1,0,0:0:0:0:
224,240,172757,1,8,0:0:0:0:
224,240,173039,1,0,0:0:0:0:
224,240,173320,1,8,0:0:0:0:
224,240,173601,1,8,0:0:0:0:
224,240,174350,1,0,0:0:0:0:
224,240,174912,1,0,0:0:0:0:
224,240,175287,1,8,0:0:0:0:
224,240,175943,1,0,0:0:0:0:
224,240,176130,1,0,0:0:0:0:
224,240,176599,1,8,0:0:0:0:
224,240,176974,1,8,0:0:0:0:
224,240,177161,1,0,0:0:0:0:
224,240,177348,1,8,0:0:0:0:
224,240,177536,1,0,0:0:0:0:
224,240,177817,1,8,0:0:0:0:
224,240,178285,1,0,0:0:0:0:
224,240,178473,1,8,0:0:0:0:
224,240,178660,1,0,0:0:0:0:
224,240,178941,1,8,0:0:0:0:
224,240,179129,1,0,0:0:0:0:
224,240,179316,1,8,0:0:0:0:
224,240,179503,1,0,0:0:0:0:
224,240,179691,1,8,0:0:0:0:
224,240,179878,1,0,0:0:0:0:
224,240,180065,1,0,0:0:0:0:
224,240,180253,1,0,0:0:0:0:
224,240,180347,1,0,0:0:0:0:
224,240,180534,1,0,0:0:0:0:
224,240,180721,1,0,0:0:0:0:
224,240,180909,1,0,0:0:0:0:
224,240,181190,1,0,0:0:0:0:
224,240,181377,1,0,0:0:0:0:
224,240,181565,1,0,0:0:0:0:
224,240,181939,1,8,0:0:0:0:
224,240,182127,1,8,0:0:0:0:
224,240,182314,1,8,0:0:0:0:
224,240,182595,1,8,0:0:0:0:
224,240,182783,1,8,0:0:0:0:
224,240,182876,1,8,0:0:0:0:
224,240,183064,1,8,0:0:0:0:
224,240,183251,1,8,0:0:0:0:
224,240,183438,1,8,0:0:0:0:
224,240,183626,1,8,0:0:0:0:
224,240,183813,1,8,0:0:0:0:
224,240,184000,1,0,0:0:0:0:
224,240,184188,1,0,0:0:0:0:
224,240,184469,1,0,0:0:0:0:
224,240,184563,1,8,0:0:0:0:
224,240,184750,1,0,0:0:0:0:
224,240,185031,1,0,0:0:0:0:
224,240,185312,1,8,0:0:0:0:
224,240,185406,1,0,0:0:0:0:
224,240,185500,1,8,0:0:0:0:
224,240,185593,1,0,0:0:0:0:
224,240,185874,1,0,0:0:0:0:
224,240,186155,1,0,0:0:0:0:
224,240,186249,1,8,0:0:0:0:
224,240,186343,1,0,0:0:0:0:
224,240,186718,1,8,0:0:0:0:
224,240,186905,1,0,0:0:0:0:
224,240,186999,1,8,0:0:0:0:
224,240,187092,1,0,0:0:0:0:
224,240,187186,1,8,0:0:0:0:
224,240,187467,1,0,0:0:0:0:
224,240,187748,1,8,0:0:0:0:
224,240,187936,1,8,0:0:0:0:
224,240,188123,1,0,0:0:0:0:
224,240,188310,1,0,0:0:0:0:
224,240,188685,1,8,0:0:0:0:
80,144,188779,2,0,L|144:80,1,75.0000028610231
224,240,189060,1,8,0:0:0:0:
208,128,189154,2,0,L|288:32,1,112.500004291535
224,240,189528,1,0,0:0:0:0:
304,144,189622,2,0,L|368:64,1,75.0000028610231
224,240,189903,1,0,0:0:0:0:
336,192,189997,2,0,L|432:96,1,112.500004291535
224,240,190372,1,8,0:0:0:0:
352,272,190465,2,0,L|432:208,1,75.0000028610231
256,240,190746,1,8,0:0:0:0:
176,176,190840,2,0,L|240:112,1,75.0000028610231
256,240,191121,1,0,0:0:0:0:
320,160,191215,2,0,L|416:80,1,112.500004291535
256,240,191590,1,0,0:0:0:0:
352,240,191683,2,0,L|416:176,1,75.0000028610231
256,240,191964,1,8,0:0:0:0:
256,240,192058,1,8,0:0:0:0:
256,240,192152,1,0,0:0:0:0:
96,176,192245,2,0,L|160:96,1,75.0000028610231
256,240,192526,1,0,0:0:0:0:
176,208,192620,2,0,L|240:144,1,75.0000028610231
256,240,192901,1,8,0:0:0:0:
256,176,192995,2,0,L|448:32,1,225.000008583069
256,192,193651,12,0,194400,0:0:0:0:
256,240,194494,5,8,0:0:0:0:
80,224,194588,2,0,L|144:144,1,75.0000028610231
256,240,194869,1,0,0:0:0:0:
224,208,194962,2,0,L|320:96,1,112.500004291535
256,240,195337,1,8,0:0:0:0:
256,192,195431,12,0,196086,0:0:0:0:
256,240,196180,5,8,0:0:0:0:
128,240,196274,2,0,L|224:144,1,112.500004291535
256,240,196649,1,8,0:0:0:0:
208,240,196743,2,0,L|272:176,1,75.0000028610231
256,240,197024,1,0,0:0:0:0:
320,272,197117,2,0,L|384:192,1,75.0000028610231
256,240,197398,1,0,0:0:0:0:
288,256,197492,2,0,L|400:160,1,112.500004291535
256,240,197867,1,8,0:0:0:0:
352,208,197961,2,0,L|448:128,1,112.500004291535
256,240,198335,1,8,0:0:0:0:
384,176,198429,2,0,L|432:112,1,75.0000028610231
256,240,198710,1,0,0:0:0:0:
320,192,198804,2,0,L|384:144,1,50
256,240,198991,1,0,0:0:0:0:
256,240,199085,1,8,0:0:0:0:
368,208,199179,2,0,L|448:112,1,100
256,240,199460,1,0,0:0:0:0:
256,240,199553,1,0,0:0:0:0:
400,144,199647,2,0,L|448:96,1,50
256,240,199834,1,8,0:0:0:0:
256,240,199928,1,8,0:0:0:0:
384,128,200022,2,0,L|448:112,1,50
256,240,200209,1,8,0:0:0:0:
256,240,200397,1,0,0:0:0:0:
416,160,200490,2,0,L|448:112,1,50
256,240,200678,1,8,0:0:0:0:
400,192,200771,2,0,L|464:96,1,100
256,240,201052,1,0,0:0:0:0:
448,160,201146,2,0,L|464:96,1,50
256,240,201333,1,0,0:0:0:0:
448,160,201427,2,0,L|464:96,1,50
256,240,201615,1,8,0:0:0:0:
256,240,201802,1,8,0:0:0:0:
448,144,201896,2,0,L|464:80,1,50
256,240,202083,1,0,0:0:0:0:
448,144,202177,2,0,L|496:48,1,100
256,240,202458,1,0,0:0:0:0:
464,128,202551,2,0,L|288:64,1,150
256,240,202926,1,8,0:0:0:0:
208,160,203020,2,0,L|320:144,1,100
256,240,203301,1,8,0:0:0:0:
464,272,203395,2,0,L|336:160,1,150
256,240,203769,1,8,0:0:0:0:
256,240,203863,1,0,0:0:0:0:
208,176,203957,2,0,L|256:144,1,50
256,240,204144,1,0,0:0:0:0:
256,240,204238,1,8,0:0:0:0:
240,128,204332,2,0,L|288:80,1,50
256,240,204519,1,8,0:0:0:0:
288,144,204613,2,0,L|400:80,1,100
256,240,204894,1,0,0:0:0:0:
256,240,205081,1,0,0:0:0:0:
48,240,205175,2,0,L|160:160,1,100
256,240,205456,1,0,0:0:0:0:
256,240,205550,1,8,0:0:0:0:
256,192,205643,12,0,206112,0:0:0:0:
256,240,206205,5,8,0:0:0:0:
256,240,206393,1,0,0:0:0:0:
16,192,206486,2,0,L|192:128,1,150
256,240,206861,1,0,0:0:0:0:
256,240,207049,1,8,0:0:0:0:
256,240,207142,1,0,0:0:0:0:
176,128,207236,2,0,L|256:96,1,59.9999981689454
256,240,207423,1,0,0:0:0:0:
240,144,207517,2,0,L|352:80,1,119.999996337891
256,240,207798,1,0,0:0:0:0:
256,240,207892,1,8,0:0:0:0:
256,240,207986,1,0,0:0:0:0:
320,128,208079,2,0,L|384:112,1,59.9999981689454
256,240,208267,1,0,0:0:0:0:
256,240,208454,1,0,0:0:0:0:
352,128,208548,2,0,L|464:64,1,119.999996337891
256,240,208829,1,0,0:0:0:0:
176,176,208922,2,0,L|256:144,1,59.9999981689454
256,240,209110,1,8,0:0:0:0:
256,240,209204,1,0,0:0:0:0:
256,144,209297,2,0,L|384:96,1,119.999996337891
256,240,209578,1,8,0:0:0:0:
256,240,209672,1,0,0:0:0:0:
256,240,209859,1,0,0:0:0:0:
256,240,210047,1,0,0:0:0:0:
256,240,210140,1,0,0:0:0:0:
256,240,210234,1,0,0:0:0:0:
256,240,210422,1,0,0:0:0:0:
256,240,210515,1,0,0:0:0:0:
256,240,210609,1,0,0:0:0:0:
256,240,210703,1,8,0:0:0:0:
256,240,210796,1,0,0:0:0:0:
256,240,210890,1,8,0:0:0:0:
256,240,210984,1,0,0:0:0:0:
256,240,211077,1,8,0:0:0:0:
256,240,211171,1,0,0:0:0:0:
256,240,211265,1,0,0:0:0:0:
256,240,211358,1,0,0:0:0:0:
256,240,211452,1,0,0:0:0:0:
256,240,211546,1,0,0:0:0:0:
256,240,211640,1,0,0:0:0:0:
256,240,211733,1,0,0:0:0:0:
256,240,211827,1,0,0:0:0:0:
256,240,211921,1,8,0:0:0:0:
256,240,212014,1,0,0:0:0:0:
256,240,212108,1,8,0:0:0:0:
256,240,212202,1,0,0:0:0:0:
256,240,212295,1,0,0:0:0:0:
256,240,212483,1,0,0:0:0:0:
256,240,212764,1,8,0:0:0:0:
256,240,212858,1,8,0:0:0:0:
256,240,213045,1,0,0:0:0:0:
256,240,213139,1,8,0:0:0:0:
256,240,213232,1,0,0:0:0:0:
256,240,213326,1,8,0:0:0:0:
256,240,213420,1,0,0:0:0:0:
256,240,213607,1,8,0:0:0:0:
256,240,213701,1,8,0:0:0:0:
256,240,213794,1,0,0:0:0:0:
256,240,213888,1,8,0:0:0:0:
256,240,213982,1,0,0:0:0:0:
256,240,214076,1,0,0:0:0:0:
256,240,214169,1,0,0:0:0:0:
256,240,214450,1,8,0:0:0:0:
256,240,214544,1,0,0:0:0:0:
256,240,214638,1,8,0:0:0:0:
256,240,214731,1,0,0:0:0:0:
256,240,214825,1,8,0:0:0:0:
256,240,215012,1,8,0:0:0:0:
208,176,215106,2,0,L|400:48,1,225.000008583069
256,240,215481,1,8,0:0:0:0:
256,240,215575,1,0,0:0:0:0:
256,240,215949,1,8,0:0:0:0:
256,240,216043,1,0,0:0:0:0:
256,240,216324,1,8,0:0:0:0:
256,240,216418,1,0,0:0:0:0:
256,240,216699,1,8,0:0:0:0:
256,240,216793,1,0,0:0:0:0:
272,240,217074,1,0,0:0:0:0:
272,224,217167,1,8,0:0:0:0:
272,224,217261,1,0,0:0:0:0:
272,224,217355,1,8,0:0:0:0:
272,224,217448,1,0,0:0:0:0:
272,224,217636,1,8,0:0:0:0:
272,224,217917,1,0,0:0:0:0:
272,224,218104,1,8,0:0:0:0:
272,224,218198,1,0,0:0:0:0:
288,208,218292,1,8,0:0:0:0:
288,208,218385,1,8,0:0:0:0:
288,208,218479,1,0,0:0:0:0:
288,208,218573,1,8,0:0:0:0:
336,176,218666,1,0,0:0:0:0:
352,160,218760,1,8,0:0:0:0:
352,160,218854,1,8,0:0:0:0:
352,160,218947,1,0,0:0:0:0:
352,160,219041,1,8,0:0:0:0:
352,160,219135,1,0,0:0:0:0:
352,160,219229,1,8,0:0:0:0:
352,160,219510,1,0,0:0:0:0:
352,160,219697,1,8,0:0:0:0:
352,160,219791,1,0,0:0:0:0:
352,160,219884,1,8,0:0:0:0:
352,160,219978,1,0,0:0:0:0:
352,160,220072,1,8,0:0:0:0:
352,160,220259,1,8,0:0:0:0:
352,160,220353,1,0,0:0:0:0:
352,160,220447,1,8,0:0:0:0:
352,160,220540,1,0,0:0:0:0:
352,160,220634,1,8,0:0:0:0:
352,160,220728,1,0,0:0:0:0:
352,160,220915,1,0,0:0:0:0:
352,160,221196,1,8,0:0:0:0:
352,160,221290,1,0,0:0:0:0:
352,160,221477,1,0,0:0:0:0:
352,160,221571,1,0,0:0:0:0:
352,160,221665,1,8,0:0:0:0:
352,160,221758,1,0,0:0:0:0:
352,160,221852,1,0,0:0:0:0:
352,160,221946,1,8,0:0:0:0:
352,160,222039,1,0,0:0:0:0:
352,160,222227,1,8,0:0:0:0:
128,224,222320,2,0,L|240:96,1,150.000005722046
352,160,222601,1,0,0:0:0:0:
352,160,222695,1,8,0:0:0:0:
352,160,222976,1,0,0:0:0:0:
352,160,223070,1,8,0:0:0:0:
352,160,223164,1,0,0:0:0:0:
352,160,223257,1,8,0:0:0:0:
352,160,223351,1,0,0:0:0:0:
352,160,223445,1,8,0:0:0:0:
352,160,223538,1,8,0:0:0:0:
352,160,223632,1,0,0:0:0:0:
352,160,223726,1,0,0:0:0:0:
352,160,223819,1,8,0:0:0:0:
352,160,223913,1,0,0:0:0:0:
352,160,224007,1,0,0:0:0:0:
352,160,224101,1,8,0:0:0:0:
352,160,224194,1,0,0:0:0:0:
352,160,224288,1,8,0:0:0:0:
352,160,224382,1,0,0:0:0:0:
352,160,224475,1,8,0:0:0:0:
352,160,224569,1,0,0:0:0:0:
352,160,224663,1,8,0:0:0:0:
352,160,224756,1,0,0:0:0:0:
352,160,224850,1,0,0:0:0:0:
352,160,225037,1,0,0:0:0:0:
352,160,225225,1,8,0:0:0:0:
352,160,225412,1,0,0:0:0:0:
352,160,225506,1,8,0:0:0:0:
352,160,225600,1,0,0:0:0:0:
352,160,225693,1,8,0:0:0:0:
352,160,225787,1,0,0:0:0:0:
352,160,225881,1,8,0:0:0:0:
352,160,225974,1,0,0:0:0:0:
352,160,226162,1,8,0:0:0:0:
352,160,226255,1,0,0:0:0:0:
352,160,226349,1,8,0:0:0:0:
352,160,226443,1,0,0:0:0:0:
352,160,226537,1,8,0:0:0:0:
352,160,226630,1,8,0:0:0:0:
352,160,226724,1,8,0:0:0:0:
352,160,226818,1,0,0:0:0:0:
352,160,226911,1,0,0:0:0:0:
352,160,227099,1,8,0:0:0:0:
352,160,227192,1,0,0:0:0:0:
352,160,227286,1,0,0:0:0:0:
352,160,227380,1,0,0:0:0:0:
352,160,227473,1,0,0:0:0:0:
352,160,227567,1,0,0:0:0:0:
352,160,227661,1,0,0:0:0:0:
352,160,227755,1,8,0:0:0:0:
352,160,227942,1,0,0:0:0:0:
352,160,228036,1,0,0:0:0:0:
352,160,228129,1,8,0:0:0:0:
352,160,228223,1,0,0:0:0:0:
352,160,228410,1,8,0:0:0:0:
352,160,228504,1,0,0:0:0:0:
352,160,228598,1,8,0:0:0:0:
352,160,228691,1,0,0:0:0:0:
144,176,228785,2,0,L|208:96,1,75.0000028610231
352,160,228972,1,8,0:0:0:0:
240,208,229066,2,0,L|320:64,1,150.000005722046
352,160,229347,1,0,0:0:0:0:
112,128,229441,2,0,L|336:32,1,225.000008583069
352,160,229816,1,8,0:0:0:0:
208,256,229909,2,0,L|304:128,1,150.000005722046
384,160,230190,1,0,0:0:0:0:
64,112,230284,2,0,L|240:64,1,150.000005722046
384,160,230565,1,8,0:0:0:0:
384,160,230659,1,8,0:0:0:0:
288,64,230753,2,0,L|288:272,1,150.000005722046
384,160,231034,1,0,0:0:0:0:
384,160,231127,1,0,0:0:0:0:
96,256,231221,2,0,L|240:112,1,150.000005722046
384,160,231502,1,8,0:0:0:0:
144,128,231596,2,0,L|304:80,1,150.000005722046
400,160,231877,1,0,0:0:0:0:
192,256,231971,2,0,L|336:160,1,150.000005722046
368,128,232252,1,0,0:0:0:0:
368,128,232345,1,0,0:0:0:0:
368,128,232439,1,0,0:0:0:0:
368,128,232533,1,0,0:0:0:0:
368,128,232626,1,0,0:0:0:0:
368,128,232720,1,8,0:0:0:0:
176,192,232814,2,0,L|336:32,1,189.999994926453
368,128,233095,1,8,0:0:0:0:
368,128,233189,1,0,0:0:0:0:
368,128,233282,1,8,0:0:0:0:
368,128,233376,1,0,0:0:0:0:
368,128,233470,1,8,0:0:0:0:
368,128,233563,1,0,0:0:0:0:
368,128,233657,1,0,0:0:0:0:
368,128,233844,1,8,0:0:0:0:
368,128,233938,1,0,0:0:0:0:
368,128,234126,1,8,0:0:0:0:
368,128,234219,1,0,0:0:0:0:
368,128,234313,1,8,0:0:0:0:
368,128,234407,1,0,0:0:0:0:
208,112,234500,2,0,L|288:176,1,94.9999974632264
368,128,234688,1,8,0:0:0:0:
368,128,234875,1,0,0:0:0:0:
368,128,235062,1,8,0:0:0:0:
368,128,235250,1,0,0:0:0:0:
368,128,235437,1,8,0:0:0:0:
368,128,235625,1,0,0:0:0:0:
368,128,235718,1,0,0:0:0:0:
368,128,235906,1,8,0:0:0:0:
368,128,236093,1,0,0:0:0:0:
368,128,236187,1,0,0:0:0:0:
368,128,236468,1,8,0:0:0:0:
368,128,236562,1,8,0:0:0:0:
368,128,236655,1,0,0:0:0:0:
368,128,236843,1,0,0:0:0:0:
368,128,236936,1,0,0:0:0:0:
160,272,237030,2,0,L|288:160,1,150.000005722046
368,128,237311,1,0,0:0:0:0:
368,128,237498,1,8,0:0:0:0:
368,128,237780,1,0,0:0:0:0:
368,128,238154,1,0,0:0:0:0:
368,128,238529,1,0,0:0:0:0:
368,128,238904,1,8,0:0:0:0:
368,128,238998,1,0,0:0:0:0:
368,128,239091,1,8,0:0:0:0:
368,128,239185,1,0,0:0:0:0:
368,128,239279,1,0,0:0:0:0:
368,128,239466,1,0,0:0:0:0:
368,128,239653,1,0,0:0:0:0:
368,128,239934,1,8,0:0:0:0:
368,128,240028,1,0,0:0:0:0:
368,128,240122,1,8,0:0:0:0:
368,128,240309,1,0,0:0:0:0:
368,128,240590,1,0,0:0:0:0:
368,128,240778,1,0,0:0:0:0:
368,128,240871,1,8,0:0:0:0:
368,128,240965,1,0,0:0:0:0:
368,128,241059,1,8,0:0:0:0:
368,128,241152,1,0,0:0:0:0:
368,128,241246,1,0,0:0:0:0:
368,128,241527,1,0,0:0:0:0:
368,128,241996,1,8,0:0:0:0:
368,128,242089,1,0,0:0:0:0:
368,128,242183,1,8,0:0:0:0:
368,128,242370,1,8,0:0:0:0:
368,128,242464,1,8,0:0:0:0:
368,128,242651,1,0,0:0:0:0:
368,128,242745,1,8,0:0:0:0:
368,128,242839,1,0,0:0:0:0:
368,128,242933,1,8,0:0:0:0:
368,128,243026,1,0,0:0:0:0:
368,128,243120,1,8,0:0:0:0:
368,128,243214,1,0,0:0:0:0:
368,128,243307,1,8,0:0:0:0:
368,128,243401,1,0,0:0:0:0:
368,128,243495,1,8,0:0:0:0:
368,128,243682,1,0,0:0:0:0:
368,128,243869,1,8,0:0:0:0:
368,128,243963,1,0,0:0:0:0:
368,128,244057,1,8,0:0:0:0:
368,128,244151,1,0,0:0:0:0:
368,128,244525,1,0,0:0:0:0:
368,128,244806,1,8,0:0:0:0:
368,128,245087,1,0,0:0:0:0:
368,128,245275,1,8,0:0:0:0:
368,128,245650,1,0,0:0:0:0:
368,128,246024,1,8,0:0:0:0:
368,128,246399,1,0,0:0:0:0:
368,128,246587,1,8,0:0:0:0:
368,128,246868,1,0,0:0:0:0:
368,128,247242,1,8,0:0:0:0:
368,128,247711,1,0,0:0:0:0:
368,128,248086,1,8,0:0:0:0:
368,128,248273,1,0,0:0:0:0:
368,128,248554,1,8,0:0:0:0:
368,128,248929,1,0,0:0:0:0:
368,128,249397,1,8,0:0:0:0:
368,128,249866,1,0,0:0:0:0:
368,128,249959,1,8,0:0:0:0:
368,128,250334,1,0,0:0:0:0:
