osu file format v14

[General]
AudioFilename: audio.mp3
AudioLeadIn: 0
PreviewTime: -1
Countdown: 1
SampleSet: None
StackLeniency: 0.7
Mode: 3
LetterboxInBreaks: 0
SpecialStyle: 0
WidescreenStoryboard: 1

[Editor]
Bookmarks: 34500,42951,47387,50768,54148
DistanceSpacing: 1
BeatDivisor: 4
GridSize: 16
TimelineZoom: 1

[Metadata]
Title:Only my railgun
TitleUnicode:Only my railgun
Artist:fripSide
ArtistUnicode:fripSide
Creator:Rin Adler
Version:HardMania
Source:
Tags:
BeatmapID:1319522
BeatmapSetID:625973

[Difficulty]
HPDrainRate:5
CircleSize:6
OverallDifficulty:5
ApproachRate:7
SliderMultiplier:2
SliderTickRate:2

[Events]
//Background and Video events
0,0,"91b90e63d07a93fecb834c7018589552a9cd02b5_hq.jpg",0,0
//Break Periods
2,160309,169328
//Storyboard Layer 0 (Background)
//Storyboard Layer 1 (Fail)
//Storyboard Layer 2 (Pass)
//Storyboard Layer 3 (Foreground)
//Storyboard Sound Samples

[TimingPoints]
4113,374.766666666666,4,2,0,30,1,0
14086,-66.6666666666667,4,2,0,30,0,0
20818,-76.9230769230769,4,2,0,30,0,0
24182,-66.6666666666667,4,2,0,30,0,0
25983,-100,4,2,0,30,0,0
34281,-133.333333333333,4,2,0,30,0,0
40947,-100,4,2,0,30,0,0
47681,-66.6666666666667,4,2,0,30,0,0
50946,-100,4,2,0,30,0,0
54379,-66.6666666666667,4,2,0,30,0,0
62845,-62.5,4,2,0,30,0,0
66077,-66.6666666666667,4,2,0,30,0,0
76145,-58.8235294117647,4,2,0,30,0,0
89610,-100,4,2,0,30,0,0
96308,-133.333333333333,4,2,0,30,0,0
103038,-100,4,2,0,30,0,0
109705,-76.9230769230769,4,2,0,30,0,0
116505,-100,4,2,0,30,0,0
124902,-71.4285714285714,4,2,0,30,0,0
131635,-66.6666666666667,4,2,0,30,0,0
138235,-66.6666666666667,4,2,0,30,0,0
145036,-55.5555555555556,4,2,0,30,0,0
149166,-66.6666666666667,4,2,0,30,0,0
156982,-100,4,2,0,30,0,0
170232,-133.333333333333,4,2,0,30,0,0
180231,-100,4,2,0,30,0,0
185331,-133.333333333333,4,2,0,30,0,0
198732,-100,4,2,0,30,0,0
207095,-83.3333333333333,4,2,0,30,0,0
212095,-66.6666666666667,4,2,0,30,0,0
218829,-62.5,4,2,0,30,0,0
222127,-66.6666666666667,4,2,0,30,0,0
225493,-66.6666666666667,4,2,0,30,0,0
232291,-52.6315789473684,4,2,0,30,0,0
235657,-66.6666666666667,4,2,0,30,0,0
238954,-66.6666666666667,4,2,0,30,0,0
240722,-100,4,2,0,30,0,0
243952,-66.6666666666667,4,2,0,30,0,0

[HitObjects]
298,192,14138,5,0,0:0:0:0:
128,192,14138,128,0,14606:0:0:0:0:
384,192,14231,1,0,0:0:0:0:
469,192,14325,1,0,0:0:0:0:
298,192,14419,1,0,0:0:0:0:
384,192,14887,1,0,0:0:0:0:
42,192,14887,128,0,15449:0:0:0:0:
298,192,15074,1,0,0:0:0:0:
469,192,15168,1,0,0:0:0:0:
298,192,15262,1,0,0:0:0:0:
384,192,15637,1,0,0:0:0:0:
128,192,15637,128,0,16199:0:0:0:0:
298,192,15824,1,0,0:0:0:0:
469,192,15918,1,0,0:0:0:0:
298,192,16011,1,0,0:0:0:0:
469,192,16105,1,0,0:0:0:0:
384,192,16480,1,0,0:0:0:0:
128,192,16480,1,0,0:0:0:0:
298,192,16573,1,0,0:0:0:0:
469,192,16761,1,0,0:0:0:0:
384,192,17042,1,0,0:0:0:0:
213,192,17042,1,0,0:0:0:0:
298,192,17136,1,0,0:0:0:0:
469,192,17323,1,0,0:0:0:0:
128,192,17510,1,0,0:0:0:0:
384,192,17510,1,0,0:0:0:0:
213,192,17885,1,0,0:0:0:0:
298,192,17885,1,0,0:0:0:0:
42,192,18354,1,0,0:0:0:0:
469,192,18354,1,0,0:0:0:0:
384,192,18728,1,0,0:0:0:0:
128,192,18728,128,0,19103:0:0:0:0:
213,192,19103,128,0,19572:0:0:0:0:
469,192,19384,1,0,0:0:0:0:
384,192,19478,1,0,0:0:0:0:
128,192,19572,1,0,0:0:0:0:
298,192,19665,1,0,0:0:0:0:
469,192,19853,1,0,0:0:0:0:
213,192,19853,128,0,20321:0:0:0:0:
384,192,20040,1,0,0:0:0:0:
298,192,20227,1,0,0:0:0:0:
469,192,20321,1,0,0:0:0:0:
384,192,20509,1,0,0:0:0:0:
298,192,20790,1,0,0:0:0:0:
42,192,20790,128,0,21539:0:0:0:0:
469,192,20883,1,0,0:0:0:0:
298,192,20977,1,0,0:0:0:0:
469,192,20977,1,0,0:0:0:0:
298,192,21071,1,0,0:0:0:0:
128,192,21445,128,0,22289:0:0:0:0:
384,192,21539,1,0,0:0:0:0:
298,192,21633,1,0,0:0:0:0:
469,192,21727,1,0,0:0:0:0:
298,192,21727,1,0,0:0:0:0:
469,192,21820,1,0,0:0:0:0:
298,192,21914,1,0,0:0:0:0:
384,192,22289,1,0,0:0:0:0:
213,192,22289,128,0,23038:0:0:0:0:
298,192,22476,1,0,0:0:0:0:
384,192,22476,1,0,0:0:0:0:
298,192,22570,1,0,0:0:0:0:
384,192,22663,1,0,0:0:0:0:
298,192,22757,1,0,0:0:0:0:
469,192,23132,1,0,0:0:0:0:
42,192,23132,1,0,0:0:0:0:
298,192,23226,1,0,0:0:0:0:
128,192,23226,1,0,0:0:0:0:
469,192,23319,1,0,0:0:0:0:
213,192,23319,1,0,0:0:0:0:
298,192,23413,1,0,0:0:0:0:
384,192,23507,1,0,0:0:0:0:
298,192,23694,1,0,0:0:0:0:
469,192,23788,1,0,0:0:0:0:
42,192,23881,1,0,0:0:0:0:
384,192,24069,1,0,0:0:0:0:
298,192,24256,128,0,24725:0:0:0:0:
128,192,24256,128,0,24818:0:0:0:0:
469,192,24912,1,0,0:0:0:0:
213,192,24912,1,0,0:0:0:0:
384,192,25006,1,0,0:0:0:0:
298,192,25099,1,0,0:0:0:0:
384,192,25287,1,0,0:0:0:0:
128,192,25287,1,0,0:0:0:0:
298,192,25474,1,0,0:0:0:0:
213,192,25474,128,0,25849:0:0:0:0:
469,192,25662,1,0,0:0:0:0:
384,192,25849,1,0,0:0:0:0:
42,192,25849,128,0,26317:0:0:0:0:
298,192,26036,1,0,0:0:0:0:
469,192,26224,1,0,0:0:0:0:
384,192,26317,1,0,0:0:0:0:
128,192,26317,128,0,26786:0:0:0:0:
298,192,26505,1,0,0:0:0:0:
469,192,26692,1,0,0:0:0:0:
213,192,26786,128,0,27161:0:0:0:0:
384,192,26880,1,0,0:0:0:0:
298,192,27067,1,0,0:0:0:0:
469,192,27161,1,0,0:0:0:0:
128,192,27254,1,0,0:0:0:0:
384,192,27535,1,0,0:0:0:0:
213,192,27535,1,0,0:0:0:0:
298,192,27629,1,0,0:0:0:0:
469,192,27723,1,0,0:0:0:0:
42,192,27723,1,0,0:0:0:0:
298,192,27723,1,0,0:0:0:0:
469,192,27816,1,0,0:0:0:0:
128,192,27910,1,0,0:0:0:0:
213,192,28191,1,0,0:0:0:0:
384,192,28191,1,0,0:0:0:0:
298,192,28379,1,0,0:0:0:0:
42,192,28379,128,0,29034:0:0:0:0:
469,192,28472,1,0,0:0:0:0:
298,192,28566,1,0,0:0:0:0:
384,192,28660,1,0,0:0:0:0:
128,192,29034,1,0,0:0:0:0:
298,192,29034,1,0,0:0:0:0:
469,192,29128,1,0,0:0:0:0:
213,192,29222,1,0,0:0:0:0:
298,192,29222,1,0,0:0:0:0:
469,192,29316,1,0,0:0:0:0:
298,192,29409,1,0,0:0:0:0:
384,192,29503,1,0,0:0:0:0:
128,192,29503,1,0,0:0:0:0:
298,192,29597,1,0,0:0:0:0:
213,192,29597,128,0,29971:0:0:0:0:
128,192,29878,1,0,0:0:0:0:
384,192,29878,1,0,0:0:0:0:
298,192,30065,1,0,0:0:0:0:
213,192,30065,128,0,30440:0:0:0:0:
469,192,30252,1,0,0:0:0:0:
384,192,30534,1,0,0:0:0:0:
42,192,30534,128,0,30908:0:0:0:0:
128,192,30908,1,0,0:0:0:0:
298,192,30908,1,0,0:0:0:0:
213,192,31283,1,0,0:0:0:0:
469,192,31283,1,0,0:0:0:0:
128,192,31564,1,0,0:0:0:0:
384,192,31564,1,0,0:0:0:0:
213,192,31658,1,0,0:0:0:0:
298,192,31658,1,0,0:0:0:0:
42,192,31845,1,0,0:0:0:0:
298,192,31845,1,0,0:0:0:0:
213,192,31939,1,0,0:0:0:0:
469,192,32033,1,0,0:0:0:0:
384,192,32220,1,0,0:0:0:0:
128,192,32220,128,0,32595:0:0:0:0:
213,192,32595,1,0,0:0:0:0:
298,192,32595,1,0,0:0:0:0:
469,192,32782,1,0,0:0:0:0:
42,192,32782,1,0,0:0:0:0:
213,192,32970,1,0,0:0:0:0:
298,192,32970,1,0,0:0:0:0:
42,192,33157,1,0,0:0:0:0:
469,192,33251,1,0,0:0:0:0:
298,192,33438,1,0,0:0:0:0:
213,192,33438,1,0,0:0:0:0:
298,192,33532,1,0,0:0:0:0:
42,192,33625,1,0,0:0:0:0:
469,192,33625,1,0,0:0:0:0:
298,192,33813,1,0,0:0:0:0:
213,192,33813,1,0,0:0:0:0:
384,192,34000,1,0,0:0:0:0:
128,192,34000,1,0,0:0:0:0:
213,192,34188,128,0,35968:0:0:0:0:
298,192,34188,128,0,36717:0:0:0:0:
128,192,35124,1,0,0:0:0:0:
384,192,35124,1,0,0:0:0:0:
384,192,35312,1,0,0:0:0:0:
128,192,35312,1,0,0:0:0:0:
42,192,35499,1,0,0:0:0:0:
469,192,35593,1,0,0:0:0:0:
469,192,35780,1,0,0:0:0:0:
128,192,35780,128,0,36624:0:0:0:0:
384,192,35874,1,0,0:0:0:0:
213,192,36811,1,0,0:0:0:0:
469,192,36811,1,0,0:0:0:0:
384,192,36905,1,0,0:0:0:0:
298,192,37092,1,0,0:0:0:0:
42,192,37279,1,0,0:0:0:0:
469,192,37279,1,0,0:0:0:0:
128,192,37560,128,0,38404:0:0:0:0:
384,192,37560,128,0,38404:0:0:0:0:
213,192,38404,1,0,0:0:0:0:
298,192,38404,1,0,0:0:0:0:
469,192,38685,1,0,0:0:0:0:
384,192,38778,1,0,0:0:0:0:
42,192,38872,1,0,0:0:0:0:
298,192,38966,1,0,0:0:0:0:
469,192,39247,1,0,0:0:0:0:
128,192,39341,1,0,0:0:0:0:
384,192,39434,1,0,0:0:0:0:
298,192,39528,1,0,0:0:0:0:
213,192,39528,1,0,0:0:0:0:
42,192,39809,1,0,0:0:0:0:
469,192,39809,1,0,0:0:0:0:
384,192,39809,1,0,0:0:0:0:
128,192,39903,1,0,0:0:0:0:
298,192,39903,1,0,0:0:0:0:
213,192,40090,128,0,40559:0:0:0:0:
384,192,40184,1,0,0:0:0:0:
298,192,40465,1,0,0:0:0:0:
128,192,40559,1,0,0:0:0:0:
469,192,40840,1,0,0:0:0:0:
213,192,40933,1,0,0:0:0:0:
298,192,40933,1,0,0:0:0:0:
42,192,41027,1,0,0:0:0:0:
469,192,41027,1,0,0:0:0:0:
213,192,41121,1,0,0:0:0:0:
298,192,41121,1,0,0:0:0:0:
384,192,41402,1,0,0:0:0:0:
128,192,41402,1,0,0:0:0:0:
298,192,41777,1,0,0:0:0:0:
213,192,41777,1,0,0:0:0:0:
469,192,41870,1,0,0:0:0:0:
42,192,41870,1,0,0:0:0:0:
298,192,41870,1,0,0:0:0:0:
384,192,42151,1,0,0:0:0:0:
128,192,42151,1,0,0:0:0:0:
298,192,42339,1,0,0:0:0:0:
213,192,42339,1,0,0:0:0:0:
469,192,42432,1,0,0:0:0:0:
128,192,42526,1,0,0:0:0:0:
384,192,42713,1,0,0:0:0:0:
128,192,42713,1,0,0:0:0:0:
213,192,42995,1,0,0:0:0:0:
298,192,43088,1,0,0:0:0:0:
42,192,43463,1,0,0:0:0:0:
469,192,43463,1,0,0:0:0:0:
213,192,43463,1,0,0:0:0:0:
298,192,43557,1,0,0:0:0:0:
128,192,43650,1,0,0:0:0:0:
384,192,43650,1,0,0:0:0:0:
213,192,43838,1,0,0:0:0:0:
298,192,43931,1,0,0:0:0:0:
384,192,44025,1,0,0:0:0:0:
128,192,44025,1,0,0:0:0:0:
298,192,44213,1,0,0:0:0:0:
213,192,44213,1,0,0:0:0:0:
469,192,44400,1,0,0:0:0:0:
42,192,44400,1,0,0:0:0:0:
384,192,44775,1,0,0:0:0:0:
128,192,44775,1,0,0:0:0:0:
298,192,45149,1,0,0:0:0:0:
213,192,45149,1,0,0:0:0:0:
42,192,45524,1,0,0:0:0:0:
469,192,45524,1,0,0:0:0:0:
384,192,45618,1,0,0:0:0:0:
128,192,45618,1,0,0:0:0:0:
298,192,45618,1,0,0:0:0:0:
384,192,45899,1,0,0:0:0:0:
469,192,45899,1,0,0:0:0:0:
213,192,45899,1,0,0:0:0:0:
298,192,46086,128,0,46649:0:0:0:0:
128,192,46086,128,0,46649:0:0:0:0:
213,192,46649,1,0,0:0:0:0:
384,192,46649,1,0,0:0:0:0:
298,192,46836,128,0,47398:0:0:0:0:
128,192,46836,128,0,47492:0:0:0:0:
384,192,47492,1,0,0:0:0:0:
213,192,47492,1,0,0:0:0:0:
298,192,47585,1,0,0:0:0:0:
42,192,47585,1,0,0:0:0:0:
469,192,47679,1,0,0:0:0:0:
213,192,47679,1,0,0:0:0:0:
298,192,47773,1,0,0:0:0:0:
128,192,47867,1,0,0:0:0:0:
469,192,47867,1,0,0:0:0:0:
384,192,47960,1,0,0:0:0:0:
213,192,47960,1,0,0:0:0:0:
298,192,48054,1,0,0:0:0:0:
42,192,48148,1,0,0:0:0:0:
469,192,48241,1,0,0:0:0:0:
384,192,48335,1,0,0:0:0:0:
128,192,48335,1,0,0:0:0:0:
213,192,48616,1,0,0:0:0:0:
298,192,48616,1,0,0:0:0:0:
469,192,48803,1,0,0:0:0:0:
42,192,48803,1,0,0:0:0:0:
298,192,48991,1,0,0:0:0:0:
128,192,48991,1,0,0:0:0:0:
384,192,49084,1,0,0:0:0:0:
128,192,49272,1,0,0:0:0:0:
298,192,49272,1,0,0:0:0:0:
469,192,49366,1,0,0:0:0:0:
213,192,49366,1,0,0:0:0:0:
298,192,49553,1,0,0:0:0:0:
42,192,49647,1,0,0:0:0:0:
469,192,49647,1,0,0:0:0:0:
128,192,49834,1,0,0:0:0:0:
298,192,49834,1,0,0:0:0:0:
469,192,50021,1,0,0:0:0:0:
213,192,50021,1,0,0:0:0:0:
298,192,50021,1,0,0:0:0:0:
42,192,50115,1,0,0:0:0:0:
469,192,50115,1,0,0:0:0:0:
213,192,50209,1,0,0:0:0:0:
298,192,50209,1,0,0:0:0:0:
469,192,50209,1,0,0:0:0:0:
42,192,50302,1,0,0:0:0:0:
213,192,50302,1,0,0:0:0:0:
298,192,50396,1,0,0:0:0:0:
469,192,50396,1,0,0:0:0:0:
42,192,50490,1,0,0:0:0:0:
213,192,50490,1,0,0:0:0:0:
298,192,50490,1,0,0:0:0:0:
469,192,50584,1,0,0:0:0:0:
128,192,50677,1,0,0:0:0:0:
384,192,50865,1,0,0:0:0:0:
128,192,50865,1,0,0:0:0:0:
298,192,50958,1,0,0:0:0:0:
213,192,50958,1,0,0:0:0:0:
469,192,51052,1,0,0:0:0:0:
42,192,51146,1,0,0:0:0:0:
384,192,51239,1,0,0:0:0:0:
384,192,51333,1,0,0:0:0:0:
128,192,51427,1,0,0:0:0:0:
298,192,51520,1,0,0:0:0:0:
213,192,51614,1,0,0:0:0:0:
469,192,51708,1,0,0:0:0:0:
42,192,51802,1,0,0:0:0:0:
298,192,51802,1,0,0:0:0:0:
213,192,51895,1,0,0:0:0:0:
384,192,51895,1,0,0:0:0:0:
128,192,51989,1,0,0:0:0:0:
298,192,51989,1,0,0:0:0:0:
213,192,52176,1,0,0:0:0:0:
469,192,52176,1,0,0:0:0:0:
384,192,52457,1,0,0:0:0:0:
42,192,52457,1,0,0:0:0:0:
298,192,52738,1,0,0:0:0:0:
128,192,52738,1,0,0:0:0:0:
469,192,53113,1,0,0:0:0:0:
213,192,53113,1,0,0:0:0:0:
42,192,53394,1,0,0:0:0:0:
384,192,53394,1,0,0:0:0:0:
384,192,53582,128,0,54144:0:0:0:0:
42,192,53675,128,0,54238:0:0:0:0:
128,192,54238,1,0,0:0:0:0:
298,192,54238,1,0,0:0:0:0:
213,192,54331,1,0,0:0:0:0:
469,192,54331,1,0,0:0:0:0:
298,192,54425,1,0,0:0:0:0:
42,192,54519,1,0,0:0:0:0:
469,192,54519,1,0,0:0:0:0:
213,192,54519,1,0,0:0:0:0:
298,192,54612,1,0,0:0:0:0:
128,192,54706,1,0,0:0:0:0:
384,192,54706,1,0,0:0:0:0:
298,192,54893,1,0,0:0:0:0:
384,192,54987,128,0,55362:0:0:0:0:
128,192,55081,1,0,0:0:0:0:
213,192,55456,1,0,0:0:0:0:
298,192,55456,1,0,0:0:0:0:
213,192,55643,1,0,0:0:0:0:
42,192,55643,1,0,0:0:0:0:
469,192,55643,1,0,0:0:0:0:
42,192,55924,1,0,0:0:0:0:
213,192,55924,1,0,0:0:0:0:
298,192,55924,1,0,0:0:0:0:
469,192,55924,1,0,0:0:0:0:
298,192,56111,1,0,0:0:0:0:
213,192,56111,128,0,56486:0:0:0:0:
469,192,56111,128,0,56486:0:0:0:0:
42,192,56111,128,0,56486:0:0:0:0:
128,192,56486,1,0,0:0:0:0:
384,192,56486,1,0,0:0:0:0:
298,192,56767,128,0,61827:0:0:0:0:
213,192,56767,128,0,62295:0:0:0:0:
128,192,57517,1,0,0:0:0:0:
384,192,57517,1,0,0:0:0:0:
128,192,57704,1,0,0:0:0:0:
384,192,57798,1,0,0:0:0:0:
469,192,58173,1,0,0:0:0:0:
42,192,58173,1,0,0:0:0:0:
384,192,58547,1,0,0:0:0:0:
128,192,58547,1,0,0:0:0:0:
128,192,59016,1,0,0:0:0:0:
384,192,59016,1,0,0:0:0:0:
128,192,59297,1,0,0:0:0:0:
384,192,59484,1,0,0:0:0:0:
128,192,59484,1,0,0:0:0:0:
469,192,60046,1,0,0:0:0:0:
42,192,60327,1,0,0:0:0:0:
384,192,61171,1,0,0:0:0:0:
128,192,61452,1,0,0:0:0:0:
469,192,61733,1,0,0:0:0:0:
469,192,62108,1,0,0:0:0:0:
384,192,62295,1,0,0:0:0:0:
298,192,62576,1,0,0:0:0:0:
469,192,62763,1,0,0:0:0:0:
42,192,62763,1,0,0:0:0:0:
128,192,62857,1,0,0:0:0:0:
298,192,62951,1,0,0:0:0:0:
384,192,63045,1,0,0:0:0:0:
213,192,63138,1,0,0:0:0:0:
384,192,63419,1,0,0:0:0:0:
128,192,63419,1,0,0:0:0:0:
298,192,63607,1,0,0:0:0:0:
213,192,63607,1,0,0:0:0:0:
469,192,63700,1,0,0:0:0:0:
42,192,63794,128,0,64169:0:0:0:0:
384,192,63888,1,0,0:0:0:0:
298,192,64263,1,0,0:0:0:0:
128,192,64263,1,0,0:0:0:0:
469,192,64356,1,0,0:0:0:0:
213,192,64450,1,0,0:0:0:0:
298,192,64450,1,0,0:0:0:0:
469,192,64544,1,0,0:0:0:0:
42,192,64637,1,0,0:0:0:0:
298,192,64637,1,0,0:0:0:0:
213,192,64731,1,0,0:0:0:0:
384,192,65012,1,0,0:0:0:0:
128,192,65106,1,0,0:0:0:0:
298,192,65199,1,0,0:0:0:0:
213,192,65293,1,0,0:0:0:0:
469,192,65387,1,0,0:0:0:0:
42,192,65481,1,0,0:0:0:0:
298,192,65481,1,0,0:0:0:0:
213,192,65481,1,0,0:0:0:0:
213,192,65668,1,0,0:0:0:0:
42,192,65668,1,0,0:0:0:0:
469,192,65668,1,0,0:0:0:0:
298,192,65668,1,0,0:0:0:0:
213,192,65762,1,0,0:0:0:0:
42,192,65762,1,0,0:0:0:0:
298,192,65762,1,0,0:0:0:0:
469,192,65855,1,0,0:0:0:0:
469,192,66043,1,0,0:0:0:0:
42,192,66043,1,0,0:0:0:0:
213,192,66043,1,0,0:0:0:0:
128,192,66136,128,0,66511:0:0:0:0:
384,192,66230,1,0,0:0:0:0:
298,192,66511,1,0,0:0:0:0:
213,192,66511,1,0,0:0:0:0:
469,192,66605,1,0,0:0:0:0:
42,192,66605,1,0,0:0:0:0:
298,192,66699,1,0,0:0:0:0:
213,192,66699,1,0,0:0:0:0:
384,192,66792,1,0,0:0:0:0:
298,192,66980,1,0,0:0:0:0:
128,192,66980,128,0,67354:0:0:0:0:
469,192,67354,1,0,0:0:0:0:
213,192,67354,1,0,0:0:0:0:
298,192,67448,1,0,0:0:0:0:
384,192,67542,1,0,0:0:0:0:
298,192,67823,1,0,0:0:0:0:
42,192,67823,128,0,68198:0:0:0:0:
469,192,67823,1,0,0:0:0:0:
384,192,68198,1,0,0:0:0:0:
128,192,68198,1,0,0:0:0:0:
298,192,68198,1,0,0:0:0:0:
213,192,68198,128,0,68666:0:0:0:0:
469,192,68666,1,0,0:0:0:0:
128,192,68666,1,0,0:0:0:0:
384,192,68947,1,0,0:0:0:0:
213,192,68947,1,0,0:0:0:0:
298,192,69041,1,0,0:0:0:0:
42,192,69135,128,0,69509:0:0:0:0:
469,192,69135,128,0,69509:0:0:0:0:
384,192,69509,128,0,69978:0:0:0:0:
128,192,69509,128,0,69978:0:0:0:0:
469,192,69509,1,0,0:0:0:0:
298,192,69978,128,0,70353:0:0:0:0:
213,192,69978,128,0,70353:0:0:0:0:
469,192,70353,128,0,70821:0:0:0:0:
42,192,70353,128,0,70821:0:0:0:0:
128,192,70821,128,0,71289:0:0:0:0:
384,192,70821,128,0,71289:0:0:0:0:
298,192,71289,128,0,71664:0:0:0:0:
213,192,71289,128,0,71664:0:0:0:0:
384,192,71664,128,0,72039:0:0:0:0:
128,192,71664,128,0,72039:0:0:0:0:
213,192,72039,128,0,72882:0:0:0:0:
298,192,72039,128,0,72882:0:0:0:0:
469,192,72226,1,0,0:0:0:0:
384,192,72695,1,0,0:0:0:0:
298,192,72882,1,0,0:0:0:0:
42,192,72882,128,0,76161:0:0:0:0:
298,192,72882,128,0,76161:0:0:0:0:
128,192,73725,1,0,0:0:0:0:
384,192,73725,1,0,0:0:0:0:
128,192,73913,1,0,0:0:0:0:
384,192,73913,1,0,0:0:0:0:
384,192,74194,1,0,0:0:0:0:
213,192,74194,1,0,0:0:0:0:
384,192,74381,1,0,0:0:0:0:
469,192,74569,128,0,74943:0:0:0:0:
384,192,75412,128,0,76161:0:0:0:0:
128,192,75412,128,0,76161:0:0:0:0:
213,192,75412,128,0,76161:0:0:0:0:
469,192,76161,1,0,0:0:0:0:
298,192,76349,1,0,0:0:0:0:
213,192,76349,1,0,0:0:0:0:
469,192,76442,1,0,0:0:0:0:
128,192,76442,1,0,0:0:0:0:
213,192,76536,128,0,77005:0:0:0:0:
298,192,76536,128,0,77005:0:0:0:0:
384,192,77005,1,0,0:0:0:0:
128,192,77005,1,0,0:0:0:0:
213,192,77098,1,0,0:0:0:0:
298,192,77098,1,0,0:0:0:0:
469,192,77192,1,0,0:0:0:0:
42,192,77286,1,0,0:0:0:0:
298,192,77286,128,0,77754:0:0:0:0:
213,192,77286,128,0,77754:0:0:0:0:
42,192,77754,1,0,0:0:0:0:
384,192,77754,1,0,0:0:0:0:
298,192,77942,1,0,0:0:0:0:
128,192,77942,1,0,0:0:0:0:
469,192,78035,1,0,0:0:0:0:
213,192,78035,1,0,0:0:0:0:
298,192,78129,1,0,0:0:0:0:
469,192,78316,1,0,0:0:0:0:
213,192,78410,1,0,0:0:0:0:
42,192,78597,1,0,0:0:0:0:
384,192,78691,1,0,0:0:0:0:
128,192,78691,1,0,0:0:0:0:
298,192,78785,1,0,0:0:0:0:
213,192,78878,1,0,0:0:0:0:
469,192,78878,1,0,0:0:0:0:
298,192,78972,1,0,0:0:0:0:
42,192,79066,1,0,0:0:0:0:
213,192,79066,1,0,0:0:0:0:
469,192,79066,1,0,0:0:0:0:
298,192,79160,1,0,0:0:0:0:
42,192,79253,1,0,0:0:0:0:
384,192,79347,1,0,0:0:0:0:
128,192,79534,1,0,0:0:0:0:
298,192,79534,1,0,0:0:0:0:
469,192,80003,1,0,0:0:0:0:
213,192,80003,1,0,0:0:0:0:
384,192,80096,1,0,0:0:0:0:
128,192,80378,1,0,0:0:0:0:
384,192,80378,1,0,0:0:0:0:
298,192,80565,1,0,0:0:0:0:
213,192,80659,1,0,0:0:0:0:
469,192,80846,1,0,0:0:0:0:
213,192,81221,1,0,0:0:0:0:
469,192,81221,1,0,0:0:0:0:
384,192,81314,1,0,0:0:0:0:
128,192,81314,1,0,0:0:0:0:
298,192,81408,1,0,0:0:0:0:
42,192,81502,1,0,0:0:0:0:
384,192,81689,1,0,0:0:0:0:
128,192,81689,1,0,0:0:0:0:
469,192,81783,1,0,0:0:0:0:
213,192,81783,1,0,0:0:0:0:
384,192,82064,1,0,0:0:0:0:
42,192,82064,128,0,82439:0:0:0:0:
298,192,82158,1,0,0:0:0:0:
128,192,82439,1,0,0:0:0:0:
469,192,82439,1,0,0:0:0:0:
213,192,82532,1,0,0:0:0:0:
298,192,82813,1,0,0:0:0:0:
42,192,82907,1,0,0:0:0:0:
213,192,82907,1,0,0:0:0:0:
469,192,82907,1,0,0:0:0:0:
298,192,83001,1,0,0:0:0:0:
213,192,83095,1,0,0:0:0:0:
469,192,83095,1,0,0:0:0:0:
128,192,83188,1,0,0:0:0:0:
213,192,83282,1,0,0:0:0:0:
469,192,83657,1,0,0:0:0:0:
384,192,83750,1,0,0:0:0:0:
298,192,83844,1,0,0:0:0:0:
213,192,83938,1,0,0:0:0:0:
128,192,83938,1,0,0:0:0:0:
213,192,84125,1,0,0:0:0:0:
42,192,84219,1,0,0:0:0:0:
469,192,84594,1,0,0:0:0:0:
42,192,84594,1,0,0:0:0:0:
384,192,84687,1,0,0:0:0:0:
298,192,84781,1,0,0:0:0:0:
213,192,84781,1,0,0:0:0:0:
42,192,84968,1,0,0:0:0:0:
128,192,85062,1,0,0:0:0:0:
42,192,85156,1,0,0:0:0:0:
298,192,85437,1,0,0:0:0:0:
42,192,85437,1,0,0:0:0:0:
384,192,85531,1,0,0:0:0:0:
469,192,85624,1,0,0:0:0:0:
213,192,85718,1,0,0:0:0:0:
384,192,85905,128,0,86280:0:0:0:0:
42,192,85905,128,0,86280:0:0:0:0:
298,192,86280,1,0,0:0:0:0:
128,192,86280,128,0,86749:0:0:0:0:
469,192,86374,1,0,0:0:0:0:
213,192,86749,1,0,0:0:0:0:
298,192,86749,1,0,0:0:0:0:
128,192,87123,1,0,0:0:0:0:
384,192,87123,1,0,0:0:0:0:
298,192,87311,1,0,0:0:0:0:
213,192,87311,1,0,0:0:0:0:
469,192,87498,1,0,0:0:0:0:
298,192,87498,1,0,0:0:0:0:
42,192,87498,1,0,0:0:0:0:
213,192,87592,1,0,0:0:0:0:
213,192,87779,1,0,0:0:0:0:
42,192,87779,1,0,0:0:0:0:
469,192,87779,1,0,0:0:0:0:
298,192,87779,1,0,0:0:0:0:
469,192,87967,1,0,0:0:0:0:
42,192,87967,1,0,0:0:0:0:
213,192,87967,1,0,0:0:0:0:
298,192,87967,1,0,0:0:0:0:
469,192,88341,1,0,0:0:0:0:
213,192,88341,1,0,0:0:0:0:
298,192,88341,1,0,0:0:0:0:
42,192,88341,1,0,0:0:0:0:
42,192,88810,1,0,0:0:0:0:
213,192,88810,1,0,0:0:0:0:
469,192,88810,1,0,0:0:0:0:
298,192,88810,1,0,0:0:0:0:
128,192,89278,1,0,0:0:0:0:
384,192,89278,1,0,0:0:0:0:
128,192,89653,128,0,90403:0:0:0:0:
384,192,89747,1,0,0:0:0:0:
298,192,89840,1,0,0:0:0:0:
384,192,90028,1,0,0:0:0:0:
469,192,90403,1,0,0:0:0:0:
213,192,90403,128,0,91058:0:0:0:0:
384,192,90590,1,0,0:0:0:0:
298,192,90871,1,0,0:0:0:0:
42,192,91246,1,0,0:0:0:0:
469,192,91339,1,0,0:0:0:0:
384,192,91621,1,0,0:0:0:0:
128,192,92089,1,0,0:0:0:0:
298,192,92276,1,0,0:0:0:0:
213,192,92557,1,0,0:0:0:0:
384,192,93026,1,0,0:0:0:0:
128,192,93401,1,0,0:0:0:0:
469,192,93775,1,0,0:0:0:0:
213,192,94056,1,0,0:0:0:0:
384,192,94244,1,0,0:0:0:0:
298,192,94712,1,0,0:0:0:0:
42,192,94712,128,0,95368:0:0:0:0:
469,192,94900,1,0,0:0:0:0:
384,192,95087,1,0,0:0:0:0:
298,192,95274,1,0,0:0:0:0:
469,192,95368,1,0,0:0:0:0:
128,192,95462,1,0,0:0:0:0:
298,192,95556,1,0,0:0:0:0:
469,192,95743,1,0,0:0:0:0:
213,192,95837,1,0,0:0:0:0:
298,192,95837,1,0,0:0:0:0:
384,192,95930,1,0,0:0:0:0:
42,192,95930,1,0,0:0:0:0:
298,192,96024,1,0,0:0:0:0:
213,192,96024,1,0,0:0:0:0:
469,192,96118,1,0,0:0:0:0:
42,192,96118,1,0,0:0:0:0:
213,192,96211,1,0,0:0:0:0:
298,192,96211,1,0,0:0:0:0:
128,192,96305,1,0,0:0:0:0:
384,192,96399,1,0,0:0:0:0:
298,192,96399,128,0,96774:0:0:0:0:
42,192,96399,128,0,96867:0:0:0:0:
128,192,97148,128,0,97523:0:0:0:0:
384,192,97242,1,0,0:0:0:0:
298,192,97429,1,0,0:0:0:0:
213,192,97617,1,0,0:0:0:0:
469,192,97617,1,0,0:0:0:0:
384,192,97898,1,0,0:0:0:0:
128,192,98085,128,0,100146:0:0:0:0:
298,192,98085,128,0,100240:0:0:0:0:
213,192,98835,1,0,0:0:0:0:
469,192,98928,1,0,0:0:0:0:
213,192,99022,1,0,0:0:0:0:
469,192,99116,1,0,0:0:0:0:
384,192,99303,1,0,0:0:0:0:
42,192,99303,1,0,0:0:0:0:
469,192,99584,1,0,0:0:0:0:
469,192,99772,1,0,0:0:0:0:
213,192,99772,128,0,100146:0:0:0:0:
128,192,100521,1,0,0:0:0:0:
384,192,100521,1,0,0:0:0:0:
298,192,100709,1,0,0:0:0:0:
213,192,100990,1,0,0:0:0:0:
469,192,100990,1,0,0:0:0:0:
384,192,101177,1,0,0:0:0:0:
298,192,101458,1,0,0:0:0:0:
42,192,101458,128,0,102301:0:0:0:0:
469,192,101646,1,0,0:0:0:0:
384,192,101739,1,0,0:0:0:0:
298,192,101833,1,0,0:0:0:0:
469,192,102020,1,0,0:0:0:0:
298,192,102020,1,0,0:0:0:0:
469,192,102114,1,0,0:0:0:0:
128,192,102301,128,0,102957:0:0:0:0:
384,192,102676,1,0,0:0:0:0:
298,192,103051,1,0,0:0:0:0:
213,192,103051,128,0,103519:0:0:0:0:
469,192,103519,1,0,0:0:0:0:
384,192,103894,1,0,0:0:0:0:
42,192,103894,128,0,104269:0:0:0:0:
298,192,104082,1,0,0:0:0:0:
469,192,104363,1,0,0:0:0:0:
128,192,104363,1,0,0:0:0:0:
469,192,104550,1,0,0:0:0:0:
298,192,104550,1,0,0:0:0:0:
469,192,104737,1,0,0:0:0:0:
298,192,104737,1,0,0:0:0:0:
213,192,104737,1,0,0:0:0:0:
469,192,105018,1,0,0:0:0:0:
298,192,105018,1,0,0:0:0:0:
42,192,105206,1,0,0:0:0:0:
384,192,105393,1,0,0:0:0:0:
128,192,105581,1,0,0:0:0:0:
298,192,105862,1,0,0:0:0:0:
469,192,105955,1,0,0:0:0:0:
213,192,106049,1,0,0:0:0:0:
298,192,106143,1,0,0:0:0:0:
469,192,106236,1,0,0:0:0:0:
298,192,106424,1,0,0:0:0:0:
42,192,106517,128,0,106892:0:0:0:0:
384,192,106892,1,0,0:0:0:0:
128,192,107267,1,0,0:0:0:0:
298,192,107267,1,0,0:0:0:0:
469,192,107454,1,0,0:0:0:0:
213,192,107642,1,0,0:0:0:0:
384,192,107735,1,0,0:0:0:0:
298,192,107923,1,0,0:0:0:0:
469,192,108110,128,0,108672:0:0:0:0:
42,192,108110,128,0,108672:0:0:0:0:
128,192,108766,1,0,0:0:0:0:
298,192,108766,1,0,0:0:0:0:
469,192,108860,1,0,0:0:0:0:
213,192,108860,128,0,109235:0:0:0:0:
298,192,108953,1,0,0:0:0:0:
469,192,108953,1,0,0:0:0:0:
384,192,109422,1,0,0:0:0:0:
128,192,109422,1,0,0:0:0:0:
213,192,109703,1,0,0:0:0:0:
298,192,109703,1,0,0:0:0:0:
469,192,109890,1,0,0:0:0:0:
298,192,109984,1,0,0:0:0:0:
42,192,110078,1,0,0:0:0:0:
384,192,110078,1,0,0:0:0:0:
298,192,110171,1,0,0:0:0:0:
384,192,110359,1,0,0:0:0:0:
298,192,110546,1,0,0:0:0:0:
128,192,110546,1,0,0:0:0:0:
469,192,110827,1,0,0:0:0:0:
298,192,111015,1,0,0:0:0:0:
213,192,111108,1,0,0:0:0:0:
469,192,111296,1,0,0:0:0:0:
42,192,111389,1,0,0:0:0:0:
298,192,111483,1,0,0:0:0:0:
213,192,111858,1,0,0:0:0:0:
469,192,111858,1,0,0:0:0:0:
298,192,112045,1,0,0:0:0:0:
42,192,112045,1,0,0:0:0:0:
42,192,112233,128,0,112889:0:0:0:0:
213,192,112233,128,0,112889:0:0:0:0:
469,192,112233,128,0,112889:0:0:0:0:
298,192,112233,128,0,112889:0:0:0:0:
128,192,112982,1,0,0:0:0:0:
384,192,112982,1,0,0:0:0:0:
213,192,113076,1,0,0:0:0:0:
298,192,113076,1,0,0:0:0:0:
469,192,113263,1,0,0:0:0:0:
42,192,113357,1,0,0:0:0:0:
384,192,113544,1,0,0:0:0:0:
128,192,113544,1,0,0:0:0:0:
298,192,113732,1,0,0:0:0:0:
469,192,114013,1,0,0:0:0:0:
213,192,114013,1,0,0:0:0:0:
384,192,114107,1,0,0:0:0:0:
298,192,114200,1,0,0:0:0:0:
128,192,114388,1,0,0:0:0:0:
384,192,114388,1,0,0:0:0:0:
298,192,114669,1,0,0:0:0:0:
213,192,114669,1,0,0:0:0:0:
469,192,114856,1,0,0:0:0:0:
213,192,114856,1,0,0:0:0:0:
128,192,115137,1,0,0:0:0:0:
384,192,115137,1,0,0:0:0:0:
213,192,115418,1,0,0:0:0:0:
298,192,115418,1,0,0:0:0:0:
42,192,115699,128,0,117479:0:0:0:0:
298,192,115699,128,0,117479:0:0:0:0:
384,192,116449,1,0,0:0:0:0:
128,192,116542,1,0,0:0:0:0:
128,192,116730,1,0,0:0:0:0:
213,192,116824,1,0,0:0:0:0:
469,192,116824,1,0,0:0:0:0:
469,192,117011,1,0,0:0:0:0:
213,192,117011,1,0,0:0:0:0:
384,192,117198,1,0,0:0:0:0:
128,192,117198,1,0,0:0:0:0:
213,192,117573,1,0,0:0:0:0:
469,192,117573,1,0,0:0:0:0:
213,192,117760,1,0,0:0:0:0:
298,192,117760,1,0,0:0:0:0:
469,192,117948,1,0,0:0:0:0:
42,192,118042,1,0,0:0:0:0:
128,192,118229,128,0,118604:0:0:0:0:
384,192,118229,128,0,118604:0:0:0:0:
213,192,118604,1,0,0:0:0:0:
298,192,118604,1,0,0:0:0:0:
469,192,118885,1,0,0:0:0:0:
42,192,118885,1,0,0:0:0:0:
384,192,119072,128,0,119447:0:0:0:0:
128,192,119072,128,0,119447:0:0:0:0:
298,192,119728,1,0,0:0:0:0:
213,192,119728,128,0,120196:0:0:0:0:
298,192,119915,1,0,0:0:0:0:
469,192,120290,1,0,0:0:0:0:
128,192,120290,128,0,121040:0:0:0:0:
384,192,120665,1,0,0:0:0:0:
384,192,120852,1,0,0:0:0:0:
384,192,121133,1,0,0:0:0:0:
298,192,121321,1,0,0:0:0:0:
469,192,121508,128,0,122820:0:0:0:0:
298,192,121508,128,0,122914:0:0:0:0:
42,192,121602,128,0,122820:0:0:0:0:
213,192,121602,128,0,122914:0:0:0:0:
384,192,122258,1,0,0:0:0:0:
128,192,122445,1,0,0:0:0:0:
384,192,122445,1,0,0:0:0:0:
469,192,123195,1,0,0:0:0:0:
42,192,123476,1,0,0:0:0:0:
384,192,123476,1,0,0:0:0:0:
298,192,123663,1,0,0:0:0:0:
128,192,123757,1,0,0:0:0:0:
469,192,123757,1,0,0:0:0:0:
298,192,123850,1,0,0:0:0:0:
213,192,123944,1,0,0:0:0:0:
384,192,124225,1,0,0:0:0:0:
128,192,124225,1,0,0:0:0:0:
298,192,124413,1,0,0:0:0:0:
213,192,124413,1,0,0:0:0:0:
469,192,124600,1,0,0:0:0:0:
213,192,124600,1,0,0:0:0:0:
298,192,124881,1,0,0:0:0:0:
42,192,124881,1,0,0:0:0:0:
213,192,124881,1,0,0:0:0:0:
469,192,124975,1,0,0:0:0:0:
298,192,124975,1,0,0:0:0:0:
42,192,125068,1,0,0:0:0:0:
213,192,125068,1,0,0:0:0:0:
469,192,125068,1,0,0:0:0:0:
298,192,125162,1,0,0:0:0:0:
213,192,125537,1,0,0:0:0:0:
384,192,125631,1,0,0:0:0:0:
128,192,125631,1,0,0:0:0:0:
213,192,125724,1,0,0:0:0:0:
298,192,125724,1,0,0:0:0:0:
384,192,125818,1,0,0:0:0:0:
128,192,125818,1,0,0:0:0:0:
298,192,125912,1,0,0:0:0:0:
213,192,125912,1,0,0:0:0:0:
42,192,126286,1,0,0:0:0:0:
298,192,126286,1,0,0:0:0:0:
213,192,126286,1,0,0:0:0:0:
469,192,126380,1,0,0:0:0:0:
42,192,126474,1,0,0:0:0:0:
298,192,126474,1,0,0:0:0:0:
213,192,126474,1,0,0:0:0:0:
469,192,126568,1,0,0:0:0:0:
42,192,126661,1,0,0:0:0:0:
213,192,126661,1,0,0:0:0:0:
298,192,126661,1,0,0:0:0:0:
469,192,127411,1,0,0:0:0:0:
42,192,127411,1,0,0:0:0:0:
213,192,127411,1,0,0:0:0:0:
298,192,127598,1,0,0:0:0:0:
469,192,127598,1,0,0:0:0:0:
213,192,127598,1,0,0:0:0:0:
42,192,127598,1,0,0:0:0:0:
42,192,127785,1,0,0:0:0:0:
213,192,127785,1,0,0:0:0:0:
469,192,127785,1,0,0:0:0:0:
298,192,127785,1,0,0:0:0:0:
42,192,128067,1,0,0:0:0:0:
213,192,128067,1,0,0:0:0:0:
469,192,128067,1,0,0:0:0:0:
298,192,128067,1,0,0:0:0:0:
128,192,128254,128,0,128722:0:0:0:0:
384,192,128254,128,0,128722:0:0:0:0:
213,192,128629,128,0,129097:0:0:0:0:
298,192,128722,128,0,129097:0:0:0:0:
128,192,129097,128,0,129472:0:0:0:0:
469,192,129097,128,0,129566:0:0:0:0:
384,192,129472,128,0,129940:0:0:0:0:
42,192,129472,128,0,129940:0:0:0:0:
128,192,129940,1,0,0:0:0:0:
298,192,129940,1,0,0:0:0:0:
213,192,130128,128,0,130596:0:0:0:0:
469,192,130221,1,0,0:0:0:0:
298,192,130315,1,0,0:0:0:0:
469,192,130503,1,0,0:0:0:0:
298,192,130596,1,0,0:0:0:0:
128,192,130596,128,0,131346:0:0:0:0:
384,192,130690,1,0,0:0:0:0:
298,192,130877,1,0,0:0:0:0:
469,192,131158,1,0,0:0:0:0:
298,192,131252,1,0,0:0:0:0:
384,192,131439,1,0,0:0:0:0:
42,192,131533,128,0,132376:0:0:0:0:
298,192,131627,1,0,0:0:0:0:
469,192,131627,1,0,0:0:0:0:
298,192,131721,1,0,0:0:0:0:
469,192,131814,1,0,0:0:0:0:
298,192,131908,1,0,0:0:0:0:
384,192,132376,1,0,0:0:0:0:
128,192,132376,128,0,133220:0:0:0:0:
298,192,132470,1,0,0:0:0:0:
384,192,132564,1,0,0:0:0:0:
298,192,132657,1,0,0:0:0:0:
384,192,132751,1,0,0:0:0:0:
298,192,132845,1,0,0:0:0:0:
298,192,133220,1,0,0:0:0:0:
469,192,133313,1,0,0:0:0:0:
213,192,133313,128,0,134063:0:0:0:0:
298,192,133407,1,0,0:0:0:0:
469,192,133501,1,0,0:0:0:0:
298,192,133594,1,0,0:0:0:0:
469,192,133688,1,0,0:0:0:0:
384,192,134157,1,0,0:0:0:0:
128,192,134157,128,0,134531:0:0:0:0:
298,192,134344,1,0,0:0:0:0:
213,192,134531,1,0,0:0:0:0:
469,192,134531,1,0,0:0:0:0:
469,192,134812,1,0,0:0:0:0:
469,192,135000,128,0,135562:0:0:0:0:
42,192,135000,128,0,136218:0:0:0:0:
384,192,135843,1,0,0:0:0:0:
298,192,136030,1,0,0:0:0:0:
469,192,136218,1,0,0:0:0:0:
128,192,136218,128,0,136686:0:0:0:0:
298,192,136405,1,0,0:0:0:0:
469,192,136686,1,0,0:0:0:0:
213,192,136686,128,0,137436:0:0:0:0:
298,192,136967,1,0,0:0:0:0:
469,192,137155,1,0,0:0:0:0:
298,192,137248,1,0,0:0:0:0:
469,192,137342,1,0,0:0:0:0:
298,192,137436,1,0,0:0:0:0:
42,192,137436,128,0,138092:0:0:0:0:
469,192,137529,1,0,0:0:0:0:
384,192,137717,1,0,0:0:0:0:
298,192,137904,1,0,0:0:0:0:
469,192,137998,1,0,0:0:0:0:
298,192,138185,1,0,0:0:0:0:
469,192,138279,1,0,0:0:0:0:
128,192,138279,128,0,138747:0:0:0:0:
298,192,138373,1,0,0:0:0:0:
469,192,138466,1,0,0:0:0:0:
298,192,138560,1,0,0:0:0:0:
469,192,138654,1,0,0:0:0:0:
298,192,138747,1,0,0:0:0:0:
384,192,139028,1,0,0:0:0:0:
213,192,139028,128,0,139872:0:0:0:0:
298,192,139122,1,0,0:0:0:0:
384,192,139216,1,0,0:0:0:0:
298,192,139310,1,0,0:0:0:0:
384,192,139403,1,0,0:0:0:0:
298,192,139497,1,0,0:0:0:0:
469,192,139872,1,0,0:0:0:0:
42,192,139872,128,0,140621:0:0:0:0:
298,192,139965,1,0,0:0:0:0:
469,192,140059,1,0,0:0:0:0:
298,192,140153,1,0,0:0:0:0:
469,192,140246,1,0,0:0:0:0:
298,192,140340,1,0,0:0:0:0:
469,192,140340,1,0,0:0:0:0:
128,192,140621,1,0,0:0:0:0:
384,192,140621,1,0,0:0:0:0:
298,192,140809,1,0,0:0:0:0:
213,192,140809,1,0,0:0:0:0:
469,192,140902,1,0,0:0:0:0:
298,192,140996,1,0,0:0:0:0:
384,192,141183,1,0,0:0:0:0:
42,192,141183,1,0,0:0:0:0:
384,192,141277,1,0,0:0:0:0:
128,192,141371,1,0,0:0:0:0:
384,192,141464,1,0,0:0:0:0:
128,192,141652,1,0,0:0:0:0:
384,192,141746,1,0,0:0:0:0:
298,192,141933,1,0,0:0:0:0:
213,192,141933,1,0,0:0:0:0:
469,192,142120,1,0,0:0:0:0:
42,192,142120,1,0,0:0:0:0:
298,192,142120,1,0,0:0:0:0:
213,192,142214,1,0,0:0:0:0:
469,192,142214,1,0,0:0:0:0:
128,192,142589,1,0,0:0:0:0:
384,192,142589,1,0,0:0:0:0:
213,192,142776,1,0,0:0:0:0:
298,192,142776,1,0,0:0:0:0:
469,192,142870,1,0,0:0:0:0:
42,192,142964,1,0,0:0:0:0:
298,192,143057,1,0,0:0:0:0:
213,192,143057,1,0,0:0:0:0:
469,192,143151,1,0,0:0:0:0:
128,192,143338,1,0,0:0:0:0:
384,192,143338,1,0,0:0:0:0:
213,192,143432,1,0,0:0:0:0:
298,192,143526,1,0,0:0:0:0:
469,192,143619,1,0,0:0:0:0:
42,192,143713,1,0,0:0:0:0:
298,192,143713,1,0,0:0:0:0:
469,192,143807,1,0,0:0:0:0:
298,192,143900,1,0,0:0:0:0:
469,192,143994,1,0,0:0:0:0:
298,192,144088,1,0,0:0:0:0:
128,192,144088,1,0,0:0:0:0:
469,192,144182,1,0,0:0:0:0:
298,192,144369,1,0,0:0:0:0:
384,192,144463,1,0,0:0:0:0:
298,192,144556,1,0,0:0:0:0:
469,192,144744,1,0,0:0:0:0:
213,192,145025,128,0,145868:0:0:0:0:
42,192,145025,128,0,145868:0:0:0:0:
298,192,145025,128,0,145868:0:0:0:0:
469,192,145025,128,0,145868:0:0:0:0:
384,192,145868,128,0,146711:0:0:0:0:
128,192,145868,128,0,146805:0:0:0:0:
213,192,146711,128,0,147554:0:0:0:0:
42,192,146711,128,0,147554:0:0:0:0:
298,192,146711,128,0,147554:0:0:0:0:
469,192,146711,128,0,147554:0:0:0:0:
128,192,147554,128,0,148023:0:0:0:0:
384,192,147554,128,0,148023:0:0:0:0:
213,192,147929,128,0,148304:0:0:0:0:
42,192,147929,128,0,148398:0:0:0:0:
298,192,147929,128,0,148398:0:0:0:0:
469,192,147929,128,0,148398:0:0:0:0:
128,192,148304,128,0,148866:0:0:0:0:
384,192,148304,128,0,148866:0:0:0:0:
298,192,148772,128,0,149241:0:0:0:0:
42,192,148772,128,0,149241:0:0:0:0:
469,192,148866,128,0,149241:0:0:0:0:
213,192,148960,1,0,0:0:0:0:
128,192,149241,128,0,149616:0:0:0:0:
384,192,149241,128,0,149709:0:0:0:0:
213,192,149616,128,0,150084:0:0:0:0:
42,192,149616,128,0,150084:0:0:0:0:
298,192,149616,128,0,150084:0:0:0:0:
469,192,149616,128,0,150084:0:0:0:0:
128,192,149990,128,0,150553:0:0:0:0:
384,192,150084,128,0,150553:0:0:0:0:
213,192,150459,128,0,150927:0:0:0:0:
42,192,150459,128,0,150927:0:0:0:0:
298,192,150459,128,0,150927:0:0:0:0:
469,192,150459,128,0,150927:0:0:0:0:
128,192,150834,128,0,151302:0:0:0:0:
384,192,150927,128,0,151396:0:0:0:0:
213,192,151302,128,0,151677:0:0:0:0:
298,192,151302,128,0,151771:0:0:0:0:
42,192,151302,128,0,151771:0:0:0:0:
469,192,151302,128,0,151771:0:0:0:0:
384,192,151677,128,0,152145:0:0:0:0:
128,192,151677,128,0,152145:0:0:0:0:
213,192,152052,128,0,152614:0:0:0:0:
298,192,152052,128,0,152614:0:0:0:0:
469,192,152052,128,0,152614:0:0:0:0:
42,192,152145,128,0,152614:0:0:0:0:
128,192,152520,128,0,152989:0:0:0:0:
384,192,152614,128,0,152989:0:0:0:0:
298,192,152895,128,0,153270:0:0:0:0:
42,192,152989,1,0,0:0:0:0:
469,192,152989,128,0,153363:0:0:0:0:
213,192,152989,128,0,153363:0:0:0:0:
42,192,153363,1,0,0:0:0:0:
298,192,153457,1,0,0:0:0:0:
213,192,153457,1,0,0:0:0:0:
469,192,153457,1,0,0:0:0:0:
42,192,153551,1,0,0:0:0:0:
298,192,153551,1,0,0:0:0:0:
213,192,153644,1,0,0:0:0:0:
469,192,153644,1,0,0:0:0:0:
42,192,153738,1,0,0:0:0:0:
298,192,153738,1,0,0:0:0:0:
213,192,153738,1,0,0:0:0:0:
469,192,153832,1,0,0:0:0:0:
42,192,153925,1,0,0:0:0:0:
298,192,153925,1,0,0:0:0:0:
213,192,153925,1,0,0:0:0:0:
298,192,154113,1,0,0:0:0:0:
42,192,154113,1,0,0:0:0:0:
213,192,154113,1,0,0:0:0:0:
469,192,154207,1,0,0:0:0:0:
298,192,154207,1,0,0:0:0:0:
42,192,154300,1,0,0:0:0:0:
213,192,154394,1,0,0:0:0:0:
469,192,154394,1,0,0:0:0:0:
298,192,154394,1,0,0:0:0:0:
42,192,154488,1,0,0:0:0:0:
213,192,154581,1,0,0:0:0:0:
469,192,154581,1,0,0:0:0:0:
298,192,154581,1,0,0:0:0:0:
42,192,154675,1,0,0:0:0:0:
213,192,154675,1,0,0:0:0:0:
469,192,154769,1,0,0:0:0:0:
213,192,155050,1,0,0:0:0:0:
469,192,155050,1,0,0:0:0:0:
128,192,155143,1,0,0:0:0:0:
384,192,155143,1,0,0:0:0:0:
298,192,155237,1,0,0:0:0:0:
42,192,155237,1,0,0:0:0:0:
213,192,155612,1,0,0:0:0:0:
469,192,155612,1,0,0:0:0:0:
384,192,155612,1,0,0:0:0:0:
42,192,155706,1,0,0:0:0:0:
298,192,155799,1,0,0:0:0:0:
469,192,155987,1,0,0:0:0:0:
42,192,155987,1,0,0:0:0:0:
384,192,156080,1,0,0:0:0:0:
298,192,156174,1,0,0:0:0:0:
128,192,156361,1,0,0:0:0:0:
469,192,156361,1,0,0:0:0:0:
384,192,156361,1,0,0:0:0:0:
298,192,156455,1,0,0:0:0:0:
213,192,156736,1,0,0:0:0:0:
384,192,156736,1,0,0:0:0:0:
384,192,156924,1,0,0:0:0:0:
298,192,157205,1,0,0:0:0:0:
128,192,157205,1,0,0:0:0:0:
469,192,157392,1,0,0:0:0:0:
384,192,157579,1,0,0:0:0:0:
213,192,157673,1,0,0:0:0:0:
298,192,157861,1,0,0:0:0:0:
42,192,158048,1,0,0:0:0:0:
469,192,158048,1,0,0:0:0:0:
384,192,158235,1,0,0:0:0:0:
298,192,158423,1,0,0:0:0:0:
128,192,158423,1,0,0:0:0:0:
213,192,158891,1,0,0:0:0:0:
384,192,158891,1,0,0:0:0:0:
128,192,159266,1,0,0:0:0:0:
384,192,159266,1,0,0:0:0:0:
213,192,159641,1,0,0:0:0:0:
298,192,159734,1,0,0:0:0:0:
469,192,160109,1,0,0:0:0:0:
42,192,160109,1,0,0:0:0:0:
298,192,160109,1,0,0:0:0:0:
213,192,160109,1,0,0:0:0:0:
298,192,170228,5,0,0:0:0:0:
213,192,170228,128,0,170790:0:0:0:0:
469,192,170322,1,0,0:0:0:0:
298,192,170415,1,0,0:0:0:0:
469,192,170509,1,0,0:0:0:0:
298,192,170603,1,0,0:0:0:0:
384,192,171071,1,0,0:0:0:0:
128,192,171071,128,0,171540:0:0:0:0:
298,192,171352,1,0,0:0:0:0:
469,192,171446,1,0,0:0:0:0:
298,192,171540,1,0,0:0:0:0:
469,192,171633,1,0,0:0:0:0:
298,192,171821,1,0,0:0:0:0:
469,192,171914,1,0,0:0:0:0:
213,192,171914,128,0,172289:0:0:0:0:
42,192,171914,128,0,172383:0:0:0:0:
384,192,172289,1,0,0:0:0:0:
298,192,172476,1,0,0:0:0:0:
128,192,172476,1,0,0:0:0:0:
469,192,172570,1,0,0:0:0:0:
298,192,172757,1,0,0:0:0:0:
213,192,172757,128,0,173320:0:0:0:0:
384,192,172851,128,0,173226:0:0:0:0:
298,192,173413,1,0,0:0:0:0:
128,192,173413,1,0,0:0:0:0:
469,192,173507,1,0,0:0:0:0:
298,192,173601,1,0,0:0:0:0:
213,192,173601,128,0,174163:0:0:0:0:
469,192,173788,128,0,174163:0:0:0:0:
384,192,174163,1,0,0:0:0:0:
42,192,174257,128,0,174725:0:0:0:0:
298,192,174350,1,0,0:0:0:0:
469,192,174444,1,0,0:0:0:0:
298,192,174631,1,0,0:0:0:0:
469,192,174725,1,0,0:0:0:0:
128,192,174819,1,0,0:0:0:0:
298,192,174819,1,0,0:0:0:0:
384,192,174912,1,0,0:0:0:0:
298,192,175006,1,0,0:0:0:0:
213,192,175006,1,0,0:0:0:0:
384,192,175100,1,0,0:0:0:0:
298,192,175193,1,0,0:0:0:0:
42,192,175193,1,0,0:0:0:0:
469,192,175287,1,0,0:0:0:0:
298,192,175381,1,0,0:0:0:0:
213,192,175381,1,0,0:0:0:0:
469,192,175475,1,0,0:0:0:0:
298,192,175475,1,0,0:0:0:0:
128,192,175568,1,0,0:0:0:0:
469,192,175568,1,0,0:0:0:0:
298,192,175662,1,0,0:0:0:0:
213,192,175849,1,0,0:0:0:0:
384,192,175849,1,0,0:0:0:0:
298,192,176037,1,0,0:0:0:0:
42,192,176037,128,0,176599:0:0:0:0:
469,192,176130,128,0,176505:0:0:0:0:
128,192,176505,1,0,0:0:0:0:
384,192,176599,1,0,0:0:0:0:
213,192,176693,1,0,0:0:0:0:
298,192,176693,1,0,0:0:0:0:
469,192,176786,1,0,0:0:0:0:
42,192,176880,1,0,0:0:0:0:
298,192,176974,1,0,0:0:0:0:
213,192,176974,1,0,0:0:0:0:
384,192,177255,1,0,0:0:0:0:
128,192,177255,1,0,0:0:0:0:
298,192,177348,1,0,0:0:0:0:
213,192,177348,1,0,0:0:0:0:
469,192,177442,1,0,0:0:0:0:
42,192,177536,1,0,0:0:0:0:
298,192,177536,1,0,0:0:0:0:
213,192,177536,1,0,0:0:0:0:
469,192,177629,1,0,0:0:0:0:
384,192,177911,1,0,0:0:0:0:
128,192,177911,1,0,0:0:0:0:
213,192,178192,1,0,0:0:0:0:
298,192,178192,1,0,0:0:0:0:
469,192,178379,1,0,0:0:0:0:
42,192,178379,1,0,0:0:0:0:
213,192,178473,1,0,0:0:0:0:
298,192,178473,1,0,0:0:0:0:
384,192,178660,1,0,0:0:0:0:
128,192,178660,1,0,0:0:0:0:
213,192,178847,1,0,0:0:0:0:
298,192,178941,1,0,0:0:0:0:
469,192,179035,1,0,0:0:0:0:
42,192,179035,1,0,0:0:0:0:
298,192,179129,1,0,0:0:0:0:
213,192,179129,1,0,0:0:0:0:
469,192,179316,1,0,0:0:0:0:
128,192,179410,128,0,179784:0:0:0:0:
384,192,179503,1,0,0:0:0:0:
298,192,179784,1,0,0:0:0:0:
213,192,179784,1,0,0:0:0:0:
469,192,179972,1,0,0:0:0:0:
42,192,179972,1,0,0:0:0:0:
213,192,180065,1,0,0:0:0:0:
298,192,180065,1,0,0:0:0:0:
469,192,180159,1,0,0:0:0:0:
128,192,180347,1,0,0:0:0:0:
384,192,180347,1,0,0:0:0:0:
213,192,180440,1,0,0:0:0:0:
298,192,180534,1,0,0:0:0:0:
42,192,180721,1,0,0:0:0:0:
469,192,180721,1,0,0:0:0:0:
384,192,180721,1,0,0:0:0:0:
128,192,180815,1,0,0:0:0:0:
469,192,181096,1,0,0:0:0:0:
42,192,181096,1,0,0:0:0:0:
384,192,181190,1,0,0:0:0:0:
128,192,181283,1,0,0:0:0:0:
42,192,181471,1,0,0:0:0:0:
469,192,181471,1,0,0:0:0:0:
384,192,181471,1,0,0:0:0:0:
128,192,181565,1,0,0:0:0:0:
298,192,181658,1,0,0:0:0:0:
213,192,181658,1,0,0:0:0:0:
469,192,181846,1,0,0:0:0:0:
42,192,181846,1,0,0:0:0:0:
213,192,181846,1,0,0:0:0:0:
298,192,181846,1,0,0:0:0:0:
469,192,181939,1,0,0:0:0:0:
42,192,182033,1,0,0:0:0:0:
213,192,182033,1,0,0:0:0:0:
298,192,182033,1,0,0:0:0:0:
128,192,182314,1,0,0:0:0:0:
384,192,182314,1,0,0:0:0:0:
384,192,182501,1,0,0:0:0:0:
213,192,182595,1,0,0:0:0:0:
384,192,182783,1,0,0:0:0:0:
128,192,182783,1,0,0:0:0:0:
384,192,182970,1,0,0:0:0:0:
213,192,183251,1,0,0:0:0:0:
298,192,183438,1,0,0:0:0:0:
42,192,183626,128,0,185125:0:0:0:0:
469,192,183719,1,0,0:0:0:0:
384,192,184000,1,0,0:0:0:0:
298,192,184282,1,0,0:0:0:0:
469,192,184656,1,0,0:0:0:0:
298,192,184844,1,0,0:0:0:0:
469,192,185031,1,0,0:0:0:0:
128,192,185312,128,0,186062:0:0:0:0:
384,192,185312,128,0,186155:0:0:0:0:
213,192,186062,128,0,186905:0:0:0:0:
298,192,186155,128,0,186905:0:0:0:0:
42,192,186905,128,0,190746:0:0:0:0:
469,192,186905,128,0,191683:0:0:0:0:
384,192,187842,1,0,0:0:0:0:
128,192,187842,1,0,0:0:0:0:
128,192,188217,1,0,0:0:0:0:
384,192,188217,1,0,0:0:0:0:
213,192,188685,1,0,0:0:0:0:
298,192,188685,1,0,0:0:0:0:
128,192,189060,1,0,0:0:0:0:
384,192,189060,1,0,0:0:0:0:
384,192,189528,1,0,0:0:0:0:
128,192,189528,128,0,189903:0:0:0:0:
213,192,189903,128,0,190372:0:0:0:0:
298,192,189903,128,0,190372:0:0:0:0:
384,192,190372,128,0,190746:0:0:0:0:
128,192,190372,128,0,190746:0:0:0:0:
213,192,190746,128,0,191121:0:0:0:0:
298,192,190746,128,0,191215:0:0:0:0:
42,192,190840,128,0,191496:0:0:0:0:
128,192,191215,1,0,0:0:0:0:
384,192,191215,1,0,0:0:0:0:
384,192,191683,1,0,0:0:0:0:
128,192,191683,1,0,0:0:0:0:
298,192,191964,1,0,0:0:0:0:
213,192,191964,128,0,192526:0:0:0:0:
469,192,192152,1,0,0:0:0:0:
298,192,192339,1,0,0:0:0:0:
469,192,192433,1,0,0:0:0:0:
384,192,192808,1,0,0:0:0:0:
128,192,192808,128,0,193276:0:0:0:0:
298,192,192901,1,0,0:0:0:0:
384,192,193089,1,0,0:0:0:0:
298,192,193182,1,0,0:0:0:0:
469,192,193651,1,0,0:0:0:0:
42,192,193651,128,0,194213:0:0:0:0:
298,192,193838,1,0,0:0:0:0:
469,192,193838,1,0,0:0:0:0:
298,192,194026,1,0,0:0:0:0:
128,192,194494,128,0,194869:0:0:0:0:
384,192,194588,1,0,0:0:0:0:
384,192,194775,1,0,0:0:0:0:
298,192,194962,1,0,0:0:0:0:
213,192,194962,128,0,195337:0:0:0:0:
469,192,195150,1,0,0:0:0:0:
384,192,195431,128,0,195806:0:0:0:0:
128,192,195431,128,0,195899:0:0:0:0:
469,192,196274,1,0,0:0:0:0:
298,192,196274,1,0,0:0:0:0:
42,192,196274,128,0,196743:0:0:0:0:
213,192,196274,128,0,196743:0:0:0:0:
469,192,196649,1,0,0:0:0:0:
298,192,196649,1,0,0:0:0:0:
384,192,197117,1,0,0:0:0:0:
128,192,197117,128,0,197586:0:0:0:0:
298,192,197492,1,0,0:0:0:0:
469,192,197867,1,0,0:0:0:0:
213,192,197867,128,0,198429:0:0:0:0:
298,192,198335,1,0,0:0:0:0:
469,192,198804,1,0,0:0:0:0:
42,192,198804,128,0,199272:0:0:0:0:
298,192,198897,1,0,0:0:0:0:
469,192,198991,1,0,0:0:0:0:
384,192,199553,1,0,0:0:0:0:
128,192,199553,128,0,200209:0:0:0:0:
298,192,199647,1,0,0:0:0:0:
384,192,199834,1,0,0:0:0:0:
298,192,199928,1,0,0:0:0:0:
298,192,200397,1,0,0:0:0:0:
213,192,200397,128,0,200959:0:0:0:0:
469,192,200584,1,0,0:0:0:0:
298,192,200584,1,0,0:0:0:0:
469,192,200678,1,0,0:0:0:0:
128,192,201240,1,0,0:0:0:0:
384,192,201240,1,0,0:0:0:0:
213,192,201615,1,0,0:0:0:0:
298,192,201615,1,0,0:0:0:0:
469,192,201989,1,0,0:0:0:0:
42,192,202083,128,0,203769:0:0:0:0:
384,192,202458,1,0,0:0:0:0:
298,192,202926,128,0,203395:0:0:0:0:
128,192,202926,128,0,203488:0:0:0:0:
384,192,203301,128,0,203676:0:0:0:0:
298,192,203769,1,0,0:0:0:0:
469,192,203957,1,0,0:0:0:0:
298,192,204144,1,0,0:0:0:0:
213,192,204238,1,0,0:0:0:0:
384,192,204332,1,0,0:0:0:0:
384,192,204519,1,0,0:0:0:0:
384,192,204706,1,0,0:0:0:0:
128,192,204706,128,0,205081:0:0:0:0:
384,192,204987,1,0,0:0:0:0:
298,192,205175,1,0,0:0:0:0:
469,192,205269,1,0,0:0:0:0:
213,192,205456,128,0,206018:0:0:0:0:
469,192,205550,1,0,0:0:0:0:
469,192,205643,1,0,0:0:0:0:
469,192,206299,1,0,0:0:0:0:
42,192,206299,128,0,206768:0:0:0:0:
469,192,206486,1,0,0:0:0:0:
469,192,206674,1,0,0:0:0:0:
384,192,207142,1,0,0:0:0:0:
128,192,207142,128,0,207611:0:0:0:0:
384,192,207330,1,0,0:0:0:0:
384,192,207423,1,0,0:0:0:0:
213,192,207986,1,0,0:0:0:0:
469,192,207986,1,0,0:0:0:0:
298,192,207986,1,0,0:0:0:0:
213,192,208360,1,0,0:0:0:0:
42,192,208360,1,0,0:0:0:0:
469,192,208360,1,0,0:0:0:0:
298,192,208360,1,0,0:0:0:0:
213,192,208829,128,0,210328:0:0:0:0:
42,192,208829,128,0,210328:0:0:0:0:
469,192,208829,128,0,210328:0:0:0:0:
298,192,208829,128,0,210328:0:0:0:0:
384,192,209578,1,0,0:0:0:0:
128,192,209672,1,0,0:0:0:0:
384,192,210047,1,0,0:0:0:0:
128,192,210047,1,0,0:0:0:0:
298,192,210515,1,0,0:0:0:0:
213,192,210515,1,0,0:0:0:0:
384,192,210796,1,0,0:0:0:0:
128,192,210796,128,0,211358:0:0:0:0:
298,192,210984,1,0,0:0:0:0:
384,192,211077,1,0,0:0:0:0:
298,192,211265,1,0,0:0:0:0:
469,192,211546,1,0,0:0:0:0:
213,192,211640,1,0,0:0:0:0:
298,192,211640,1,0,0:0:0:0:
469,192,211827,1,0,0:0:0:0:
128,192,212108,1,0,0:0:0:0:
384,192,212108,1,0,0:0:0:0:
298,192,212202,1,0,0:0:0:0:
213,192,212202,1,0,0:0:0:0:
469,192,212295,1,0,0:0:0:0:
42,192,212389,1,0,0:0:0:0:
298,192,212389,1,0,0:0:0:0:
213,192,212389,1,0,0:0:0:0:
469,192,212483,1,0,0:0:0:0:
298,192,212576,1,0,0:0:0:0:
213,192,212576,1,0,0:0:0:0:
128,192,212764,1,0,0:0:0:0:
384,192,212764,1,0,0:0:0:0:
298,192,212951,1,0,0:0:0:0:
213,192,213045,1,0,0:0:0:0:
469,192,213139,1,0,0:0:0:0:
42,192,213139,1,0,0:0:0:0:
298,192,213232,1,0,0:0:0:0:
128,192,213232,128,0,213607:0:0:0:0:
384,192,213326,1,0,0:0:0:0:
213,192,213607,1,0,0:0:0:0:
298,192,213607,1,0,0:0:0:0:
469,192,213794,1,0,0:0:0:0:
42,192,213794,128,0,214169:0:0:0:0:
469,192,213982,1,0,0:0:0:0:
469,192,214169,1,0,0:0:0:0:
128,192,214169,128,0,214544:0:0:0:0:
384,192,214450,1,0,0:0:0:0:
213,192,214450,1,0,0:0:0:0:
298,192,214638,1,0,0:0:0:0:
128,192,214731,1,0,0:0:0:0:
469,192,214825,1,0,0:0:0:0:
213,192,214919,1,0,0:0:0:0:
469,192,215012,1,0,0:0:0:0:
384,192,215106,1,0,0:0:0:0:
128,192,215106,128,0,215481:0:0:0:0:
298,192,215294,1,0,0:0:0:0:
213,192,215387,128,0,215856:0:0:0:0:
469,192,215481,128,0,215856:0:0:0:0:
384,192,215856,128,0,216230:0:0:0:0:
42,192,215856,128,0,216324:0:0:0:0:
298,192,216230,128,0,216699:0:0:0:0:
128,192,216230,128,0,216699:0:0:0:0:
213,192,216699,128,0,217074:0:0:0:0:
469,192,216699,128,0,217074:0:0:0:0:
128,192,217074,1,0,0:0:0:0:
384,192,217074,1,0,0:0:0:0:
213,192,217167,1,0,0:0:0:0:
298,192,217167,1,0,0:0:0:0:
42,192,217261,1,0,0:0:0:0:
469,192,217261,1,0,0:0:0:0:
213,192,217355,1,0,0:0:0:0:
298,192,217355,1,0,0:0:0:0:
384,192,217542,1,0,0:0:0:0:
128,192,217542,128,0,217917:0:0:0:0:
384,192,217729,1,0,0:0:0:0:
298,192,217729,1,0,0:0:0:0:
469,192,217917,1,0,0:0:0:0:
213,192,217917,128,0,218760:0:0:0:0:
298,192,218104,1,0,0:0:0:0:
469,192,218292,1,0,0:0:0:0:
298,192,218385,1,0,0:0:0:0:
469,192,218479,1,0,0:0:0:0:
298,192,218573,1,0,0:0:0:0:
469,192,218666,1,0,0:0:0:0:
42,192,218760,1,0,0:0:0:0:
298,192,218854,1,0,0:0:0:0:
384,192,218854,1,0,0:0:0:0:
128,192,218854,128,0,219697:0:0:0:0:
298,192,219041,128,0,219697:0:0:0:0:
384,192,219603,1,0,0:0:0:0:
213,192,219697,128,0,220353:0:0:0:0:
298,192,219791,128,0,220165:0:0:0:0:
469,192,219978,128,0,220447:0:0:0:0:
42,192,220353,1,0,0:0:0:0:
298,192,220447,1,0,0:0:0:0:
469,192,220540,1,0,0:0:0:0:
213,192,220540,128,0,221196:0:0:0:0:
298,192,220634,1,0,0:0:0:0:
469,192,220821,128,0,221196:0:0:0:0:
384,192,221196,1,0,0:0:0:0:
128,192,221290,128,0,221852:0:0:0:0:
298,192,221383,1,0,0:0:0:0:
469,192,221571,1,0,0:0:0:0:
469,192,221852,1,0,0:0:0:0:
298,192,221852,1,0,0:0:0:0:
213,192,221852,128,0,222227:0:0:0:0:
469,192,221946,1,0,0:0:0:0:
298,192,222039,1,0,0:0:0:0:
42,192,222227,128,0,223070:0:0:0:0:
298,192,222227,128,0,223070:0:0:0:0:
469,192,222227,128,0,223070:0:0:0:0:
128,192,223070,128,0,223445:0:0:0:0:
384,192,223070,128,0,223445:0:0:0:0:
213,192,223445,128,0,223913:0:0:0:0:
298,192,223445,128,0,223913:0:0:0:0:
469,192,223445,128,0,223913:0:0:0:0:
42,192,223538,128,0,223913:0:0:0:0:
128,192,223913,128,0,224288:0:0:0:0:
384,192,223913,128,0,224382:0:0:0:0:
298,192,224288,128,0,224756:0:0:0:0:
213,192,224288,128,0,224756:0:0:0:0:
469,192,224288,128,0,224756:0:0:0:0:
42,192,224382,128,0,224756:0:0:0:0:
128,192,224756,128,0,225131:0:0:0:0:
384,192,224756,128,0,225131:0:0:0:0:
298,192,225131,1,0,0:0:0:0:
42,192,225131,1,0,0:0:0:0:
213,192,225131,1,0,0:0:0:0:
469,192,225131,1,0,0:0:0:0:
128,192,225506,1,0,0:0:0:0:
384,192,225506,1,0,0:0:0:0:
213,192,225600,1,0,0:0:0:0:
298,192,225693,1,0,0:0:0:0:
469,192,225787,1,0,0:0:0:0:
42,192,225787,1,0,0:0:0:0:
298,192,225881,1,0,0:0:0:0:
213,192,225881,128,0,226349:0:0:0:0:
469,192,225974,1,0,0:0:0:0:
298,192,226068,1,0,0:0:0:0:
384,192,226349,1,0,0:0:0:0:
128,192,226349,128,0,226911:0:0:0:0:
298,192,226537,1,0,0:0:0:0:
213,192,226537,1,0,0:0:0:0:
469,192,226630,1,0,0:0:0:0:
298,192,226724,1,0,0:0:0:0:
469,192,226818,1,0,0:0:0:0:
298,192,226911,1,0,0:0:0:0:
384,192,227192,1,0,0:0:0:0:
213,192,227192,1,0,0:0:0:0:
298,192,227286,1,0,0:0:0:0:
128,192,227380,1,0,0:0:0:0:
469,192,227380,1,0,0:0:0:0:
213,192,227473,1,0,0:0:0:0:
298,192,227567,1,0,0:0:0:0:
42,192,227661,1,0,0:0:0:0:
469,192,227661,1,0,0:0:0:0:
128,192,227942,1,0,0:0:0:0:
384,192,227942,1,0,0:0:0:0:
128,192,228129,1,0,0:0:0:0:
384,192,228129,1,0,0:0:0:0:
384,192,228410,1,0,0:0:0:0:
128,192,228410,1,0,0:0:0:0:
213,192,228598,1,0,0:0:0:0:
384,192,228598,1,0,0:0:0:0:
213,192,228785,1,0,0:0:0:0:
42,192,228785,1,0,0:0:0:0:
469,192,228785,1,0,0:0:0:0:
298,192,228879,1,0,0:0:0:0:
42,192,229066,1,0,0:0:0:0:
213,192,229066,1,0,0:0:0:0:
469,192,229066,1,0,0:0:0:0:
298,192,229066,1,0,0:0:0:0:
128,192,229347,1,0,0:0:0:0:
384,192,229441,1,0,0:0:0:0:
213,192,229722,1,0,0:0:0:0:
298,192,229722,1,0,0:0:0:0:
469,192,230190,128,0,230565:0:0:0:0:
128,192,230190,128,0,230565:0:0:0:0:
213,192,230565,128,0,231315:0:0:0:0:
384,192,230659,1,0,0:0:0:0:
298,192,230846,1,0,0:0:0:0:
469,192,231034,1,0,0:0:0:0:
298,192,231221,1,0,0:0:0:0:
384,192,231315,128,0,231690:0:0:0:0:
42,192,231315,128,0,231971:0:0:0:0:
298,192,231596,1,0,0:0:0:0:
469,192,231783,1,0,0:0:0:0:
298,192,231971,1,0,0:0:0:0:
469,192,232158,1,0,0:0:0:0:
298,192,232252,1,0,0:0:0:0:
128,192,232252,128,0,233001:0:0:0:0:
469,192,232345,1,0,0:0:0:0:
298,192,232533,128,0,233001:0:0:0:0:
384,192,233001,1,0,0:0:0:0:
213,192,233001,128,0,233938:0:0:0:0:
298,192,233189,1,0,0:0:0:0:
384,192,233282,1,0,0:0:0:0:
298,192,233376,128,0,233844:0:0:0:0:
384,192,233470,1,0,0:0:0:0:
384,192,233844,1,0,0:0:0:0:
42,192,233844,128,0,234688:0:0:0:0:
298,192,234032,1,0,0:0:0:0:
384,192,234126,1,0,0:0:0:0:
298,192,234219,1,0,0:0:0:0:
384,192,234313,1,0,0:0:0:0:
298,192,234407,1,0,0:0:0:0:
298,192,234688,1,0,0:0:0:0:
469,192,234688,1,0,0:0:0:0:
128,192,234688,128,0,235250:0:0:0:0:
298,192,234875,1,0,0:0:0:0:
469,192,234875,1,0,0:0:0:0:
298,192,235062,1,0,0:0:0:0:
469,192,235250,1,0,0:0:0:0:
213,192,235250,128,0,235625:0:0:0:0:
384,192,235437,1,0,0:0:0:0:
298,192,235625,1,0,0:0:0:0:
128,192,235625,1,0,0:0:0:0:
384,192,235718,1,0,0:0:0:0:
213,192,235718,1,0,0:0:0:0:
128,192,235812,1,0,0:0:0:0:
213,192,235906,1,0,0:0:0:0:
128,192,235999,1,0,0:0:0:0:
213,192,236093,1,0,0:0:0:0:
469,192,236468,1,0,0:0:0:0:
42,192,236468,1,0,0:0:0:0:
213,192,236468,1,0,0:0:0:0:
298,192,236468,1,0,0:0:0:0:
469,192,236562,1,0,0:0:0:0:
213,192,236655,1,0,0:0:0:0:
42,192,236655,1,0,0:0:0:0:
298,192,236655,1,0,0:0:0:0:
469,192,236749,1,0,0:0:0:0:
42,192,237030,1,0,0:0:0:0:
469,192,237124,1,0,0:0:0:0:
128,192,237124,1,0,0:0:0:0:
384,192,237217,1,0,0:0:0:0:
42,192,237311,1,0,0:0:0:0:
469,192,237311,1,0,0:0:0:0:
128,192,237311,1,0,0:0:0:0:
384,192,237405,1,0,0:0:0:0:
469,192,237498,1,0,0:0:0:0:
42,192,237498,1,0,0:0:0:0:
384,192,237592,1,0,0:0:0:0:
128,192,237592,1,0,0:0:0:0:
469,192,237686,1,0,0:0:0:0:
42,192,237686,1,0,0:0:0:0:
128,192,237780,1,0,0:0:0:0:
384,192,237780,1,0,0:0:0:0:
469,192,237873,1,0,0:0:0:0:
42,192,237967,1,0,0:0:0:0:
128,192,237967,1,0,0:0:0:0:
469,192,238061,1,0,0:0:0:0:
42,192,238154,1,0,0:0:0:0:
128,192,238248,1,0,0:0:0:0:
384,192,238248,1,0,0:0:0:0:
469,192,238342,1,0,0:0:0:0:
42,192,238342,1,0,0:0:0:0:
384,192,238342,1,0,0:0:0:0:
128,192,238435,1,0,0:0:0:0:
469,192,238529,1,0,0:0:0:0:
469,192,238810,1,0,0:0:0:0:
128,192,238904,1,0,0:0:0:0:
298,192,238904,1,0,0:0:0:0:
213,192,238904,1,0,0:0:0:0:
469,192,238998,1,0,0:0:0:0:
298,192,239091,1,0,0:0:0:0:
213,192,239185,1,0,0:0:0:0:
469,192,239185,1,0,0:0:0:0:
298,192,239279,1,0,0:0:0:0:
42,192,239279,1,0,0:0:0:0:
469,192,239372,1,0,0:0:0:0:
213,192,239466,1,0,0:0:0:0:
384,192,239653,1,0,0:0:0:0:
128,192,239747,1,0,0:0:0:0:
213,192,239934,1,0,0:0:0:0:
469,192,239934,1,0,0:0:0:0:
298,192,239934,1,0,0:0:0:0:
42,192,239934,1,0,0:0:0:0:
384,192,240122,1,0,0:0:0:0:
298,192,240122,1,0,0:0:0:0:
469,192,240122,1,0,0:0:0:0:
128,192,240122,1,0,0:0:0:0:
213,192,240122,1,0,0:0:0:0:
42,192,240122,1,0,0:0:0:0:
469,192,240309,1,0,0:0:0:0:
384,192,240309,1,0,0:0:0:0:
298,192,240309,1,0,0:0:0:0:
42,192,240403,1,0,0:0:0:0:
128,192,240403,1,0,0:0:0:0:
213,192,240403,1,0,0:0:0:0:
384,192,240590,1,0,0:0:0:0:
469,192,240590,1,0,0:0:0:0:
298,192,240590,1,0,0:0:0:0:
213,192,240778,1,0,0:0:0:0:
42,192,240778,1,0,0:0:0:0:
128,192,240778,1,0,0:0:0:0:
298,192,241059,1,0,0:0:0:0:
469,192,241152,1,0,0:0:0:0:
384,192,241152,1,0,0:0:0:0:
128,192,241340,1,0,0:0:0:0:
213,192,241340,1,0,0:0:0:0:
42,192,241340,1,0,0:0:0:0:
298,192,241621,1,0,0:0:0:0:
384,192,241621,1,0,0:0:0:0:
469,192,241621,1,0,0:0:0:0:
42,192,241808,1,0,0:0:0:0:
128,192,241808,1,0,0:0:0:0:
213,192,241808,1,0,0:0:0:0:
469,192,241996,1,0,0:0:0:0:
298,192,241996,128,0,242370:0:0:0:0:
384,192,241996,128,0,242370:0:0:0:0:
128,192,242370,128,0,242745:0:0:0:0:
213,192,242370,128,0,242745:0:0:0:0:
42,192,242370,128,0,242745:0:0:0:0:
469,192,242839,1,0,0:0:0:0:
298,192,242839,1,0,0:0:0:0:
384,192,242839,1,0,0:0:0:0:
42,192,243026,1,0,0:0:0:0:
128,192,243026,1,0,0:0:0:0:
213,192,243026,1,0,0:0:0:0:
469,192,243214,1,0,0:0:0:0:
384,192,243307,1,0,0:0:0:0:
298,192,243307,1,0,0:0:0:0:
42,192,243495,1,0,0:0:0:0:
128,192,243495,1,0,0:0:0:0:
213,192,243495,1,0,0:0:0:0:
298,192,243682,128,0,246868:0:0:0:0:
469,192,243682,128,0,246868:0:0:0:0:
384,192,243682,128,0,246868:0:0:0:0:
42,192,244057,128,0,246868:0:0:0:0:
213,192,244057,128,0,246868:0:0:0:0:
128,192,244057,128,0,246868:0:0:0:0:
