osu file format v14

[General]
AudioFilename: audio.mp3
AudioLeadIn: 0
PreviewTime: 64951
Countdown: 0
SampleSet: Soft
StackLeniency: 0.4
Mode: 0
LetterboxInBreaks: 0
WidescreenStoryboard: 1

[Editor]
Bookmarks: 6092,28548,39776,51004,65039,87495
DistanceSpacing: 0.3
BeatDivisor: 4
GridSize: 32
TimelineZoom: 2.5

[Metadata]
Title:Love with You (TV Size)
TitleUnicode:Love with You (TV Size)
Artist:fripSide
ArtistUnicode:fripSide
Creator:NEVlR
Version:To Love, or not to Love
Source:寄宿学校のジュリエット
Tags:nevir Kishuku Gakkou no Juliet Boarding School anime japanese opening pop jpop
BeatmapID:2991202
BeatmapSetID:1003489

[Difficulty]
HPDrainRate:6
CircleSize:4.2
OverallDifficulty:8.5
ApproachRate:9.2
SliderMultiplier:1.6
SliderTickRate:1

[Events]
//Background and Video events
Video,0,"Opening_x264.avi"
0,0,"Cute Juliet.jpg",0,0
//Break Periods
//Storyboard Layer 0 (Background)
//Storyboard Layer 1 (Fail)
//Storyboard Layer 2 (Pass)
//Storyboard Layer 3 (Foreground)
//Storyboard Layer 4 (Overlay)
//Storyboard Sound Samples

[TimingPoints]
478,350.877192982456,4,2,1,45,1,0
6092,-100,4,2,1,60,0,0
28548,-125,4,2,1,50,0,0
39776,-111.111111111111,4,2,1,55,0,0
40039,-111.111111111111,4,2,1,5,0,0
40127,-111.111111111111,4,2,1,55,0,0
43197,-111.111111111111,4,2,1,5,0,0
43285,-111.111111111111,4,2,1,55,0,0
48460,-111.111111111111,4,2,1,5,0,0
48548,-111.111111111111,4,2,1,55,0,0
51004,-90.9090909090909,4,2,1,55,0,0
56618,-100,4,2,1,55,0,0
65039,-86.9565217391304,4,2,1,85,0,1
66530,-86.9565217391304,4,2,1,5,0,1
66618,-86.9565217391304,4,2,1,85,0,1
69337,-86.9565217391304,4,2,1,5,0,1
69425,-86.9565217391304,4,2,1,85,0,1
72144,-86.9565217391304,4,2,1,5,0,1
72232,-86.9565217391304,4,2,1,85,0,1
77758,-86.9565217391304,4,2,1,5,0,1
77846,-86.9565217391304,4,2,1,85,0,1
84074,-86.9565217391304,4,2,1,5,0,1
84162,-86.9565217391304,4,2,1,85,0,1
85916,-105.263157894737,4,2,1,85,0,0

[Colours]
Combo1 : 142,187,242
Combo2 : 248,240,95
Combo3 : 84,245,237
Combo4 : 253,102,106

[HitObjects]
453,12,5390,5,2,1:2:0:0:
334,211,5565,1,2,1:2:0:0:
334,211,6092,5,6,1:2:0:0:
481,289,6267,1,2,0:2:0:0:
308,93,6442,1,10,0:2:0:0:
161,171,6618,2,0,L|177:258,1,80,2|0,1:2|2:2,0:0:0:0:
51,349,6969,2,0,P|46:305|67:262,1,80,2|8,1:2|0:2,0:0:0:0:
282,213,7320,6,0,B|343:206|355:267|429:261,1,160,6|0,1:2|1:2,0:0:0:0:
496,200,7846,2,0,L|512:113,1,80,8|0,0:2|0:2,0:0:0:0:
294,305,8197,2,0,L|310:392,1,80,2|2,1:2|1:2,0:0:0:0:
430,261,8548,1,10,0:2:0:0:
179,376,8723,1,2,0:2:0:0:
282,213,8899,6,0,P|306:138|253:55,1,160,6|8,1:2|0:2,0:0:0:0:
95,216,9425,1,2,1:2:0:0:
89,225,9513,1,2,1:2:0:0:
83,234,9600,1,2,1:2:0:0:
211,146,9776,1,2,1:2:0:0:
71,79,9951,1,10,0:2:0:0:
64,339,10127,6,0,B|139:352|133:294|216:310,1,160,6|0,1:2|1:2,0:0:0:0:
390,276,10653,2,0,P|410:310|406:363,1,80,10|0,0:2|0:2,0:0:0:0:
272,109,11004,2,0,L|288:22,1,80,2|0,1:2|0:2,0:0:0:0:
142,216,11355,2,0,P|102:221|55:200,1,80,10|0,0:2|0:2,0:0:0:0:
414,149,11706,6,0,L|501:165,1,80,6|2,1:2|1:2,0:0:0:0:
286,30,12056,1,10,0:2:0:0:
400,255,12232,2,0,P|407:295|384:342,1,80,2|0,1:2|0:2,0:0:0:0:
112,129,12583,2,0,P|105:89|128:42,1,80,2|8,1:2|0:2,0:0:0:0:
227,348,12934,6,0,L|255:190,1,160,6|0,1:2|1:2,0:0:0:0:
56,294,13460,2,0,P|94:300|132:288,1,80,8|0,0:2|0:2,0:0:0:0:
446,143,13811,2,0,P|408:130|369:137,1,80,2|2,1:2|1:2,0:0:0:0:
388,266,14074,1,0,1:2:0:0:
399,260,14162,2,0,P|405:238|405:221,1,40,2|0,1:2|1:2,0:0:0:0:
344,43,14337,1,2,1:2:0:0:
0,135,14513,5,6,1:2:0:0:
92,151,14688,1,2,1:2:0:0:
184,168,14863,1,10,0:2:0:0:
139,50,15039,2,0,P|101:38|62:43,1,80,6|0,1:2|0:2,0:0:0:0:
45,253,15390,2,0,P|82:264|121:259,1,80,6|0,1:2|0:2,0:0:0:0:
296,118,15741,6,0,P|346:69|445:91,1,160,6|0,1:2|1:2,0:0:0:0:
311,354,16267,1,10,0:2:0:0:
507,257,16442,1,0,1:2:0:0:
500,262,16530,1,0,1:2:0:0:
493,267,16618,2,0,L|449:259,1,40,10|0,0:2|3:0,0:0:0:0:
229,224,16793,5,0,1:2:0:0:
241,232,16881,1,0,1:2:0:0:
253,240,16970,1,10,0:2:0:0:
220,281,17057,1,0,1:2:0:0:
176,310,17145,1,0,1:2:0:0:
124,317,17233,1,0,1:2:0:0:
73,302,17320,6,0,B|76:242|76:242|95:218|95:218|100:145,1,160,6|10,1:2|0:2,0:0:0:0:
5,41,17846,2,0,P|-7:78|0:116,1,80,2|0,1:2|0:2,0:0:0:0:
208,132,18197,2,0,P|220:94|213:56,1,80,2|8,1:2|0:2,0:0:0:0:
325,234,18548,6,0,L|483:205,1,160,6|0,1:2|1:2,0:0:0:0:
297,365,19074,1,8,0:2:0:0:
413,100,19249,1,0,3:2:0:0:
420,95,19337,1,0,3:2:0:0:
427,90,19425,1,2,1:2:0:0:
207,227,19600,1,0,1:2:0:0:
214,232,19688,1,0,1:2:0:0:
221,237,19776,2,0,L|228:281,2,40,8|0|0,1:2|1:2|1:2,0:0:0:0:
70,216,20127,6,0,P|16:285|44:354,1,160,6|8,1:2|0:2,0:0:0:0:
199,126,20653,2,0,L|183:39,1,80,6|0,1:2|0:2,0:0:0:0:
341,235,21004,1,6,1:2:0:0:
207,365,21179,1,2,0:2:0:0:
341,235,21355,6,0,B|417:228|405:285|490:278,1,160,6|0,1:2|1:2,0:0:0:0:
453,150,21881,2,0,P|412:128|366:134,1,80,10|2,0:2|0:2,0:0:0:0:
263,311,22232,2,0,P|304:333|350:327,1,80,2|0,1:2|1:2,0:0:0:0:
171,126,22583,2,0,L|187:39,1,80,8|0,0:0|1:2,0:0:0:0:
68,227,22934,6,0,P|27:249|-19:243,1,80,6|0,1:2|0:2,0:0:0:0:
322,107,23285,1,10,2:2:0:0:
322,107,23460,2,0,L|400:121,1,80,6|0,1:2|0:0,0:0:0:0:
147,309,23811,5,0,1:2:0:0:
322,107,23986,1,10,0:2:0:0:
164,15,24162,2,0,L|193:175,1,160,6|0,1:2|1:2,0:0:0:0:
147,309,24688,5,10,0:2:0:0:
448,277,24863,2,0,P|390:225|299:250,1,160,6|0,1:2|1:2,0:0:0:0:
348,384,25390,2,0,P|363:349|364:297,1,80,10|0,0:2|0:2,0:0:0:0:
190,162,25741,6,0,L|30:190,1,160,2|8,1:2|0:2,0:0:0:0:
325,25,26267,1,2,1:2:0:0:
325,25,26355,1,0,3:2:0:0:
325,25,26442,2,0,L|317:64,1,40,10|0,0:2|1:2,0:0:0:0:
190,162,26618,2,0,L|198:205,1,40,2|0,1:2|1:2,0:0:0:0:
98,319,26793,1,10,2:2:0:0:
388,237,26969,6,0,P|422:234|475:253,1,80,6|0,1:2|0:2,0:0:0:0:
119,80,27320,2,0,P|85:83|32:64,1,80,6|0,1:2|0:2,0:0:0:0:
393,80,27670,2,0,P|427:83|480:64,1,80,6|8,1:2|0:2,0:0:0:0:
124,237,28021,2,0,P|90:234|37:253,1,80,6|0,1:2|1:2,0:0:0:0:
46,247,28285,1,0,1:2:0:0:
46,247,28372,1,8,0:2:0:0:
256,32,28548,6,0,B|287:65|287:65|269:146,1,128,6|2,1:2|1:2,0:0:0:0:
384,233,29074,1,0,0:2:0:0:
384,233,29249,2,0,P|385:196|372:169,1,64,2|2,1:2|0:2,0:0:0:0:
283,281,29600,1,0,1:2:0:0:
361,358,29776,2,0,P|392:357|422:345,1,64,2|0,0:2|1:2,0:0:0:0:
205,358,30127,6,0,P|173:357|143:345,1,64,2|0,0:2|1:2,0:0:0:0:
80,255,30477,1,2,0:2:0:0:
80,255,30653,2,0,L|102:130,1,128,2|0,1:2|1:2,0:0:0:0:
56,62,31179,5,0,3:2:0:0:
54,55,31267,1,0,3:2:0:0:
52,48,31355,2,0,P|115:32|177:70,1,128,2|2,1:2|1:2,0:0:0:0:
303,190,31881,1,0,0:2:0:0:
218,208,32056,2,0,P|217:175|229:145,1,64,2|2,1:2|0:2,0:0:0:0:
329,90,32407,1,0,1:2:0:0:
329,90,32583,6,0,B|358:104|358:104|390:101,1,64,2|0,0:2|1:2,0:0:0:0:
512,18,32934,2,0,B|483:4|483:4|450:6,1,64,2|0,0:2|1:2,0:0:0:0:
505,231,33285,1,2,0:2:0:0:
505,231,33460,2,0,P|522:155|483:106,1,128,0|2,1:2|1:2,0:0:0:0:
398,275,33986,1,0,0:2:0:0:
512,344,34162,6,0,B|451:336|447:382|388:372,1,128,6|0,1:2|1:2,0:0:0:0:
170,283,34688,1,2,0:2:0:0:
170,283,34863,2,0,P|232:299|301:259,1,128,2|0,1:2|1:2,0:0:0:0:
335,179,35390,2,0,L|323:116,1,64,0|0,0:2|1:2,0:0:0:0:
235,35,35741,2,0,L|223:98,1,64,0|0,0:2|1:2,0:0:0:0:
17,169,36092,5,0,0:2:0:0:
125,79,36267,2,0,L|103:204,1,128,2|2,1:2|1:2,0:0:0:0:
11,370,36793,1,0,3:2:0:0:
8,362,36881,1,0,3:2:0:0:
3,351,36969,2,0,P|58:316|128:329,1,128,2|0,1:2|1:2,0:0:0:0:
223,241,37495,2,0,P|224:209|211:178,1,64,2|0,0:2|1:2,0:0:0:0:
346,290,37846,2,0,P|347:322|334:353,1,64,2|0,0:2|1:2,0:0:0:0:
411,164,38197,6,0,B|425:104|380:95|396:37,1,128,6|8,0:2|0:2,0:0:0:0:
512,176,38723,1,8,1:2:0:0:
346,290,38899,1,0,1:2:0:0:
459,384,39074,1,0,0:2:0:0:
298,197,39249,5,0,3:2:0:0:
266,202,39336,1,0,3:2:0:0:
234,208,39424,1,0,3:2:0:0:
203,213,39512,1,0,3:2:0:0:
171,219,39600,2,0,L|165:250,1,32,0|0,3:2|3:2,0:0:0:0:
130,22,39776,6,0,P|91:4|12:39,1,107.999996704102,6|0,1:2|0:0,0:0:0:0:
0,89,40127,2,0,L|13:158,1,71.9999978027344,10|0,0:2|0:2,0:0:0:0:
138,364,40477,1,2,1:2:0:0:
67,298,40653,2,0,P|31:295|-2:311,1,71.9999978027344,2|8,1:2|0:2,0:0:0:0:
203,213,41004,6,0,P|235:228|270:224,1,71.9999978027344,2|0,1:2|0:2,0:0:0:0:
327,138,41267,1,2,2:2:0:0:
333,129,41355,2,0,L|320:60,1,71.9999978027344,2|8,1:2|0:2,0:0:0:0:
453,297,41706,2,0,B|385:292|386:342|318:335,1,143.999995605469,2|0,1:2|1:2,0:0:0:0:
108,261,42232,1,8,0:2:0:0:
200,376,42407,1,0,0:2:0:0:
81,163,42583,6,0,P|44:161|12:176,1,71.9999978027344,2|0,1:2|0:2,0:0:0:0:
187,77,42934,2,0,L|292:96,1,107.999996704102,10|0,2:2|0:0,0:0:0:0:
348,47,43285,1,2,1:2:0:0:
223,184,43460,2,0,P|208:217|211:253,1,71.9999978027344,2|8,1:2|0:2,0:0:0:0:
346,357,43811,2,0,P|348:321|333:288,1,71.9999978027344,2|0,1:2|0:2,0:0:0:0:
108,261,44074,5,0,3:0:0:0:
98,255,44162,2,0,P|61:269|27:267,1,71.9999978027344,2|8,1:2|0:2,0:0:0:0:
328,183,44513,2,0,B|396:181|392:231|460:228,1,143.999995605469,2|0,1:2|1:2,0:0:0:0:
174,6,45039,2,0,L|187:79,1,71.9999978027344,10|0,0:2|0:2,0:0:0:0:
83,100,45390,5,6,1:2:0:0:
289,19,45565,1,0,3:2:0:0:
108,206,45741,2,0,P|74:193|35:193,1,71.9999978027344,10|0,0:2|0:0,0:0:0:0:
193,355,46092,1,2,1:2:0:0:
281,339,46267,1,2,1:2:0:0:
369,323,46442,1,10,0:2:0:0:
445,384,46618,6,0,P|463:303|419:241,1,143.999995605469,2|2,1:2|1:2,0:0:0:0:
302,226,47144,1,10,0:2:0:0:
369,323,47320,1,2,1:2:0:0:
426,163,47495,2,0,L|413:90,1,71.9999978027344,2|0,1:2|0:0,0:0:0:0:
492,0,47846,1,10,0:2:0:0:
322,107,48021,5,2,1:2:0:0:
322,107,48197,2,0,P|260:115|214:87,1,107.999996704102,2|0,1:2|0:0,0:0:0:0:
129,25,48548,2,0,L|142:98,1,71.9999978027344,14|0,0:2|0:2,0:0:0:0:
55,276,48899,1,2,1:2:0:0:
3,206,49074,2,0,P|38:189|76:193,1,71.9999978027344,2|8,1:2|0:2,0:0:0:0:
312,299,49425,6,0,B|380:297|376:347|444:344,1,143.999995605469,6|2,1:2|1:2,0:0:0:0:
497,240,49951,1,10,0:2:0:0:
253,384,50127,1,0,1:2:0:0:
383,161,50302,2,0,L|396:88,1,71.9999978027344,10|0,0:2|1:2,0:0:0:0:
291,215,50653,1,8,0:2:0:0:
475,70,50828,5,8,0:2:0:0:
484,64,50916,1,8,0:2:0:0:
493,58,51004,2,0,P|421:-3|319:25,1,176.000005371094,6|2,1:2|0:2,0:0:0:0:
44,172,51706,1,2,1:2:0:0:
44,172,51881,2,0,L|130:156,1,88.000002685547,2|0,1:2|0:2,0:0:0:0:
294,354,52232,5,2,1:2:0:0:
131,157,52583,1,2,1:2:0:0:
344,5,52934,1,2,1:2:0:0:
263,127,53109,2,0,L|246:217,1,88.000002685547,2|0,1:2|0:2,0:0:0:0:
394,322,53460,2,0,P|401:274|377:231,1,88.000002685547,8|0,0:2|1:2,0:0:0:0:
245,353,53723,5,0,1:2:0:0:
233,357,53811,2,0,B|150:360|155:298|71:302,1,176.000005371094,6|2,1:2|0:2,0:0:0:0:
488,299,54513,1,2,1:2:0:0:
394,322,54688,1,2,1:2:0:0:
310,273,54863,1,0,0:2:0:0:
281,180,55039,2,0,L|298:90,1,88.000002685547,2|0,1:2|0:0,0:0:0:0:
186,111,55390,5,2,1:2:0:0:
383,24,55565,1,10,0:2:0:0:
197,243,55741,5,2,1:2:0:0:
0,104,55916,2,0,P|31:82|86:88,1,88.000002685547,10|0,0:2|1:2,0:0:0:0:
360,199,56267,2,0,P|316:202|280:179,1,88.000002685547,10|8,0:2|0:2,0:0:0:0:
277,313,56530,5,8,0:2:0:0:
279,324,56618,2,0,B|247:367|247:367|139:347,1,160,6|8,1:2|0:2,0:0:0:0:
43,236,57144,2,0,P|77:214|133:219,1,80,2|0,1:2|0:2,0:0:0:0:
186,111,57495,2,0,L|169:21,1,80,2|10,1:2|0:2,0:0:0:0:
294,205,57846,6,0,P|379:236|449:175,1,160,2|2,1:2|1:2,0:0:0:0:
171,32,58372,1,8,0:2:0:0:
395,83,58548,2,0,L|316:97,1,80,2|8,1:2|0:2,0:0:0:0:
27,2,58899,1,2,1:2:0:0:
177,205,59074,2,0,P|184:241|160:295,1,80,8|2,0:2|1:2,0:0:0:0:
84,350,59337,5,0,3:2:0:0:
73,356,59425,1,6,1:2:0:0:
335,282,59600,1,2,1:2:0:0:
494,262,59951,5,2,1:2:0:0:
232,188,60126,1,2,1:2:0:0:
73,168,60478,5,2,1:2:0:0:
335,94,60653,1,2,1:2:0:0:
494,74,61004,5,2,1:2:0:0:
232,0,61179,1,2,1:2:0:0:
335,282,61355,1,0,1:2:0:0:
335,282,61530,2,0,L|352:192,1,80,10|0,0:2|0:2,0:0:0:0:
421,359,61881,6,0,P|455:381|511:376,1,80,10|0,0:2|0:2,0:0:0:0:
231,279,62232,1,6,1:2:0:0:
231,279,62407,2,0,L|141:296,1,80,2|0,1:2|0:0,0:0:0:0:
364,124,62758,1,2,1:2:0:0:
364,124,62934,2,0,L|347:214,1,80,2|0,1:2|0:0,0:0:0:0:
483,275,63285,1,0,0:0:0:0:
432,34,63460,5,2,1:2:0:0:
388,11,63547,1,2,0:0:0:0:
338,9,63635,1,2,0:0:0:0:
293,29,63723,1,2,0:0:0:0:
260,66,63811,2,2,L|268:111,1,40,2|2,1:2|0:0,0:0:0:0:
144,189,63986,2,2,L|152:144,1,40,2|2,1:2|0:0,0:0:0:0:
33,95,64162,5,2,1:2:0:0:
27,100,64249,1,2,1:2:0:0:
21,105,64337,1,6,1:2:0:0:
343,319,64513,1,6,1:2:0:0:
343,319,65039,5,6,1:2:0:0:
380,100,65214,1,2,2:2:0:0:
161,63,65390,1,10,0:2:0:0:
124,282,65565,1,2,0:2:0:0:
44,100,65741,5,2,1:2:0:0:
239,238,65916,1,2,1:2:0:0:
41,379,66092,1,10,0:2:0:0:
183,156,66267,6,0,P|249:138|320:180,1,138.000002632141,6|0,1:2|0:0,0:0:0:0:
239,238,66618,1,2,1:2:0:0:
380,100,66793,2,0,P|385:53|363:10,1,92.0000017547608,10|0,0:2|0:2,0:0:0:0:
416,239,67144,1,2,1:2:0:0:
512,221,67319,1,0,1:2:0:0:
370,364,67495,1,8,2:2:0:0:
79,211,67846,5,6,1:2:0:0:
10,339,68021,1,2,0:2:0:0:
189,218,68197,1,10,0:2:0:0:
17,97,68372,1,2,0:2:0:0:
172,309,68548,5,2,1:2:0:0:
281,300,68723,1,2,1:2:0:0:
370,364,68899,1,10,0:2:0:0:
381,135,69074,6,0,L|405:0,1,138.000002632141,6|0,1:2|0:0,0:0:0:0:
427,259,69425,2,0,P|464:279|518:275,1,92.0000017547608,2|10,1:2|0:2,0:0:0:0:
261,126,69776,1,2,0:2:0:0:
261,126,69951,2,0,L|167:142,1,92.0000017547608,2|0,1:2|1:2,0:0:0:0:
405,0,70302,1,8,0:2:0:0:
230,249,70477,5,0,3:0:0:0:
242,243,70565,1,0,3:0:0:0:
254,237,70653,1,6,1:2:0:0:
390,343,70828,1,2,0:2:0:0:
269,358,71004,1,10,0:2:0:0:
375,222,71179,1,2,0:2:0:0:
211,139,71355,5,2,1:2:0:0:
122,203,71531,1,2,1:2:0:0:
13,194,71706,1,10,0:2:0:0:
377,122,71881,6,0,B|442:120|438:168|503:165,1,138.000002632141,6|0,1:2|0:0,0:0:0:0:
443,27,72232,2,0,P|402:4|349:11,1,92.0000017547608,2|10,1:2|0:2,0:0:0:0:
305,215,72583,2,0,P|346:238|399:231,1,92.0000017547608,2|2,0:2|1:2,0:0:0:0:
486,304,72934,1,0,3:2:0:0:
475,312,73021,1,0,3:2:0:0:
464,320,73109,2,0,L|456:367,1,46.0000008773804,0|0,3:2|3:2,0:0:0:0:
377,122,73285,1,0,3:2:0:0:
322,338,73460,5,6,1:2:0:0:
198,223,73635,2,0,P|191:181|214:129,1,92.0000017547608,2|10,1:2|0:2,0:0:0:0:
110,325,73986,2,0,P|68:332|16:309,1,92.0000017547608,6|0,1:2|0:2,0:0:0:0:
297,40,74337,2,0,P|339:33|391:56,1,92.0000017547608,6|0,1:2|0:2,0:0:0:0:
96,40,74688,6,0,B|51:81|51:81|74:212,1,184.000003509522,6|2,1:2|1:2,0:0:0:0:
293,193,75214,1,10,0:2:0:0:
22,314,75390,1,2,1:2:0:0:
343,305,75565,2,0,L|388:297,1,46.0000008773804,10|0,3:2|3:2,0:0:0:0:
388,88,75741,2,0,L|342:80,1,46.0000008773804,0|0,3:2|3:2,0:0:0:0:
201,159,75916,5,8,3:2:0:0:
193,205,76003,1,0,3:2:0:0:
185,250,76091,1,0,3:2:0:0:
177,295,76179,1,0,3:2:0:0:
195,330,76267,6,0,B|210:244|145:239|164:153,1,184.000003509522,6|8,1:2|0:2,0:0:0:0:
293,193,76793,1,2,0:2:0:0:
85,312,76969,1,2,1:2:0:0:
286,384,77144,1,2,1:2:0:0:
72,202,77320,1,10,0:2:0:0:
328,293,77495,6,0,P|395:300|451:262,1,138.000002632141,6|0,1:2|0:0,0:0:0:0:
512,187,77846,2,0,P|468:166|418:171,1,92.0000017547608,2|10,1:2|0:2,0:0:0:0:
245,99,78197,1,2,0:2:0:0:
362,0,78372,2,0,L|346:94,1,92.0000017547608,2|0,1:2|1:2,0:0:0:0:
238,196,78635,5,0,1:2:0:0:
228,185,78723,2,0,L|181:177,1,46.0000008773804,8|0,1:2|1:2,0:0:0:0:
93,109,78899,2,0,L|48:117,1,46.0000008773804,0|0,1:2|1:2,0:0:0:0:
0,227,79074,6,0,P|72:218|139:298,1,184.000003509522,6|10,1:2|0:2,0:0:0:0:
201,362,79600,2,0,P|155:384|107:378,1,92.0000017547608,6|0,1:2|0:2,0:0:0:0:
422,277,79951,2,0,L|516:293,1,92.0000017547608,6|2,1:2|2:2,0:0:0:0:
275,198,80302,6,0,P|250:116|306:15,1,184.000003509522,6|0,1:2|1:2,0:0:0:0:
123,206,80828,2,0,P|131:250|139:300,1,92.0000017547608,8|0,0:2|1:2,0:0:0:0:
373,296,81179,2,0,P|380:251|389:206,1,92.0000017547608,2|2,1:2|1:2,0:0:0:0:
162,22,81530,1,10,0:2:0:0:
275,198,81706,1,2,1:2:0:0:
512,103,81881,6,0,B|460:114|411:90|437:79|387:53|336:70,1,184.000003509522,6|10,1:2|0:2,0:0:0:0:
0,241,82407,2,0,B|52:252|101:228|74:217|125:191|175:208,1,184.000003509522,6|2,1:2|1:2,0:0:0:0:
407,261,82934,5,10,0:2:0:0:
494,298,83109,2,0,P|448:348|337:327,1,184.000003509522,6|2,1:2|1:2,0:0:0:0:
337,69,83635,1,10,0:2:0:0:
174,207,83811,6,0,L|198:342,1,138.000002632141,6|0,1:2|0:0,0:0:0:0:
91,366,84162,2,0,P|85:322|107:274,1,92.0000017547608,2|10,1:2|0:2,0:0:0:0:
256,130,84513,2,0,P|274:171|268:216,1,92.0000017547608,2|2,1:2|1:2,0:0:0:0:
96,30,84863,5,0,1:2:0:0:
0,166,85039,2,0,L|91:149,1,92.0000017547608,8|2,0:2|1:2,0:0:0:0:
411,219,85390,5,10,2:2:0:0:
442,185,85477,1,0,1:0:0:0:
456,142,85565,1,2,1:2:0:0:
452,97,85653,1,0,1:0:0:0:
430,57,85741,2,0,L|384:48,1,46.0000008773804,10|0,0:2|3:0,0:0:0:0:
371,352,85916,6,0,L|462:335,1,75.9999979705811,6|0,1:2|0:2,0:0:0:0:
194,199,86267,2,0,P|197:236|217:268,1,75.9999979705811,6|0,1:2|0:2,0:0:0:0:
318,185,86618,2,0,P|314:147|294:115,1,75.9999979705811,6|0,1:2|0:2,0:0:0:0:
141,32,86969,2,0,L|49:48,1,75.9999979705811,6|0,1:2|0:2,0:0:0:0:
