osu file format v14

[General]
AudioFilename: audio.mp3
AudioLeadIn: 0
PreviewTime: 64951
Countdown: 0
SampleSet: Soft
StackLeniency: 0.5
Mode: 0
LetterboxInBreaks: 0
WidescreenStoryboard: 1

[Editor]
Bookmarks: 6092,28548,39776,51004,65039,87495
DistanceSpacing: 1.4
BeatDivisor: 4
GridSize: 32
TimelineZoom: 1.4

[Metadata]
Title:Love with You (TV Size)
TitleUnicode:Love with You (TV Size)
Artist:fripSide
ArtistUnicode:fripSide
Creator:NEVlR
Version:Hard
Source:寄宿学校のジュリエット
Tags:nevir Kishuku Gakkou no Juliet Boarding School anime japanese opening pop jpop
BeatmapID:2100196
BeatmapSetID:1003489

[Difficulty]
HPDrainRate:5
CircleSize:3.5
OverallDifficulty:6.5
ApproachRate:7.5
SliderMultiplier:1.3
SliderTickRate:1

[Events]
//Background and Video events
Video,0,"Opening_x264.avi"
0,0,"Cute Juliet.jpg",0,0
//Break Periods
//Storyboard Layer 0 (Background)
//Storyboard Layer 1 (Fail)
//Storyboard Layer 2 (Pass)
//Storyboard Layer 3 (Foreground)
//Storyboard Layer 4 (Overlay)
//Storyboard Sound Samples

[TimingPoints]
478,350.877192982456,4,2,1,45,1,0
6092,-100,4,2,1,60,0,0
24863,-90.9090909090909,4,2,1,60,0,0
25741,-100,4,2,1,60,0,0
26969,-111.111111111111,4,2,1,75,0,0
28548,-125,4,2,1,50,0,0
39776,-111.111111111111,4,2,1,55,0,0
49425,-90.9090909090908,4,2,1,55,0,0
51004,-95.2380952380952,4,2,1,55,0,0
56618,-100,4,2,1,55,0,0
65039,-83.3333333333333,4,2,1,85,0,1
85916,-111.111111111111,4,2,1,85,0,0

[Colours]
Combo1 : 142,187,242
Combo2 : 248,240,95
Combo3 : 84,245,237
Combo4 : 253,102,106

[HitObjects]
348,358,5390,5,2,1:2:0:0:
420,302,5565,1,2,1:2:0:0:
420,302,6092,6,0,L|429:227,1,65,6|2,1:2|0:2,0:2:0:0:
462,153,6442,1,10,0:2:0:0:
462,153,6618,2,0,P|412:157|387:149,1,65,2|0,1:2|2:2,0:2:0:0:
323,113,6969,2,0,P|273:109|248:117,1,65,2|8,1:2|0:2,0:2:0:0:
204,216,7320,6,0,P|187:165|117:125,1,130,6|0,1:2|1:2,0:2:0:0:
40,160,7846,1,8,0:2:0:0:
40,160,8021,1,0,0:2:0:0:
107,222,8197,2,0,L|93:296,1,65,2|2,1:2|1:2,0:2:0:0:
156,353,8548,2,0,P|192:343|227:347,1,65,10|2,0:2|0:2,0:2:0:0:
291,252,8899,6,0,P|312:290|403:318,1,130,6|8,1:2|0:2,0:2:0:0:
448,234,9425,1,2,1:2:0:0:
448,234,9513,1,2,1:2:0:0:
448,234,9600,2,0,P|406:229|374:232,1,65,2|2,1:2|1:2,0:2:0:0:
291,252,9951,1,10,0:2:0:0:
224,171,10127,6,0,P|182:140|86:165,1,130,6|0,1:2|1:2,0:2:0:0:
121,295,10653,2,0,P|141:264|146:233,1,65,10|0,0:2|0:2,0:2:0:0:
10,173,11004,2,0,P|26:205|51:225,1,65,2|0,1:2|0:2,0:2:0:0:
107,147,11355,2,0,P|127:116|132:85,1,65,10|0,0:2|0:2,0:2:0:0:
239,41,11706,6,0,P|282:36|321:46,1,65,6|2,1:2|1:2,0:2:0:0:
378,90,12056,1,10,0:2:0:0:
468,80,12232,2,0,L|478:151,1,65,2|0,1:2|0:2,0:2:0:0:
399,193,12583,2,0,L|389:264,1,65,2|8,1:2|0:2,0:2:0:0:
481,350,12934,6,0,B|440:333|440:333|401:356|344:340,1,130,6|0,1:2|1:2,0:2:0:0:
279,285,13460,2,0,P|249:277|209:287,1,65,8|0,0:2|0:2,0:2:0:0:
149,345,13811,1,2,1:2:0:0:
63,313,13986,1,2,1:2:0:0:
63,313,14074,1,0,1:2:0:0:
63,313,14162,2,0,L|12:321,2,32.5,2|0|2,1:2|1:2|1:2,0:2:0:0:
96,214,14513,6,0,L|106:143,1,65,6|2,1:2|1:2,0:2:0:0:
180,88,14863,1,10,0:2:0:0:
261,142,15039,2,0,P|303:147|336:138,1,65,6|0,1:2|0:2,0:2:0:0:
383,220,15390,2,0,P|408:186|417:153,1,65,6|0,1:2|0:2,0:2:0:0:
417,47,15741,6,0,P|362:27|287:55,1,130,6|0,1:2|1:2,0:2:0:0:
207,108,16267,2,0,P|242:122|263:144,1,65,10|0,0:2|1:2,0:2:0:0:
348,197,16618,2,0,P|313:211|292:233,1,65,10|0,0:2|1:2,0:2:0:0:
270,331,16969,2,0,P|246:308|216:297,1,65,10|0,0:2|1:2,0:2:0:0:
110,348,17320,6,0,L|86:192,1,130,6|10,1:2|0:2,0:2:0:0:
124,135,17846,2,0,L|50:124,1,65,2|0,1:2|0:2,0:2:0:0:
94,41,18197,2,0,L|168:30,1,65,2|8,1:2|0:2,0:2:0:0:
262,86,18548,6,0,P|342:96|396:59,1,130,6|0,1:2|1:2,0:2:0:0:
472,57,19074,2,0,P|462:85|462:124,1,65,8|0,0:2|0:2,0:2:0:0:
491,206,19425,1,2,1:2:0:0:
457,290,19600,1,0,1:2:0:0:
457,290,19688,1,0,1:2:0:0:
457,290,19776,2,0,L|412:297,2,32.5,8|0|0,1:2|1:2|1:2,0:2:0:0:
354,347,20127,6,0,B|291:329|282:378|211:350,1,130,6|8,1:2|0:2,0:2:0:0:
158,290,20653,2,0,L|143:210,1,65,6|0,1:2|0:2,0:2:0:0:
232,197,21004,2,0,L|247:117,1,65,6|0,1:2|0:2,0:2:0:0:
348,186,21355,6,0,P|335:130|379:57,1,130,6|0,1:2|1:2,0:2:0:0:
456,53,21881,1,10,0:2:0:0:
456,53,22056,1,2,1:2:0:0:
432,141,22232,2,0,L|445:220,1,65,2|0,1:2|1:2,0:2:0:0:
482,287,22583,1,10,0:2:0:0:
482,287,22934,6,0,P|431:291|408:309,1,65,6|0,1:2|0:2,0:2:0:0:
352,358,23285,1,10,2:2:0:0:
258,313,23460,2,0,P|196:310|125:311,1,130,6|0,1:2|1:2,0:2:0:0:
45,259,23986,1,10,0:2:0:0:
42,154,24162,2,0,P|105:172|147:229,1,130,6|0,0:2|1:2,0:2:0:0:
212,150,24688,1,10,0:2:0:0:
305,202,24863,2,0,B|334:144|289:121|319:62,1,143.000004364014,6|0,1:2|1:2,0:2:0:0:
412,68,25390,2,0,P|422:103|412:142,1,71.5000021820069,10|0,0:2|0:2,0:2:0:0:
305,202,25741,6,0,P|361:208|408:273,1,130,2|8,1:2|0:2,0:2:0:0:
454,354,26267,1,2,1:2:0:0:
454,354,26355,1,2,1:2:0:0:
454,354,26442,2,0,P|414:345|383:346,1,65,10|0,0:2|0:2,0:2:0:0:
318,288,26793,1,10,2:2:0:0:
225,339,26969,6,0,P|182:340|161:339,1,58.4999982147217,6|0,1:2|0:2,0:2:0:0:
117,245,27320,2,0,P|146:244|175:245,1,58.4999982147217,6|0,1:2|0:2,0:2:0:0:
264,189,27670,2,0,P|265:146|264:125,1,58.4999982147217,6|8,1:2|0:2,0:2:0:0:
170,81,28021,2,0,P|169:110|170:139,1,58.4999982147217,6|0,1:2|1:2,0:2:0:0:
170,139,28285,1,0,1:2:0:0:
170,139,28372,1,8,0:2:0:0:
70,108,28548,6,0,P|64:65|36:10,1,104,6|2,1:2|1:2,0:2:0:0:
260,25,29249,1,2,1:2:0:0:
260,25,29425,2,0,P|289:30|316:26,1,52,2|0,0:2|1:2,0:2:0:0:
403,10,29776,2,0,P|398:36|398:65,1,52,2|0,0:2|1:2,0:2:0:0:
330,126,30127,2,0,P|335:152|335:181,1,52,2|0,0:2|1:2,0:2:0:0:
271,254,30477,1,2,0:0:0:0:
271,254,30653,2,0,P|273:305|272:363,1,104,2|0,1:2|1:2,0:2:0:0:
182,302,31179,1,0,3:2:0:0:
182,302,31267,1,0,3:2:0:0:
182,302,31355,6,0,P|124:287|74:309,1,104,2|0,1:2|0:2,0:2:0:0:
3,159,32056,1,2,1:2:0:0:
3,159,32232,2,0,P|5:133|13:108,1,52,2|0,0:2|1:2,0:2:0:0:
71,36,32583,2,0,P|101:35|127:42,1,52,2|0,0:2|1:2,0:2:0:0:
189,105,32934,2,0,P|219:106|245:99,1,52,2|0,0:2|1:2,0:2:0:0:
329,71,33285,2,0,L|311:192,1,104,2|0,0:2|0:2,0:2:0:0:
228,213,33811,2,0,L|237:273,1,52,2|0,1:2|0:2,0:2:0:0:
184,355,34162,6,0,P|141:370|73:342,1,104,6|0,1:2|1:2,0:2:0:0:
42,271,34688,1,2,0:2:0:0:
90,191,34863,2,0,P|133:176|201:204,1,104,2|0,1:2|1:2,0:2:0:0:
295,345,35565,2,0,P|343:360|392:345,1,104,0|0,1:2|1:2,0:2:0:0:
463,194,36267,2,0,L|470:137,1,52,2|0,1:2|0:2,0:2:0:0:
380,111,36618,2,0,L|373:54,1,52,2|0,1:2|0:2,0:2:0:0:
278,101,36969,6,0,P|233:75|167:91,1,104,2|0,1:2|1:2,0:2:0:0:
90,65,37495,2,0,P|99:111|100:125,1,52,2|0,0:2|1:2,0:2:0:0:
43,191,37846,1,2,0:2:0:0:
214,269,38197,2,0,P|211:200|216:149,1,104,6|8,0:2|0:2,0:2:0:0:
290,111,38723,1,8,1:2:0:0:
367,163,38899,2,0,P|401:168|424:162,1,52,0|0,1:2|0:2,0:2:0:0:
466,84,39249,1,0,3:2:0:0:
466,84,39337,1,0,3:2:0:0:
466,84,39425,2,0,L|453:41,3,26,0|0|0|0,3:2|3:2|3:2|3:2,0:2:0:0:
415,27,39776,6,0,P|381:22|358:28,1,58.4999982147217,6|0,1:2|0:2,0:2:0:0:
290,111,40127,2,0,L|283:187,1,58.4999982147217,10|0,0:2|0:2,0:2:0:0:
205,228,40477,1,2,1:2:0:0:
119,177,40653,2,0,P|94:169|56:170,1,58.4999982147217,2|8,1:2|0:2,0:2:0:0:
22,266,41004,2,0,P|47:258|85:259,1,58.4999982147217,2|0,1:2|0:2,0:2:0:0:
167,315,41355,2,0,P|192:323|230:322,1,58.4999982147217,2|8,1:2|0:2,0:2:0:0:
320,365,41706,2,0,B|301:304|337:309|317:245,1,116.999996429443,2|0,1:2|1:2,0:2:0:0:
272,161,42232,1,8,0:2:0:0:
272,161,42407,1,0,0:2:0:0:
329,79,42583,6,0,P|362:74|387:81,1,58.4999982147217,2|0,1:2|0:2,0:2:0:0:
446,159,42934,2,0,L|451:224,1,58.4999982147217,10|0,2:2|0:2,0:2:0:0:
476,313,43285,1,2,1:2:0:0:
476,313,43460,2,0,P|444:303|416:303,1,58.4999982147217,2|8,1:2|0:2,0:2:0:0:
329,258,43811,2,0,P|299:259|272:268,1,58.4999982147217,2|0,1:2|0:2,0:2:0:0:
191,340,44162,2,0,L|186:275,1,58.4999982147217,2|8,1:2|0:2,0:2:0:0:
89,184,44513,2,0,P|102:243|70:306,1,116.999996429443,2|0,1:2|1:2,0:2:0:0:
0,233,45039,1,10,0:2:0:0:
195,157,45390,6,0,P|246:142|312:163,2,116.999996429443,6|10|2,1:2|0:2|1:2,0:2:0:0:
119,78,46267,1,2,1:2:0:0:
119,78,46442,1,10,0:2:0:0:
207,31,46618,2,0,L|269:25,1,58.4999982147217,2|0,1:2|0:2,0:2:0:0:
356,65,46969,1,2,1:2:0:0:
450,34,47144,2,0,P|444:68|446:110,1,58.4999982147217,10|2,2:2|1:2,0:2:0:0:
398,180,47495,2,0,P|418:224|411:311,1,116.999996429443,2|8,1:2|0:2,0:2:0:0:
342,357,48021,1,2,1:2:0:0:
239,299,48197,6,0,B|202:277|202:277|125:277,2,116.999996429443,2|14|2,1:2|0:2|1:2,0:2:0:0:
174,366,49074,1,2,1:2:0:0:
174,366,49249,1,8,0:2:0:0:
55,337,49425,2,0,P|40:282|70:200,1,143.000004364014,6|2,1:2|1:2,0:2:0:0:
150,146,49951,1,10,0:2:0:0:
243,183,50127,1,0,1:2:0:0:
327,130,50302,2,0,L|339:56,1,71.5000021820069,10|0,0:2|1:2,0:2:0:0:
427,106,50653,2,0,L|439:180,1,71.5000021820069,8|8,0:2|0:2,0:2:0:0:
446,218,50916,1,8,0:2:0:0:
446,218,51004,6,0,P|397:216|343:279,1,136.499995834351,6|2,1:2|0:2,0:2:0:0:
165,350,51706,1,2,1:2:0:0:
165,350,51881,2,0,P|140:320|104:309,1,68.2499979171754,2|0,1:2|0:2,0:2:0:0:
143,218,52232,2,0,P|88:252|3:231,2,136.499995834351,2|2|2,1:2|1:2|1:2,0:2:0:0:
226,171,53109,1,2,1:2:0:0:
233,75,53285,1,0,0:2:0:0:
326,51,53460,2,0,P|361:47|401:62,1,68.2499979171754,8|0,0:2|1:2,0:2:0:0:
422,84,53723,1,0,1:2:0:0:
422,84,53811,6,0,P|399:128|419:212,1,136.499995834351,6|2,1:2|0:2,0:2:0:0:
470,364,54513,1,2,1:2:0:0:
470,364,54688,2,0,P|434:346|405:343,1,68.2499979171754,2|0,1:2|0:2,0:2:0:0:
332,282,55039,2,0,P|314:316|216:338,1,136.499995834351,2|2,1:2|1:2,0:2:0:0:
230,184,55565,2,0,L|249:271,1,68.2499979171754,10|0,1:2|1:2,0:2:0:0:
134,320,55916,2,0,L|153:233,1,68.2499979171754,10|0,1:2|1:2,0:2:0:0:
47,235,56267,1,10,0:2:0:0:
27,143,56442,1,8,0:2:0:0:
27,143,56530,1,8,0:2:0:0:
27,143,56618,6,0,P|74:130|115:62,1,130,6|8,1:2|0:2,0:2:0:0:
211,46,57144,2,0,P|261:39|282:44,1,65,2|0,1:2|0:2,0:2:0:0:
357,94,57495,1,2,1:2:0:0:
357,94,57670,1,10,0:2:0:0:
461,39,57846,2,0,L|442:174,1,130,2|2,1:2|1:2,0:2:0:0:
427,264,58372,1,8,0:2:0:0:
427,264,58548,2,0,P|388:252|357:254,1,65,2|8,1:2|0:2,0:2:0:0:
285,194,58899,2,0,P|252:194|222:205,1,65,2|8,1:2|0:2,0:2:0:0:
158,278,59249,1,2,1:2:0:0:
51,214,59425,5,6,1:2:0:0:
51,214,59600,1,2,1:2:0:0:
227,104,59951,5,2,1:2:0:0:
227,104,60126,1,2,1:2:0:0:
34,24,60477,5,2,1:2:0:0:
34,24,60652,1,2,1:2:0:0:
227,103,61004,6,0,L|306:84,1,65,2|2,1:2|1:2,0:2:0:0:
374,37,61355,1,0,1:2:0:0:
449,98,61530,2,0,P|456:141|450:172,1,65,10|0,0:2|0:2,0:2:0:0:
375,221,61881,2,0,P|368:264|374:295,1,65,10|0,0:2|0:2,0:2:0:0:
455,366,62232,5,6,1:2:0:0:
455,366,62407,1,2,1:2:0:0:
264,282,62758,5,2,1:2:0:0:
264,282,62933,1,2,1:2:0:0:
471,260,63285,5,2,1:2:0:0:
471,260,63460,1,2,1:2:0:0:
264,282,63811,6,0,L|185:263,1,65,2|2,1:2|1:2,0:2:0:0:
109,174,64162,1,2,1:2:0:0:
109,174,64249,1,2,1:2:0:0:
109,174,64337,2,0,L|188:155,1,65,6|6,1:2|1:2,0:2:0:0:
486,28,65039,6,0,P|463:70|462:114,1,77.999997619629,6|2,1:2|2:2,0:2:0:0:
483,198,65390,1,10,0:2:0:0:
408,266,65565,1,2,0:2:0:0:
319,215,65741,2,0,P|276:206|242:218,1,77.999997619629,2|2,1:2|1:2,0:2:0:0:
177,292,66092,1,10,0:2:0:0:
60,248,66267,6,0,P|91:195|58:99,1,155.999995239258,6|2,1:2|1:2,0:2:0:0:
42,9,66793,2,0,P|95:31|127:25,1,77.999997619629,10|0,0:2|0:2,0:2:0:0:
215,30,67144,2,0,P|253:30|287:50,1,77.999997619629,2|0,1:2|1:2,0:2:0:0:
334,140,67495,1,8,2:2:0:0:
266,244,67670,1,0,1:2:0:0:
266,244,67758,1,0,1:2:0:0:
266,244,67846,6,0,L|188:232,1,77.999997619629,6|0,1:2|0:2,0:2:0:0:
138,143,68197,2,0,L|64:171,1,77.999997619629,10|0,0:2|0:2,0:2:0:0:
0,278,68548,1,2,1:2:0:0:
0,278,68723,1,2,1:2:0:0:
52,365,68899,1,10,0:2:0:0:
184,359,69074,6,0,P|245:340|349:380,1,155.999995239258,6|2,1:2|1:2,0:2:0:0:
432,352,69600,2,0,P|423:308|431:263,1,77.999997619629,10|0,0:2|0:2,0:2:0:0:
465,181,69951,1,2,1:2:0:0:
465,181,70127,1,0,1:2:0:0:
419,90,70302,1,8,0:2:0:0:
226,25,70653,6,0,P|250:73|246:108,1,77.999997619629,6|2,1:2|0:2,0:2:0:0:
308,207,71004,2,0,P|310:168|331:135,1,77.999997619629,10|2,0:2|0:2,0:2:0:0:
419,90,71355,1,2,1:2:0:0:
419,90,71530,1,2,1:2:0:0:
358,8,71706,1,10,0:2:0:0:
488,30,71881,6,0,P|458:64|503:178,1,155.999995239258,6|2,1:2|1:2,0:2:0:0:
510,268,72407,2,0,P|467:254|433:259,1,77.999997619629,10|0,0:2|0:2,0:2:0:0:
346,309,72758,1,2,1:2:0:0:
259,254,72934,1,0,3:2:0:0:
259,254,73021,1,0,3:2:0:0:
259,254,73109,2,0,L|264:212,2,38.9999988098145,0|0|0,3:2|3:2|3:2,0:2:0:0:
164,336,73460,6,0,L|149:259,1,77.999997619629,6|2,1:2|1:2,0:2:0:0:
80,184,73811,1,10,0:2:0:0:
31,95,73986,2,0,P|79:84|129:96,1,77.999997619629,6|0,1:2|0:2,0:2:0:0:
202,121,74337,2,0,P|240:124|278:113,1,77.999997619629,6|0,1:2|0:2,0:2:0:0:
398,145,74688,6,0,P|433:208|391:291,1,155.999995239258,6|2,1:2|1:2,0:2:0:0:
303,265,75214,1,10,0:2:0:0:
219,323,75390,1,2,1:2:0:0:
219,323,75477,1,0,1:2:0:0:
219,323,75565,6,0,L|169:333,3,38.9999988098145,10|0|0|0,3:2|3:2|3:2|3:2,0:2:0:0:
147,310,75916,2,0,L|97:300,3,38.9999988098145,8|0|0|0,3:2|3:2|3:2|3:2,0:2:0:0:
73,266,76267,6,0,P|86:223|74:181,1,77.999997619629,6|2,1:2|0:2,0:2:0:0:
38,98,76618,1,10,0:2:0:0:
106,24,76793,1,2,0:2:0:0:
196,70,76969,2,0,P|247:78|276:70,1,77.999997619629,2|2,1:2|1:2,0:2:0:0:
368,40,77320,1,10,0:2:0:0:
451,142,77495,6,0,P|373:126|307:163,1,155.999995239258,6|2,1:2|1:2,0:2:0:0:
259,250,78021,2,0,P|294:263|338:257,1,77.999997619629,10|0,0:2|0:2,0:2:0:0:
427,252,78372,1,2,1:2:0:0:
480,342,78548,1,0,1:2:0:0:
480,342,78635,1,0,1:2:0:0:
480,342,78723,2,0,L|518:357,2,38.9999988098145,8|0|0,1:2|1:2|1:2,0:2:0:0:
349,369,79074,6,0,P|266:351|196:337,1,155.999995239258,6|10,1:2|0:2,0:2:0:0:
113,277,79600,2,0,P|147:246|189:241,1,77.999997619629,6|0,1:2|0:2,0:2:0:0:
259,180,79951,2,0,P|221:170|194:142,1,77.999997619629,6|2,1:2|2:2,0:2:0:0:
129,26,80302,6,0,P|75:82|111:154,1,155.999995239258,6|0,1:2|1:2,0:2:0:0:
194,142,80828,2,0,P|233:134|269:144,1,77.999997619629,8|0,0:2|1:2,0:2:0:0:
345,211,81179,2,0,L|364:129,1,77.999997619629,2|2,1:2|1:2,0:2:0:0:
442,197,81530,2,0,L|461:115,1,77.999997619629,10|0,0:2|0:2,0:2:0:0:
355,38,81881,5,6,1:2:0:0:
355,38,82056,1,2,0:2:0:0:
255,16,82232,1,10,0:2:0:0:
192,95,82407,2,0,P|151:105|68:33,1,155.999995239258,6|2,1:2|1:2,0:2:0:0:
104,203,82934,1,10,0:0:0:0:
104,203,83109,2,0,P|145:193|228:265,1,155.999995239258,6|2,1:2|1:2,0:2:0:0:
320,302,83635,1,10,0:2:0:0:
399,237,83811,2,0,L|416:155,1,77.999997619629,6|0,1:2|0:2,0:2:0:0:
331,101,84162,1,2,1:2:0:0:
331,101,84337,1,10,0:2:0:0:
423,58,84513,1,2,1:2:0:0:
305,116,84688,6,0,L|227:99,1,77.999997619629,2|0,1:2|0:2,0:2:0:0:
152,32,85039,2,0,L|74:49,1,77.999997619629,8|0,0:2|0:2,0:2:0:0:
41,144,85390,1,10,2:2:0:0:
105,222,85565,1,2,1:2:0:0:
105,222,85653,1,2,1:2:0:0:
105,222,85741,1,10,0:2:0:0:
74,322,85916,6,0,P|117:311|152:321,1,58.4999982147217,6|0,1:2|0:2,0:2:0:0:
254,247,86267,2,0,P|224:247|197:237,1,58.4999982147217,6|0,1:2|0:2,0:2:0:0:
232,101,86618,2,0,P|243:144|233:179,1,58.4999982147217,6|0,1:2|0:2,0:2:0:0:
105,222,86969,2,0,L|79:91,1,116.999996429443,6|0,1:2|0:2,0:2:0:0:
