osu file format v14

[General]
AudioFilename: audio.mp3
AudioLeadIn: 0
PreviewTime: 209664
Countdown: 0
SampleSet: Soft
StackLeniency: 0.5
Mode: 0
LetterboxInBreaks: 0
WidescreenStoryboard: 0

[Editor]
Bookmarks: 22250,33159,44068,65886,79522,90432,112250,123159,134068,155886,177704,188613,199522,210432,232250,243159,254068,256795,275886,297704,319522,341341
DistanceSpacing: 2.2
BeatDivisor: 4
GridSize: 4
TimelineZoom: 1.7

[Metadata]
Title:last fortune (pocotan Remix)
TitleUnicode:last fortune (pocotan Remix)
Artist:fripSide
ArtistUnicode:fripSide
Creator:Meg
Version:Extra
Source:ティンクル☆くるせいだーす -Passion Star Stream-
Tags:Venus Embryo Twinkle Crusaders Yoshino Nanjō 南條 愛乃 Satoshi Yaginuma 八木沼 悟志 eroge visual novel iMage-- kuei op opening electronic pop japanese dnb drum and bass video game vn nanjo nanjou クルくる PSS kurukuru lillian way to answer
BeatmapID:2083029
BeatmapSetID:995800

[Difficulty]
HPDrainRate:6
CircleSize:4
OverallDifficulty:9
ApproachRate:9.5
SliderMultiplier:1.8
SliderTickRate:2

[Events]
//Background and Video events
0,0,"BG.jpg",0,0
//Break Periods
2,112450,122634
2,232450,242634
//Storyboard Layer 0 (Background)
//Storyboard Layer 1 (Fail)
//Storyboard Layer 2 (Pass)
//Storyboard Layer 3 (Foreground)
//Storyboard Layer 4 (Overlay)
//Storyboard Sound Samples

[TimingPoints]
432,340.909090909091,4,2,1,60,1,0
432,-142.857142857143,4,2,1,60,0,0
11341,-100,4,2,1,60,0,0
65886,-142.857142857143,4,2,5,50,0,0
75432,-200,4,2,5,50,0,0
76795,-83.3333333333333,4,2,1,60,0,0
77477,-100,4,2,1,60,0,0
78159,-83.3333333333333,4,2,1,60,0,0
79182,-166.666666666667,4,2,1,60,0,0
79522,-100,4,2,1,70,0,1
88386,-83.3333333333333,4,2,1,70,0,1
90432,-111.111111111111,4,2,1,60,0,0
101341,-100,4,2,3,60,0,0
102875,-100,4,2,10,60,0,0
102960,-100,4,2,3,60,0,0
104238,-100,4,2,10,60,0,0
104324,-100,4,2,3,60,0,0
105602,-100,4,2,10,60,0,0
105687,-100,4,2,3,60,0,0
108159,-100,4,2,1,60,0,0
123159,-100,4,2,2,60,0,0
133727,-100,4,2,1,60,0,0
134068,-100,4,2,5,60,0,0
144977,-100,4,2,1,60,0,0
154522,-100,4,2,5,60,0,0
155204,-100,4,2,1,60,0,0
155886,-83.3333333333333,4,2,1,70,0,1
177022,-83.3333333333333,4,2,3,70,0,1
177704,-83.3333333333333,4,2,1,70,0,1
187932,-66.6666666666667,4,2,1,70,0,1
188613,-100,4,2,1,70,0,0
199522,-100,4,2,3,70,0,0
206341,-100,4,2,1,70,0,0
209068,-66.6666666666667,4,2,1,70,0,0
210432,-83.3333333333333,4,2,2,70,0,1
232250,-125,4,2,1,50,0,0
243159,-125,4,2,2,60,0,0
248613,-100,4,2,2,60,0,0
251341,-83.3333333333333,4,2,2,70,0,0
255432,-66.6666666666667,4,2,1,70,0,0
256113,-50,4,2,1,70,0,0
256795,-83.3333333333333,4,2,2,80,0,1
275204,-83.3333333333333,4,2,3,80,0,1
275716,-100,4,2,3,80,0,0
275886,-83.3333333333333,4,2,1,80,0,1
297022,-66.6666666666667,4,2,1,80,0,1
297704,-100,4,2,1,70,0,0

[Colours]
Combo1 : 255,219,183
Combo2 : 219,183,255
Combo3 : 255,204,204
Combo4 : 188,251,181

[HitObjects]
461,213,432,6,0,P|399:200|336:191,1,125.999996154785,4|8,0:0|0:0,0:0:0:0:
359,74,1113,2,0,P|297:86|234:95,1,125.999996154785,2|8,0:0|0:0,0:0:0:0:
138,23,1795,2,0,P|115:81|124:142,1,125.999996154785,2|8,0:0|0:0,0:0:0:0:
216,210,2477,2,0,P|224:271|202:329,1,125.999996154785,2|8,0:0|0:0,0:0:0:0:
95,254,3159,5,2,0:0:0:0:
219,109,3500,1,8,0:0:0:0:
407,185,3841,1,2,0:0:0:0:
283,330,4182,1,8,0:0:0:0:
189,292,4522,5,2,0:0:0:0:
313,147,4863,1,8,0:0:0:0:
501,223,5204,1,2,0:0:0:0:
377,368,5545,1,8,0:0:0:0:
283,330,5716,1,2,0:0:0:0:
189,292,5886,6,0,P|183:260|180:229,1,62.9999980773926,2|0,0:0|0:0,0:0:0:0:
250,90,6227,2,0,P|255:121|258:152,1,62.9999980773926,8|0,0:0|0:0,0:0:0:0:
118,160,6568,2,0,P|149:155|180:151,1,62.9999980773926,2|0,0:0|0:0,0:0:0:0:
320,221,6909,2,0,P|289:226|258:230,1,62.9999980773926,8|0,0:0|0:0,0:0:0:0:
56,204,7250,6,0,P|43:144|78:94,1,125.999996154785,2|8,0:0|0:0,0:0:0:0:
187,37,7761,1,0,0:0:0:0:
187,37,7932,2,0,L|311:55,1,125.999996154785,2|8,0:0|0:0,0:0:0:0:
482,118,8613,6,0,P|453:132|422:139,1,62.9999980773926,2|0,0:0|0:0,0:0:0:0:
424,232,8954,2,0,P|392:229|362:220,1,62.9999980773926,8|0,0:0|0:0,0:0:0:0:
317,301,9295,2,0,P|291:282|269:260,1,62.9999980773926,2|0,0:0|0:0,0:0:0:0:
190,307,9636,2,0,P|176:278|169:247,1,62.9999980773926,8|0,0:0|0:0,0:0:0:0:
189,136,9977,5,2,0:0:0:0:
77,248,10147,1,2,0:0:0:0:
77,248,10233,1,2,0:0:0:0:
77,248,10318,2,0,P|79:216|88:186,1,62.9999980773926,8|0,0:0|0:0,0:0:0:0:
189,136,10659,1,2,0:0:0:0:
84,64,10829,6,0,L|59:69,2,15.7499995193482
99,60,11000,1,8,0:0:0:0:
270,94,11170,2,0,L|295:89,2,15.7499995193482,2|0|0,0:0|0:0|0:0,0:0:0:0:
253,96,11341,6,0,P|240:138|247:182,1,90,12|0,0:0|0:0,0:0:0:0:
362,348,11682,2,0,P|374:305|367:261,1,90,8|0,0:0|0:0,0:0:0:0:
425,153,12022,2,0,L|247:182,1,180,8|8,0:0|0:0,0:0:0:0:
181,285,12534,1,0,0:0:0:0:
72,135,12704,6,0,B|57:178|57:178|71:219,1,90,8|0,0:0|0:0,0:0:0:0:
190,95,13045,2,0,B|204:51|204:51|190:10,1,90,8|0,0:0|0:0,0:0:0:0:
158,196,13386,2,0,L|246:181,1,90,8|0,0:0|0:0,0:0:0:0:
378,144,13727,1,8,0:0:0:0:
286,57,13897,1,0,0:0:0:0:
467,16,14068,6,0,B|455:92|455:92|474:112|474:112|462:186,1,180,8|8,0:0|0:0,0:0:0:0:
369,347,14579,1,0,0:0:0:0:
261,257,14750,2,0,L|349:242,1,90,8|0,0:0|0:0,0:0:0:0:
457,333,15091,2,0,L|368:347,1,90,8|0,0:0|0:0,0:0:0:0:
186,301,15432,6,0,P|184:215|258:172,1,180,8|8,0:0|0:0,0:0:0:0:
349,242,15943,1,0,0:0:0:0:
401,74,16113,2,0,L|311:80,1,90,8|0,0:0|0:0,0:0:0:0:
280,84,16369,1,0,0:0:0:0:
280,84,16454,2,0,P|245:56|233:13,1,90,8|8,0:0|0:0,0:0:0:0:
94,249,16795,5,8,0:0:0:0:
141,81,16966,1,8,0:0:0:0:
263,206,17136,1,8,0:0:0:0:
94,249,17307,1,8,0:0:0:0:
385,331,17477,5,8,0:0:0:0:
263,206,17647,1,8,0:0:0:0:
216,374,17818,1,8,0:0:0:0:
385,331,17988,1,8,0:0:0:0:
311,38,18159,5,8,0:0:0:0:
432,162,18329,1,8,0:0:0:0:
263,206,18500,1,8,0:0:0:0:
311,38,18670,1,8,0:0:0:0:
401,242,18841,6,0,P|396:287|385:331,1,90,8|8,0:0|0:0,0:0:0:0:
124,169,19182,2,0,P|128:124|140:80,1,90,8|8,0:0|0:0,0:0:0:0:
29,225,19522,5,8,0:0:0:0:
59,257,19608,1,8,0:0:0:0:
100,276,19693,1,8,0:0:0:0:
144,276,19778,1,8,0:0:0:0:
186,260,19863,1,8,0:0:0:0:
227,243,19949,1,8,0:0:0:0:
272,244,20034,1,8,0:0:0:0:
312,262,20119,1,8,0:0:0:0:
343,295,20204,6,0,L|346:339,1,45,8|8,0:0|0:0,0:0:0:0:
456,259,20375,2,0,L|452:214,1,45,8|8,0:0|0:0,0:0:0:0:
332,160,20545,2,0,L|335:204,1,45,8|8,0:0|0:0,0:0:0:0:
445,124,20716,2,0,L|441:79,1,45,8|8,0:0|0:0,0:0:0:0:
276,41,20886,6,0,L|253:36,1,22.5,8|0,0:0|0:0,0:0:0:0:
195,78,21227,6,0,L|172:73,1,22.5,8|0,0:0|0:0,0:0:0:0:
114,115,21568,6,0,L|91:110,1,22.5,8|0,0:0|0:0,0:0:0:0:
33,152,21909,5,0,0:0:0:0:
114,320,22250,5,6,0:0:0:0:
154,338,22335,1,0,0:0:0:0:
199,338,22420,1,0,0:0:0:0:
240,320,22505,1,0,0:0:0:0:
270,287,22591,2,0,L|266:242,1,45,8|0,0:0|0:0,0:0:0:0:
365,310,22761,2,0,L|368:354,1,45
451,264,22932,5,2,0:0:0:0:
455,219,23017,1,0,0:0:0:0:
434,181,23102,1,0,0:0:0:0:
394,161,23187,1,0,0:0:0:0:
350,168,23272,2,0,L|305:166,1,45,8|0,0:0|0:0,0:0:0:0:
233,83,23443,2,0,L|277:84,1,45
211,173,23613,5,2,0:0:0:0:
174,197,23699,1,0,0:0:0:0:
130,199,23784,1,0,0:0:0:0:
91,178,23869,1,0,0:0:0:0:
67,140,23954,2,0,L|60:184,1,45,8|0,0:0|0:0,0:0:0:0:
7,259,24125,2,0,L|14:303,1,45
86,356,24295,5,2,0:0:0:0:
124,332,24380,1,0,0:0:0:0:
167,321,24466,1,0,0:0:0:0:
212,323,24551,1,0,0:0:0:0:
254,338,24636,2,0,L|296:351,1,45,8|0,0:0|0:0,0:0:0:0:
418,323,24807,2,0,L|375:309,1,45
311,246,24977,5,2,0:0:0:0:
292,205,25062,1,0,0:0:0:0:
296,161,25147,1,0,0:0:0:0:
323,125,25233,1,0,0:0:0:0:
364,108,25318,2,0,L|408:116,1,45,8|0,0:0|0:0,0:0:0:0:
492,45,25488,2,0,L|447:37,1,45
356,13,25659,5,2,0:0:0:0:
314,28,25744,1,0,0:0:0:0:
270,36,25829,1,0,0:0:0:0:
225,35,25914,1,0,0:0:0:0:
181,25,26000,2,0,L|185:70,1,45,8|0,0:0|0:0,0:0:0:0:
296,161,26170,2,0,L|292:116,1,45
194,146,26341,5,2,0:0:0:0:
159,174,26426,1,0,0:0:0:0:
146,216,26511,1,0,0:0:0:0:
156,259,26596,1,0,0:0:0:0:
188,290,26682,2,0,L|231:303,1,45,8|0,0:0|0:0,0:0:0:0:
316,345,26852,2,0,L|359:331,1,45
447,359,27022,5,2,0:0:0:0:
474,322,27108,1,0,0:0:0:0:
483,278,27193,1,0,0:0:0:0:
473,235,27278,1,0,0:0:0:0:
446,200,27363,1,8,0:0:0:0:
419,162,27449,1,0,0:0:0:0:
409,118,27534,1,2,0:0:0:0:
419,76,27619,1,0,0:0:0:0:
444,40,27704,5,2,0:0:0:0:
402,57,27789,1,0,0:0:0:0:
358,67,27875,1,0,0:0:0:0:
313,68,27960,1,0,0:0:0:0:
269,62,28045,2,0,P|249:52|232:37,1,45,8|0,0:0|0:0,0:0:0:0:
157,91,28216,2,0,P|144:72|137:51,1,45
43,52,28386,5,2,0:0:0:0:
21,89,28471,1,0,0:0:0:0:
12,133,28557,1,0,0:0:0:0:
20,177,28642,1,0,0:0:0:0:
43,215,28727,2,0,L|87:210,1,45,8|0,0:0|0:0,0:0:0:0:
193,281,28897,2,0,L|148:286,1,45
177,182,29068,5,2,0:0:0:0:
216,161,29153,1,0,0:0:0:0:
261,163,29238,1,0,0:0:0:0:
299,186,29324,1,0,0:0:0:0:
321,224,29409,2,0,L|314:268,1,45,8|0,0:0|0:0,0:0:0:0:
416,289,29579,2,0,L|422:333,1,45
327,362,29750,5,2,0:0:0:0:
284,346,29835,1,0,0:0:0:0:
240,340,29920,1,0,0:0:0:0:
195,344,30005,1,0,0:0:0:0:
153,359,30091,2,0,L|108:352,1,45,8|0,0:0|0:0,0:0:0:0:
8,283,30261,2,0,L|52:276,1,45
147,227,30432,5,2,0:0:0:0:
190,211,30517,1,0,0:0:0:0:
234,205,30602,1,0,0:0:0:0:
279,209,30687,1,0,0:0:0:0:
321,224,30772,2,0,L|365:217,1,45,8|0,0:0|0:0,0:0:0:0:
466,148,30943,2,0,L|421:141,1,45
327,92,31113,5,2,0:0:0:0:
284,76,31199,1,0,0:0:0:0:
240,70,31284,1,0,0:0:0:0:
195,74,31369,1,0,0:0:0:0:
153,89,31454,2,0,L|108:82,1,45,8|0,0:0|0:0,0:0:0:0:
8,13,31625,2,0,L|52:6,1,45
30,134,31795,6,0,L|35:178,3,45,2|0|0|0,0:0|0:0|0:0|0:0,0:0:0:0:
116,189,32136,2,0,L|121:233,3,45,8|0|0|0,0:0|0:0|0:0|0:0,0:0:0:0:
202,244,32477,6,0,L|207:288,1,45,2|0,0:0|0:0,0:0:0:0:
293,343,32647,1,0,0:0:0:0:
293,343,32733,1,2,0:0:0:0:
293,343,32818,2,0,L|288:299,1,45,8|0,0:0|0:0,0:0:0:0:
116,189,32988,2,0,L|121:233,1,45,2|0,0:0|0:0,0:0:0:0:
374,353,33159,5,6,0:0:0:0:
416,342,33244,1,0,0:0:0:0:
450,312,33329,1,0,0:0:0:0:
468,272,33414,1,0,0:0:0:0:
467,227,33500,1,8,0:0:0:0:
447,187,33585,1,0,0:0:0:0:
412,160,33670,1,0,0:0:0:0:
369,150,33755,1,0,0:0:0:0:
325,159,33841,5,2,0:0:0:0:
289,187,33926,1,0,0:0:0:0:
248,205,34011,1,0,0:0:0:0:
204,213,34096,1,0,0:0:0:0:
159,211,34182,1,8,0:0:0:0:
117,198,34267,1,0,0:0:0:0:
78,175,34352,1,0,0:0:0:0:
46,143,34437,1,0,0:0:0:0:
22,105,34522,6,0,L|36:62,3,45,2|0|0|0,0:0|0:0|0:0|0:0,0:0:0:0:
133,87,34863,2,0,L|166:57,3,45,8|0|0|0,0:0|0:0|0:0|0:0,0:0:0:0:
238,126,35204,2,0,L|282:117,3,45,2|0|0|0,0:0|0:0|0:0|0:0,0:0:0:0:
309,213,35545,2,0,L|351:227,3,45,8|0|0|0,0:0|0:0|0:0|0:0,0:0:0:0:
327,324,35886,5,2,0:0:0:0:
290,349,35971,1,0,0:0:0:0:
246,359,36057,1,0,0:0:0:0:
202,351,36142,1,0,0:0:0:0:
164,328,36227,1,8,0:0:0:0:
125,304,36312,1,0,0:0:0:0:
81,297,36397,1,0,0:0:0:0:
38,306,36483,1,0,0:0:0:0:
1,332,36568,5,2,0:0:0:0:
43,345,36653,1,0,0:0:0:0:
88,341,36738,1,0,0:0:0:0:
127,320,36824,1,0,0:0:0:0:
155,285,36909,1,8,0:0:0:0:
168,242,36994,1,0,0:0:0:0:
163,198,37079,1,0,0:0:0:0:
142,159,37164,1,0,0:0:0:0:
106,131,37250,6,0,L|63:142,3,45,2|0|0|0,0:0|0:0|0:0|0:0,0:0:0:0:
173,47,37591,2,0,L|129:35,3,45,8|0|0|0,0:0|0:0|0:0|0:0,0:0:0:0:
239,131,37932,2,0,L|195:142,3,45,2|0|0|0,0:0|0:0|0:0|0:0,0:0:0:0:
305,46,38272,2,0,L|261:34,3,45,8|0|0|0,0:0|0:0|0:0|0:0,0:0:0:0:
412,43,38613,5,2,0:0:0:0:
448,71,38699,1,0,0:0:0:0:
464,112,38784,1,0,0:0:0:0:
456,156,38869,1,0,0:0:0:0:
427,190,38954,1,8,0:0:0:0:
398,224,39039,1,0,0:0:0:0:
390,268,39125,1,0,0:0:0:0:
406,309,39210,1,0,0:0:0:0:
441,336,39295,5,2,0:0:0:0:
435,292,39380,1,0,0:0:0:0:
413,253,39466,1,0,0:0:0:0:
378,225,39551,1,0,0:0:0:0:
335,212,39636,1,8,0:0:0:0:
291,215,39721,1,0,0:0:0:0:
251,235,39807,1,0,0:0:0:0:
220,268,39892,1,0,0:0:0:0:
204,309,39977,6,0,L|205:354,3,45,2|0|0|0,0:0|0:0|0:0|0:0,0:0:0:0:
110,238,40318,2,0,L|111:282,3,45,8|0|0|0,0:0|0:0|0:0|0:0,0:0:0:0:
249,190,40659,2,0,L|250:234,3,45,2|0|0|0,0:0|0:0|0:0|0:0,0:0:0:0:
154,118,41000,2,0,L|155:162,3,45,8|0|0|0,0:0|0:0|0:0|0:0,0:0:0:0:
255,97,41341,5,2,0:0:0:0:
236,56,41426,1,0,0:0:0:0:
202,27,41511,1,0,0:0:0:0:
159,15,41596,1,0,0:0:0:0:
114,23,41682,1,8,0:0:0:0:
78,46,41767,1,0,0:0:0:0:
55,85,41852,1,0,0:0:0:0:
50,129,41937,1,0,0:0:0:0:
64,172,42022,5,2,0:0:0:0:
99,198,42108,1,0,0:0:0:0:
143,209,42193,1,0,0:0:0:0:
187,203,42278,1,0,0:0:0:0:
226,181,42363,1,8,0:0:0:0:
264,158,42449,1,0,0:0:0:0:
308,152,42534,1,0,0:0:0:0:
352,163,42619,1,0,0:0:0:0:
388,190,42704,5,10,0:0:0:0:
413,226,42789,1,0,0:0:0:0:
417,270,42875,1,0,0:0:0:0:
399,311,42960,1,0,0:0:0:0:
364,338,43045,1,10,0:0:0:0:
320,345,43130,1,0,0:0:0:0:
278,330,43216,1,0,0:0:0:0:
249,296,43301,1,0,0:0:0:0:
241,252,43386,6,0,L|247:208,1,45,10|0,0:0|0:0,0:0:0:0:
394,145,43557,2,0,L|387:189,1,45
281,77,43727,1,12,0:0:0:0:
281,77,43812,1,8,0:0:0:0:
281,77,43897,1,8,0:0:0:0:
281,77,43983,1,8,0:0:0:0:
280,76,44068,6,0,P|236:77|192:88,1,90,6|0,0:0|0:0,0:0:0:0:
241,252,44409,1,8,0:0:0:0:
250,231,44494,1,0,0:0:0:0:
255,209,44579,2,0,P|255:186|252:164,1,45
87,212,44750,6,0,L|130:203,1,45,2|0,0:0|0:0,0:0:0:0:
200,288,44920,1,0,0:0:0:0:
222,285,45005,2,0,L|265:276,1,45,0|8,0:0|0:0,0:0:0:0:
336,362,45176,1,0,0:0:0:0:
358,359,45261,2,0,L|401:350,1,45
478,333,45432,5,2,0:0:0:0:
442,146,45602,2,0,P|408:173|389:214,1,90,0|8,0:0|0:0,0:0:0:0:
367,239,45858,1,0,0:0:0:0:
336,253,45943,1,0,0:0:0:0:
303,253,46028,1,0,0:0:0:0:
273,238,46113,1,2,0:0:0:0:
188,134,46284,5,0,0:0:0:0:
188,134,46369,1,0,0:0:0:0:
188,134,46454,2,0,L|173:176,1,45,8|0,0:0|0:0,0:0:0:0:
94,264,46625,2,0,L|79:221,1,45
0,130,46795,6,0,L|89:120,1,90,2|0,0:0|0:0,0:0:0:0:
206,31,47136,1,8,0:0:0:0:
228,33,47221,1,0,0:0:0:0:
250,36,47307,2,0,L|294:41,1,45
442,74,47477,6,0,P|421:83|399:86,1,45,2|0,0:0|0:0,0:0:0:0:
382,180,47647,1,0,0:0:0:0:
360,182,47733,2,0,P|337:180|317:171,1,45,0|8,0:0|0:0,0:0:0:0:
255,243,47903,1,0,0:0:0:0:
234,234,47988,2,0,P|215:221|202:203,1,45
182,119,48159,5,2,0:0:0:0:
82,211,48329,2,0,L|72:300,1,90,0|8,0:0|0:0,0:0:0:0:
59,331,48585,1,0,0:0:0:0:
92,326,48670,1,0,0:0:0:0:
125,322,48755,1,0,0:0:0:0:
159,318,48841,1,2,0:0:0:0:
202,203,49011,5,0,0:0:0:0:
245,191,49096,1,0,0:0:0:0:
288,201,49182,1,8,0:0:0:0:
322,230,49267,1,0,0:0:0:0:
356,257,49352,1,0,0:0:0:0:
399,267,49437,1,0,0:0:0:0:
442,255,49522,6,0,P|459:214|464:169,1,90,2|0,0:0|0:0,0:0:0:0:
428,52,49863,1,8,0:0:0:0:
428,52,49949,1,0,0:0:0:0:
428,52,50034,2,0,L|471:40,1,45
366,134,50204,6,0,L|322:122,1,45,2|0,0:0|0:0,0:0:0:0:
282,36,50375,1,0,0:0:0:0:
260,41,50460,2,0,L|216:52,1,45,0|8,0:0|0:0,0:0:0:0:
176,139,50630,1,0,0:0:0:0:
154,134,50716,2,0,L|110:122,1,45
34,52,50886,5,2,0:0:0:0:
4,233,51057,2,0,L|91:211,1,90,0|8,0:0|0:0,0:0:0:0:
123,219,51312,1,0,0:0:0:0:
147,242,51397,1,0,0:0:0:0:
157,274,51483,1,0,0:0:0:0:
150,307,51568,1,2,0:0:0:0:
269,354,51738,5,0,0:0:0:0:
291,350,51824,1,0,0:0:0:0:
313,346,51909,2,0,L|357:338,1,45,8|0,0:0|0:0,0:0:0:0:
415,235,52079,2,0,L|370:242,1,45
231,194,52250,5,2,0:0:0:0:
385,117,52420,1,0,0:0:0:0:
204,268,52591,1,8,0:0:0:0:
168,243,52676,1,0,0:0:0:0:
152,202,52761,1,0,0:0:0:0:
161,158,52846,1,0,0:0:0:0:
192,127,52932,6,0,L|236:132,1,45,2|0,0:0|0:0,0:0:0:0:
389,84,53102,1,0,0:0:0:0:
366,86,53187,2,0,L|321:91,1,45,0|8,0:0|0:0,0:0:0:0:
169,43,53358,1,0,0:0:0:0:
192,45,53443,2,0,L|236:50,1,45
321,173,53613,5,2,0:0:0:0:
465,43,53784,1,0,0:0:0:0:
493,265,53954,1,8,0:0:0:0:
462,297,54039,1,0,0:0:0:0:
420,312,54125,1,0,0:0:0:0:
375,308,54210,1,0,0:0:0:0:
337,285,54295,1,2,0:0:0:0:
206,147,54466,5,0,0:0:0:0:
198,167,54551,1,0,0:0:0:0:
197,190,54636,2,0,P|199:212|206:233,1,45,8|0,0:0|0:0,0:0:0:0:
389,84,54807,2,0,P|386:61|379:40,1,45
138,71,54977,5,6,0:0:0:0:
287,191,55147,1,0,0:0:0:0:
106,338,55318,1,8,0:0:0:0:
75,307,55403,2,0,P|60:265|73:222,1,90
129,165,55659,6,0,L|217:182,1,90,2|0,0:0|0:0,0:0:0:0:
261,181,55914,1,0,0:0:0:0:
297,154,56000,1,8,0:0:0:0:
311,112,56085,1,0,0:0:0:0:
300,69,56170,1,0,0:0:0:0:
206,233,56341,6,0,P|191:274|207:316,1,90,2|0,0:0|0:0,0:0:0:0:
433,358,56682,1,8,0:0:0:0:
428,313,56767,2,0,L|419:223,1,90
414,178,57022,1,2,0:0:0:0:
300,69,57193,5,0,0:0:0:0:
300,69,57278,1,0,0:0:0:0:
300,69,57363,2,0,L|343:79,1,45,8|0,0:0|0:0,0:0:0:0:
502,75,57534,2,0,L|458:64,1,45
316,175,57704,5,2,0:0:0:0:
387,4,57875,1,0,0:0:0:0:
390,220,58045,1,8,0:0:0:0:
356,251,58130,2,0,P|313:260|270:248,1,90
188,212,58386,6,0,L|200:301,1,90,2|0,0:0|0:0,0:0:0:0:
181,340,58642,1,0,0:0:0:0:
140,357,58727,1,8,0:0:0:0:
98,343,58812,1,0,0:0:0:0:
76,305,58897,1,0,0:0:0:0:
17,127,59068,6,0,P|61:136|105:139,1,90,2|0,0:0|0:0,0:0:0:0:
273,51,59409,1,8,0:0:0:0:
230,63,59494,2,0,P|210:104|213:148,1,90
245,180,59750,1,2,0:0:0:0:
416,235,59920,5,0,0:0:0:0:
381,206,60005,1,0,0:0:0:0:
337,204,60091,1,8,0:0:0:0:
301,230,60176,1,0,0:0:0:0:
264,255,60261,1,0,0:0:0:0:
220,253,60346,1,0,0:0:0:0:
186,225,60432,6,0,L|175:268,3,45,2|0|0|0,0:0|0:0|0:0|0:0,0:0:0:0:
105,139,60772,2,0,L|115:95,3,45,8|0|0|0,0:0|0:0|0:0|0:0,0:0:0:0:
102,222,61113,2,0,L|58:211,3,45,2|0|0|0,0:0|0:0|0:0|0:0,0:0:0:0:
188,141,61454,2,0,L|232:152,3,45,8|0|0|0,0:0|0:0|0:0|0:0,0:0:0:0:
186,225,61795,5,0,0:0:0:0:
200,241,61880,1,0,0:0:0:0:
218,255,61966,1,0,0:0:0:0:
239,263,62051,1,0,0:0:0:0:
261,267,62136,1,0,0:0:0:0:
284,265,62221,1,0,0:0:0:0:
304,259,62307,2,0,P|323:246|338:229,1,45
408,148,62477,5,0,0:0:0:0:
409,170,62562,1,0,0:0:0:0:
411,192,62647,1,0,0:0:0:0:
413,215,62733,1,0,0:0:0:0:
415,237,62818,1,0,0:0:0:0:
417,260,62903,1,0,0:0:0:0:
419,282,62988,2,0,L|422:326,1,45
505,217,63159,5,12,0:0:0:0:
488,176,63244,1,0,0:0:0:0:
452,150,63329,1,0,0:0:0:0:
407,148,63414,1,0,0:0:0:0:
371,173,63500,1,8,0:0:0:0:
328,186,63585,1,0,0:0:0:0:
283,187,63670,1,0,0:0:0:0:
240,174,63755,1,0,0:0:0:0:
203,149,63841,5,8,0:0:0:0:
174,114,63926,1,0,0:0:0:0:
134,96,64011,1,0,0:0:0:0:
89,97,64096,1,0,0:0:0:0:
51,119,64182,1,8,0:0:0:0:
26,157,64267,1,0,0:0:0:0:
21,201,64352,1,0,0:0:0:0:
37,242,64437,1,0,0:0:0:0:
71,272,64522,6,0,L|115:265,1,45,8|0,0:0|0:0,0:0:0:0:
203,149,64693,2,0,L|158:156,1,45,8|0,0:0|0:0,0:0:0:0:
216,299,64863,1,8,0:0:0:0:
260,332,64949,1,0,0:0:0:0:
315,334,65034,1,0,0:0:0:0:
362,304,65119,1,0,0:0:0:0:
383,253,65204,1,8,0:0:0:0:
335,48,65375,6,0,L|339:25,2,22.5,2|0|0,0:0|0:0|0:0,0:0:0:0:
330,70,65545,1,8,0:0:0:0:
158,156,65716,2,0,L|162:178,2,22.5,2|0|0,0:0|0:0|0:0,0:0:0:0:
153,134,65886,5,6,0:0:0:0:
98,51,66397,1,2,0:0:0:0:
54,141,66909,1,2,0:0:0:0:
153,134,67250,2,0,L|215:123,1,62.9999980773926,2|0,0:0|0:0,0:0:0:0:
256,37,67591,2,0,L|318:47,1,62.9999980773926,0|2,0:0|0:0,0:0:0:0:
410,223,68613,6,0,P|460:150|410:77,2,188.999994232178,2|2|2,0:0|0:0|0:0,0:0:0:0:
469,342,69977,2,0,P|384:303|293:322,1,188.999994232178,2|2,0:0|0:0,0:0:0:0:
193,319,70659,2,0,L|202:256,1,62.9999980773926,2|0,0:0|0:0,0:0:0:0:
102,349,71000,2,0,L|92:286,1,62.9999980773926
21,182,71341,5,2,0:0:0:0:
21,182,71852,1,2,0:0:0:0:
21,182,72363,1,2,0:0:0:0:
21,182,72704,1,2,0:0:0:0:
92,220,72875,1,0,0:0:0:0:
170,194,73045,1,0,0:0:0:0:
203,120,73216,2,0,P|266:58|345:98,1,188.999994232178,2|2,0:0|0:0,0:0:0:0:
468,281,74068,6,0,B|422:306|365:285|396:260|343:242|291:269,1,188.999994232178,2|2,0:0|0:0,0:0:0:0:
182,359,74920,2,0,P|200:299|183:239,1,125.999996154785,2|2,0:0|0:0,0:0:0:0:
144,154,75432,6,0,L|10:171,2,135,2|0|0,0:0|0:0|0:0,0:0:0:0:
202,40,76625,1,0,0:0:0:0:
202,40,76710,1,0,0:0:0:0:
202,40,76795,6,0,P|253:55|287:95,1,107.999996704102,8|0,0:0|0:0,0:0:0:0:
282,197,77051,2,0,P|269:145|287:94,1,107.999996704102,8|0,0:0|0:0,0:0:0:0:
415,154,77307,2,0,L|362:150,1,53.9999983520508,8|0,0:0|0:0,0:0:0:0:
144,154,77477,5,8,0:0:0:0:
185,311,77647,2,0,P|192:289|196:267,1,45,8|0,0:0|0:0,0:0:0:0:
213,128,77818,1,8,0:0:0:0:
174,88,77903,1,8,0:0:0:0:
119,87,77988,1,8,0:0:0:0:
78,124,78074,1,8,0:0:0:0:
74,179,78159,6,0,L|181:194,1,107.999996704102,8|0,0:0|0:0,0:0:0:0:
291,295,78414,2,0,L|185:311,1,107.999996704102,8|0,0:0|0:0,0:0:0:0:
349,186,78670,2,0,L|402:194,1,53.9999983520508,8|0,0:0|0:0,0:0:0:0:
482,67,78841,1,8,0:0:0:0:
419,42,78926,1,8,0:0:0:0:
352,41,79011,1,8,0:0:0:0:
289,65,79096,1,8,0:0:0:0:
240,110,79182,6,0,P|203:127|163:129,1,80.9999975280763,8|0,0:1|0:0,0:0:0:0:
88,61,79522,6,0,P|127:139|94:220,1,180,6|8,0:0|0:0,0:0:0:0:
221,278,80034,1,0,0:0:0:0:
22,262,80204,2,0,P|11:218|26:177,1,90,2|0,0:0|0:0,0:0:0:0:
221,278,80545,2,0,P|231:321|216:362,1,90,8|0,0:0|0:0,0:0:0:0:
150,164,80886,6,0,B|200:143|251:168|228:177|281:200|322:179,1,180,2|8,0:0|0:0,0:0:0:0:
431,24,81397,1,0,0:0:0:0:
430,190,81568,1,2,0:0:0:0:
287,106,81738,1,0,0:0:0:0:
495,143,81909,2,0,P|509:185|500:228,1,90,8|0,0:0|0:0,0:0:0:0:
438,353,82250,6,0,B|361:338|361:338|321:344|321:344|260:333,1,180,2|8,0:0|0:0,0:0:0:0:
113,350,82761,1,0,0:0:0:0:
191,186,82932,2,0,B|208:229|208:229|189:271,1,90,2|0,0:0|0:0,0:0:0:0:
16,239,83272,2,0,L|105:227,1,90,8|0,0:0|0:0,0:0:0:0:
249,99,83613,6,0,L|159:87,1,90,2|0,0:0|0:0,0:0:0:0:
190,269,83954,1,8,0:0:0:0:
323,189,84125,1,0,0:0:0:0:
193,285,84295,1,2,0:0:0:0:
58,210,84466,1,0,0:0:0:0:
196,301,84636,1,8,0:0:0:0:
326,205,84807,1,0,0:0:0:0:
198,317,84977,6,0,P|154:316|111:303,1,90,6|0,0:0|0:0,0:0:0:0:
163,68,85318,2,0,P|176:110|178:155,1,90,8|0,0:0|0:0,0:0:0:0:
165,187,85574,1,0,0:0:0:0:
165,187,85659,2,0,P|209:187|252:200,1,90,8|0,0:0|0:0,0:0:0:0:
326,304,86000,1,8,0:0:0:0:
408,113,86170,1,2,0:0:0:0:
408,113,86255,1,2,0:0:0:0:
408,113,86341,5,6,0:0:0:0:
252,200,86511,1,0,0:0:0:0:
466,274,86682,2,0,B|484:233|484:233|470:189,1,90,8|0,0:0|0:0,0:0:0:0:
463,20,87022,1,8,0:0:0:0:
418,15,87108,1,0,0:0:0:0:
374,23,87193,1,0,0:0:0:0:
333,42,87278,1,0,0:0:0:0:
298,70,87363,1,8,0:0:0:0:
263,98,87449,1,0,0:0:0:0:
222,117,87534,1,0,0:0:0:0:
178,125,87619,1,0,0:0:0:0:
133,120,87704,5,12,0:0:0:0:
283,252,87875,1,2,0:0:0:0:
283,252,87960,1,2,0:0:0:0:
283,252,88045,2,0,L|291:207,1,45,8|0,0:0|0:0,0:0:0:0:
230,72,88216,2,0,L|221:116,1,45
97,209,88386,6,0,L|150:202,1,53.9999983520508,12|0,0:0|0:0,0:0:0:0:
208,327,88557,1,8,0:0:0:0:
234,330,88642,2,0,L|287:336,1,53.9999983520508,8|0,0:0|0:0,0:0:0:0:
345,212,88812,1,8,0:0:0:0:
371,209,88897,2,0,L|424:202,1,53.9999983520508,8|0,0:0|0:0,0:0:0:0:
447,59,89068,6,0,L|393:65,1,53.9999983520508,12|0,0:0|0:0,0:0:0:0:
282,130,89238,1,0,0:0:0:0:
215,149,89324,1,0,0:0:0:0:
152,118,89409,1,8,0:0:0:0:
127,52,89494,1,8,0:0:0:0:
16,188,89664,1,0,0:0:0:0:
16,188,89750,6,0,L|69:194,1,53.9999983520508,8|0,0:0|0:0,0:0:0:0:
192,308,89920,2,0,L|138:301,1,53.9999983520508,8|0,0:0|0:0,0:0:0:0:
215,148,90091,2,0,P|282:130|280:200,1,161.999995056153,8|0,0:1|0:0,0:0:0:0:
215,148,90432,6,0,P|185:78|234:19,1,161.999995056153,6|2,0:0|0:0,0:0:0:0:
370,180,90943,1,0,0:0:0:0:
259,89,91113,1,2,0:0:0:0:
423,51,91284,1,0,0:0:0:0:
279,200,91454,1,2,0:0:0:0:
126,51,91625,1,0,0:0:0:0:
376,40,91795,6,0,P|408:111|369:180,1,161.999995056153,2|2,0:0|0:0,0:0:0:0:
269,246,92307,1,0,0:0:0:0:
388,314,92477,2,0,L|474:308,1,80.9999975280763,2|0,0:0|0:0,0:0:0:0:
269,246,92818,1,2,0:0:0:0:
214,335,92988,1,0,0:0:0:0:
84,216,93159,6,0,B|74:175|74:175|84:137,1,80.9999975280763,2|0,0:0|0:0,0:0:0:0:
221,58,93500,2,0,B|231:99|231:99|220:136,1,80.9999975280763,2|0,0:0|0:0,0:0:0:0:
190,286,93841,1,2,0:0:0:0:
84,217,94011,1,0,0:0:0:0:
326,249,94182,1,2,0:0:0:0:
220,180,94352,1,0,0:0:0:0:
462,211,94522,6,0,P|475:174|465:136,1,80.9999975280763,2|0,0:0|0:0,0:0:0:0:
441,109,94778,1,0,0:0:0:0:
441,109,94863,2,0,L|360:119,1,80.9999975280763,2|0,0:0|0:0,0:0:0:0:
231,56,95204,1,2,0:0:0:0:
168,242,95375,2,0,P|145:210|138:171,1,80.9999975280763,0|2,0:0|0:0,0:0:0:0:
286,250,95716,2,0,L|249:267,1,40.4999987640381
119,325,95886,6,0,L|238:345,1,121.499996292114,2|0,0:0|0:0,0:0:0:0:
319,352,96227,2,0,P|328:313|317:275,1,80.9999975280763,2|0,0:0|0:0,0:0:0:0:
178,162,96568,1,2,0:0:0:0:
178,162,96653,2,0,L|168:242,1,80.9999975280763
269,193,96909,2,0,L|278:112,1,80.9999975280763,2|0,0:0|0:0,0:0:0:0:
80,21,97250,6,0,P|34:57|41:114,1,121.499996292114,2|0,0:0|0:0,0:0:0:0:
97,167,97591,2,0,P|137:163|177:161,1,80.9999975280763,2|0,0:0|0:0,0:0:0:0:
319,78,97932,1,2,0:0:0:0:
319,78,98017,2,0,P|307:115|315:155,1,80.9999975280763
362,223,98272,2,0,P|321:225|281:228,1,80.9999975280763,2|0,0:0|0:0,0:0:0:0:
175,340,98613,5,2,0:0:0:0:
175,340,98954,2,0,P|174:300|180:260,1,80.9999975280763,2|0,0:0|0:0,0:0:0:0:
241,117,99295,1,2,0:0:0:0:
281,228,99466,1,0,0:0:0:0:
95,163,99636,1,2,0:0:0:0:
244,34,99807,1,0,0:0:0:0:
183,187,99977,5,2,0:0:0:0:
36,38,100147,1,0,0:0:0:0:
36,38,100233,1,0,0:0:0:0:
36,38,100318,1,2,0:0:0:0:
241,117,100488,1,0,0:0:0:0:
70,255,100659,1,2,0:0:0:0:
159,75,100829,6,0,L|155:47,2,20.2499993820191,2|0|0,0:0|0:0|0:0,0:0:0:0:
161,95,101000,1,8,0:0:0:0:
334,200,101170,2,0,L|330:228,2,20.2499993820191,2|0|0,0:0|0:0|0:0,0:0:0:0:
336,180,101341,6,0,L|425:168,1,90,4|2,0:0|3:2,0:0:0:0:
355,321,101682,2,0,L|265:332,1,90,8|2,0:0|3:2,0:0:0:0:
79,297,102022,2,0,P|87:253|123:229,1,90,0|2,0:0|3:2,0:0:0:0:
168,219,102278,1,0,0:0:0:0:
168,219,102363,2,0,L|182:261,1,45,8|0,0:0|0:0,0:0:0:0:
265,332,102534,2,0,L|279:289,1,45,2|0,3:2|0:0,0:0:0:0:
296,145,102704,6,0,B|212:152|212:152|198:138|198:138|122:145,1,180,0|8,0:0|0:0,0:0:0:0:
248,62,103216,1,2,3:2:0:0:
356,209,103386,2,0,P|379:172|381:127,1,90,0|2,0:0|3:2,0:0:0:0:
279,289,103727,1,8,0:0:0:0:
400,335,103897,1,2,3:2:0:0:
233,224,104068,6,0,B|197:243|186:288|208:334|208:334|179:327|153:330,1,180,0|8,0:0|0:0,0:0:0:0:
122,145,104579,1,2,3:2:0:0:
7,266,104750,2,0,P|51:274|96:275,1,90,0|2,0:0|3:2,0:0:0:0:
121,261,105005,1,0,0:0:0:0:
121,261,105091,2,0,L|114:216,1,45,8|0,0:0|0:0,0:0:0:0:
36,150,105261,2,0,L|42:105,1,45,2|0,3:2|0:0,0:0:0:0:
186,22,105432,6,0,B|259:19|291:71|291:71|347:57,1,180,0|8,0:0|0:0,0:0:0:0:
416,123,105943,1,2,3:2:0:0:
200,210,106113,2,0,B|185:167|185:167|201:126,1,90,0|2,0:0|3:2,0:0:0:0:
271,308,106454,1,8,0:0:0:0:
114,216,106625,1,2,3:2:0:0:
276,85,106795,6,0,B|291:128|291:128|275:169,1,90,0|2,0:0|3:2,0:0:0:0:
181,313,107136,2,0,L|270:307,1,90,8|2,0:0|3:2,0:0:0:0:
429,312,107477,1,0,0:0:0:0:
269,207,107647,1,2,3:2:0:0:
453,175,107818,1,8,0:0:0:0:
315,285,107988,1,2,3:2:0:0:
170,156,108159,5,6,0:0:0:0:
170,112,108244,1,0,0:0:0:0:
194,75,108329,1,0,0:0:0:0:
235,57,108414,1,0,0:0:0:0:
279,65,108500,1,8,0:0:0:0:
311,96,108585,1,0,0:0:0:0:
320,139,108670,1,0,0:0:0:0:
304,181,108755,1,0,0:0:0:0:
268,206,108841,5,8,0:0:0:0:
237,174,108926,1,0,0:0:0:0:
196,158,109011,1,8,0:0:0:0:
151,161,109096,1,0,0:0:0:0:
113,183,109182,1,8,0:0:0:0:
87,219,109267,1,0,0:0:0:0:
80,263,109352,1,8,0:0:0:0:
92,306,109437,1,0,0:0:0:0:
122,340,109522,6,0,L|166:339,1,45,8|8,0:0|0:0,0:0:0:0:
280,252,109693,2,0,L|235:252,1,45,8|8,0:0|0:0,0:0:0:0:
87,219,109863,2,0,L|131:218,1,45,8|8,0:0|0:0,0:0:0:0:
245,131,110034,2,0,L|200:131,1,45,8|8,0:0|0:0,0:0:0:0:
52,98,110204,5,2,0:0:0:0:
290,37,110375,1,8,0:0:0:0:
333,45,110460,1,8,0:0:0:0:
367,75,110545,1,8,0:0:0:0:
379,117,110630,1,8,0:0:0:0:
368,160,110716,1,8,0:0:0:0:
335,191,110801,1,8,0:0:0:0:
292,200,110886,5,2,0:0:0:0:
209,43,111057,1,8,0:0:0:0:
209,43,111142,1,8,0:0:0:0:
209,43,111227,2,0,L|214:87,1,45,8|0,0:0|0:0,0:0:0:0:
88,240,111397,2,0,L|82:195,1,45,8|0,0:0|0:0,0:0:0:0:
296,114,111568,5,12,0:0:0:0:
270,151,111653,1,0,0:0:0:0:
229,169,111738,1,0,0:0:0:0:
185,166,111824,1,0,0:0:0:0:
148,141,111909,1,12,0:0:0:0:
111,116,111994,1,0,0:0:0:0:
67,113,112079,1,0,0:0:0:0:
26,131,112164,1,0,0:0:0:0:
0,168,112250,5,4,0:0:0:0:
343,75,123159,5,12,0:0:0:0:
373,279,123500,1,8,0:0:0:0:
169,309,123841,1,8,0:0:0:0:
139,105,124182,1,8,0:0:0:0:
361,91,124522,5,8,0:0:0:0:
356,297,124863,1,8,0:0:0:0:
150,292,125204,1,8,0:0:0:0:
155,86,125545,1,8,0:0:0:0:
256,192,125716,1,8,0:0:0:0:
377,111,125886,5,8,0:0:0:0:
134,272,126227,1,8,0:0:0:0:
336,313,126568,1,8,0:0:0:0:
175,70,126909,1,8,0:0:0:0:
389,134,127250,5,8,0:0:0:0:
122,249,127591,1,8,0:0:0:0:
313,325,127932,1,8,0:0:0:0:
198,58,128272,1,8,0:0:0:0:
256,192,128443,1,8,0:0:0:0:
111,174,128613,6,0,P|91:215|95:259,1,90,12|0,0:0|0:0,0:0:0:0:
188,357,128954,2,0,P|207:316|203:272,1,90,8|0,0:0|0:0,0:0:0:0:
188,121,129295,2,0,P|108:156|32:116,1,180,8|8,0:0|0:0,0:0:0:0:
115,61,129807,1,8,0:0:0:0:
203,272,129977,5,8,0:0:0:0:
327,184,130147,1,8,0:0:0:0:
64,209,130318,1,8,0:0:0:0:
312,33,130488,1,8,0:0:0:0:
203,272,130659,5,12,0:0:0:0:
188,121,130829,1,8,0:0:0:0:
342,335,131000,1,8,0:0:0:0:
64,209,131170,1,8,0:0:0:0:
327,184,131341,5,8,0:0:0:0:
180,31,131511,1,8,0:0:0:0:
180,31,131596,2,0,L|187:120,1,90,8|0,0:0|0:0,0:0:0:0:
194,209,131852,1,8,0:0:0:0:
342,335,132022,5,8,0:0:0:0:
56,126,132193,1,8,0:0:0:0:
56,126,132278,2,0,L|63:215,1,90,8|0,0:0|0:0,0:0:0:0:
70,304,132534,1,8,0:0:0:0:
342,335,132704,5,8,0:0:0:0:
231,124,132875,2,0,L|186:120,1,45,0|0,1:0|0:0,0:0:0:0:
365,316,133045,5,8,0:0:0:0:
153,207,133216,2,0,L|108:203,1,45,0|0,1:0|0:0,0:0:0:0:
388,297,133386,5,8,0:0:0:0:
75,290,133557,2,0,L|30:286,1,45,0|0,1:0|0:0,0:0:0:0:
410,278,133727,6,0,P|431:214|410:151,1,135,8|0,0:1|0:0,0:0:0:0:
386,128,134068,5,6,0:0:0:0:
231,124,134238,1,2,0:0:0:0:
231,124,134324,2,0,L|96:113,1,135,2|0,0:0|0:0,0:0:0:0:
236,23,134750,1,2,0:0:0:0:
59,40,134920,1,2,0:0:0:0:
59,40,135005,2,0,P|16:89|25:154,1,135,2|0,0:0|0:0,0:0:0:0:
52,263,135432,5,2,0:0:0:0:
142,199,135602,1,2,0:0:0:0:
179,191,135687,1,2,0:0:0:0:
216,191,135772,1,2,0:0:0:0:
318,234,135943,1,2,0:0:0:0:
378,327,136113,2,0,P|463:338|508:266,1,180,2|2,0:0|0:0,0:0:0:0:
458,131,136625,1,2,0:0:0:0:
318,234,136795,5,2,0:0:0:0:
194,99,136966,1,2,0:0:0:0:
194,99,137051,2,0,L|328:89,1,135,2|0,0:0|0:0,0:0:0:0:
458,131,137477,1,2,0:0:0:0:
318,234,137647,1,2,0:0:0:0:
318,234,137733,2,0,P|257:213|209:256,1,135,2|0,0:0|0:0,0:0:0:0:
379,331,138159,5,2,0:0:0:0:
318,234,138329,1,2,0:0:0:0:
316,196,138414,1,2,0:0:0:0:
323,159,138500,1,2,0:0:0:0:
433,201,138670,1,2,0:0:0:0:
379,331,138841,2,0,B|312:310|312:310|203:329,1,180,2|2,0:0|0:0,0:0:0:0:
65,359,139352,1,2,0:0:0:0:
30,231,139522,6,0,L|118:215,1,90,2|0,0:0|0:0,0:0:0:0:
147,201,139778,2,0,P|175:142|143:86,1,135,2|2,0:0|0:0,0:0:0:0:
30,231,140204,2,0,L|208:257,1,180,2|0,0:0|0:0,0:0:0:0:
372,332,140716,1,2,0:0:0:0:
372,332,140801,1,2,0:0:0:0:
371,332,140886,6,0,P|412:280|396:217,1,135,2|0,0:0|0:0,0:0:0:0:
374,191,141227,2,0,L|285:206,1,90,2|2,0:0|0:0,0:0:0:0:
392,59,141568,2,0,P|447:95|512:86,2,135,2|2|2,0:0|0:0|0:0,0:0:0:0:
285,100,142250,6,0,P|204:74|138:129,1,180,2|0,0:0|0:0,0:0:0:0:
7,219,142761,1,0,0:0:0:0:
68,85,142932,2,0,B|65:166|65:166|86:181|86:181|82:254,1,180,2|0,0:0|0:0,0:0:0:0:
22,356,143443,1,2,0:0:0:0:
22,356,143528,1,2,0:0:0:0:
22,356,143613,6,0,P|66:347|110:343,1,90,2|0,0:0|0:0,0:0:0:0:
200,260,143954,2,0,P|242:275|283:293,1,90,2|0,0:0|0:0,0:0:0:0:
283,293,144210,1,2,0:0:0:0:
283,293,144295,1,2,0:0:0:0:
448,235,144466,1,2,0:0:0:0:
280,185,144636,1,2,0:0:0:0:
386,323,144807,1,2,0:0:0:0:
381,147,144977,6,0,B|407:32|407:32|432:88,1,180,6|2,0:0|0:0,0:0:0:0:
283,293,145488,1,0,0:0:0:0:
283,293,145574,1,0,0:0:0:0:
283,293,145659,1,2,0:0:0:0:
448,235,145829,1,0,0:0:0:0:
280,185,146000,1,2,0:0:0:0:
386,323,146170,1,0,0:0:0:0:
381,147,146341,6,0,B|401:41|401:41|418:66,1,135,2|0,0:0|0:0,0:0:0:0:
432,88,146682,2,0,P|387:86|344:73,1,90,2|0,0:0|0:0,0:0:0:0:
118,155,147022,1,2,0:0:0:0:
250,61,147193,1,0,0:0:0:0:
262,188,147363,1,2,0:0:0:0:
130,28,147534,1,0,0:0:0:0:
66,231,147704,6,0,P|108:244|153:240,1,90,2|0,0:0|0:0,0:0:0:0:
153,240,147960,1,0,0:0:0:0:
153,240,148045,1,2,0:0:0:0:
46,104,148216,1,0,0:0:0:0:
147,331,148386,6,0,P|190:321|227:295,1,90,2|0,0:0|0:0,0:0:0:0:
227,295,148642,1,0,0:0:0:0:
227,295,148727,1,2,0:0:0:0:
66,231,148897,1,0,0:0:0:0:
268,377,149068,6,0,P|318:307|287:226,1,180,2|2,0:0|0:0,0:0:0:0:
63,157,149750,2,0,L|152:149,1,90,2|0,0:0|0:0,0:0:0:0:
376,94,150091,2,0,L|286:86,1,90,2|0,0:0|0:0,0:0:0:0:
263,84,150346,1,0,0:0:0:0:
241,82,150432,5,2,0:0:0:0:
271,302,150602,1,0,0:0:0:0:
153,149,150772,1,2,0:0:0:0:
358,234,150943,1,0,0:0:0:0:
358,234,151028,1,0,0:0:0:0:
358,234,151113,1,2,0:0:0:0:
168,259,151284,1,0,0:0:0:0:
168,259,151369,1,0,0:0:0:0:
168,259,151454,1,2,0:0:0:0:
343,124,151625,1,0,0:0:0:0:
271,302,151795,6,0,L|262:212,1,90,2|0,0:0|0:0,0:0:0:0:
57,141,152136,2,0,L|66:231,1,90,2|0,0:0|0:0,0:0:0:0:
68,254,152392,1,0,0:0:0:0:
70,276,152477,1,2,0:0:0:0:
262,212,152647,2,0,L|217:204,1,45
148,152,152818,2,0,L|139:62,1,90,2|0,0:0|0:0,0:0:0:0:
137,39,153074,1,0,0:0:0:0:
135,17,153159,1,2,0:0:0:0:
306,20,153329,5,2,0:0:0:0:
347,38,153414,1,2,0:0:0:0:
373,75,153500,1,2,0:0:0:0:
375,119,153585,1,2,0:0:0:0:
355,158,153670,1,2,0:0:0:0:
317,181,153755,1,2,0:0:0:0:
273,182,153841,1,2,0:0:0:0:
227,181,153926,1,2,0:0:0:0:
189,204,154011,1,2,0:0:0:0:
169,243,154096,1,2,0:0:0:0:
171,287,154182,1,2,0:0:0:0:
197,324,154267,1,2,0:0:0:0:
238,342,154352,1,2,0:0:0:0:
282,336,154437,1,2,0:0:0:0:
316,308,154522,6,0,L|312:263,1,45,2|0,0:0|0:0,0:0:0:0:
111,176,154693,1,0,0:0:0:0:
67,182,154778,1,0,0:0:0:0:
33,210,154863,2,0,L|37:255,1,45,2|0,0:0|0:0,0:0:0:0:
196,91,155034,2,0,L|192:46,1,45,2|0,0:0|0:0,0:0:0:0:
352,19,155204,5,2,0:0:0:0:
379,54,155289,1,2,0:0:0:0:
383,98,155375,1,2,0:0:0:0:
363,138,155460,1,2,0:0:0:0:
326,161,155545,5,8,0:0:0:0:
280,192,155630,1,8,0:0:0:0:
262,246,155716,1,8,0:0:0:0:
281,297,155801,1,8,0:0:0:0:
326,327,155886,6,0,P|380:334|432:320,1,107.999996704102,6|0,0:0|0:0,0:0:0:0:
172,174,156227,2,0,P|118:167|66:181,1,107.999996704102,8|0,0:0|0:0,0:0:0:0:
132,336,156568,1,2,0:0:0:0:
338,229,156738,1,0,0:0:0:0:
335,214,156824,2,0,L|325:160,1,53.9999983520508,0|8,0:0|0:0,0:0:0:0:
431,320,157079,1,0,0:0:0:0:
252,203,157250,5,2,0:0:0:0:
342,68,157420,1,0,0:0:0:0:
342,68,157505,1,0,0:0:0:0:
342,68,157591,1,8,0:0:0:0:
427,216,157761,1,0,0:0:0:0:
330,43,157932,2,0,L|222:57,1,107.999996704102,2|0,0:0|0:0,0:0:0:0:
96,234,158272,2,0,P|109:210|117:185,1,53.9999983520508,8|0,0:0|0:0,0:0:0:0:
41,72,158443,2,0,P|28:95|19:121,1,53.9999983520508
224,172,158613,5,2,0:0:0:0:
140,299,158784,1,0,0:0:0:0:
140,299,158869,1,0,0:0:0:0:
140,299,158954,2,0,P|89:281|35:277,1,107.999996704102,8|0,0:0|0:0,0:0:0:0:
275,373,159295,6,0,P|328:369|379:351,1,107.999996704102,2|0,0:0|0:0,0:0:0:0:
407,328,159551,2,0,L|402:274,1,53.9999983520508,0|8,0:0|0:0,0:0:0:0:
224,172,159807,2,0,L|228:225,1,53.9999983520508
311,105,159977,5,2,0:0:0:0:
141,210,160147,1,0,0:0:0:0:
130,159,160233,1,0,0:0:0:0:
153,112,160318,1,8,0:0:0:0:
397,220,160488,1,0,0:0:0:0:
198,361,160659,2,0,P|146:346|92:351,1,107.999996704102,2|0,0:0|0:0,0:0:0:0:
8,226,161000,2,0,L|59:243,1,53.9999983520508,8|0,0:0|0:0,0:0:0:0:
150,175,161170,2,0,L|201:192,1,53.9999983520508
292,124,161341,5,2,0:0:0:0:
147,279,161511,1,0,0:0:0:0:
85,75,161682,1,8,0:0:0:0:
201,192,161852,1,0,0:0:0:0:
20,116,162022,2,0,P|34:17|133:14,1,215.999993408203,2|8,0:0|0:0,0:0:0:0:
297,16,162534,1,0,0:0:0:0:
297,16,162619,1,0,0:0:0:0:
297,16,162704,6,0,L|291:123,1,107.999996704102,2|0,0:0|0:0,0:0:0:0:
252,221,163045,1,8,0:0:0:0:
402,140,163216,1,0,0:0:0:0:
168,189,163386,2,0,P|162:242|188:289,1,107.999996704102,2|0,0:0|0:0,0:0:0:0:
188,289,163642,1,0,0:0:0:0:
188,289,163727,1,8,0:0:0:0:
338,208,163897,1,0,0:0:0:0:
129,46,164068,5,2,0:0:0:0:
168,189,164238,2,0,L|220:175,1,53.9999983520508,0|0,3:0|0:0,0:0:0:0:
383,46,164409,5,8,0:0:0:0:
344,189,164579,2,0,L|291:175,1,53.9999983520508,0|0,3:0|0:0,0:0:0:0:
123,57,164750,5,2,0:0:0:0:
162,200,164920,2,0,L|214:186,1,53.9999983520508,0|0,3:0|0:0,0:0:0:0:
389,57,165091,5,8,0:0:0:0:
350,200,165261,2,0,L|298:186,1,53.9999983520508,0|0,3:0|0:0,0:0:0:0:
256,57,165432,5,2,0:0:0:0:
256,273,165602,1,0,0:0:0:0:
256,300,165687,1,0,0:0:0:0:
256,327,165772,1,8,0:0:0:0:
162,200,165943,1,0,0:0:0:0:
350,200,166113,1,2,0:0:0:0:
135,83,166284,6,0,L|129:57,2,26.9999991760254,2|0|0,0:0|0:0|0:0,0:0:0:0:
141,109,166454,1,8,0:0:0:0:
376,83,166625,2,0,L|383:57,2,26.9999991760254,2|0|0,0:0|0:0|0:0,0:0:0:0:
371,109,166795,6,0,L|400:334,1,215.999993408203,6|8,0:0|0:0,0:0:0:0:
471,160,167307,1,0,0:0:0:0:
471,160,167392,1,0,0:0:0:0:
471,160,167477,1,2,0:0:0:0:
398,323,167647,1,0,0:0:0:0:
314,180,167818,1,8,0:0:0:0:
418,324,167988,1,0,0:0:0:0:
252,325,168159,6,0,L|144:333,1,107.999996704102,2|0,0:0|0:0,0:0:0:0:
0,176,168500,2,0,L|107:167,1,107.999996704102,8|0,0:0|0:0,0:0:0:0:
288,138,168841,1,2,0:0:0:0:
196,227,169011,1,0,0:0:0:0:
411,173,169182,1,8,0:0:0:0:
256,13,169352,1,0,0:0:0:0:
320,263,169522,5,2,0:0:0:0:
164,102,169693,1,0,0:0:0:0:
164,102,169778,1,0,0:0:0:0:
164,102,169863,1,8,0:0:0:0:
288,138,170034,1,0,0:0:0:0:
196,227,170204,5,2,0:0:0:0:
380,49,170375,1,0,0:0:0:0:
380,49,170460,1,0,0:0:0:0:
380,49,170545,1,8,0:0:0:0:
411,173,170716,1,0,0:0:0:0:
256,13,170886,5,2,0:0:0:0:
320,263,171057,1,0,0:0:0:0:
288,138,171227,1,8,0:0:0:0:
288,138,171568,1,2,0:0:0:0:
119,246,171738,1,2,0:0:0:0:
91,200,171824,1,2,0:0:0:0:
99,147,171909,1,8,0:0:0:0:
38,333,172079,1,0,0:0:0:0:
238,254,172250,6,0,P|292:258|342:277,1,107.999996704102,6|0,0:0|0:0,0:0:0:0:
512,150,172591,2,0,P|461:169|408:173,1,107.999996704102,8|0,0:0|0:0,0:0:0:0:
437,356,172932,1,2,0:0:0:0:
289,144,173102,1,0,0:0:0:0:
289,144,173187,1,0,0:0:0:0:
289,144,173272,1,8,0:0:0:0:
238,254,173443,1,0,0:0:0:0:
408,173,173613,6,0,B|452:101|409:41|409:41|368:26|337:45,1,215.999993408203,2|8,0:0|0:0,0:0:0:0:
148,206,174125,1,0,0:0:0:0:
289,144,174295,1,2,0:0:0:0:
86,65,174466,1,0,0:0:0:0:
86,65,174551,1,0,0:0:0:0:
86,65,174636,1,8,0:0:0:0:
7,268,174807,1,0,0:0:0:0:
210,347,174977,1,2,0:0:0:0:
148,206,175147,5,8,0:0:0:0:
192,176,175233,1,8,0:0:0:0:
245,176,175318,1,8,0:0:0:0:
289,205,175403,1,8,0:0:0:0:
333,234,175488,1,8,0:0:0:0:
386,234,175574,1,8,0:0:0:0:
430,203,175659,1,8,0:0:0:0:
452,155,175744,1,8,0:0:0:0:
445,103,175829,1,8,0:0:0:0:
410,62,175914,1,8,0:0:0:0:
359,47,176000,1,8,0:0:0:0:
308,63,176085,1,8,0:0:0:0:
274,104,176170,1,8,0:0:0:0:
268,157,176255,1,0,0:0:0:0:
289,205,176341,6,0,P|297:231|300:258,1,53.9999983520508,8|0,0:0|0:0,0:0:0:0:
162,353,176511,2,0,P|154:327|151:300,1,53.9999983520508,8|0,0:0|0:0,0:0:0:0:
168,161,176682,1,8,0:0:0:0:
121,138,176767,1,0,0:0:0:0:
68,145,176852,1,0,0:0:0:0:
29,181,176937,1,0,0:0:0:0:
17,233,177022,5,0,0:0:0:0:
19,240,177108,1,0,0:0:0:0:
20,246,177193,1,2,3:2:0:0:
21,253,177278,1,0,0:0:0:0:
23,259,177363,1,0,0:0:0:0:
24,266,177449,1,0,0:0:0:0:
25,273,177534,1,2,3:2:0:0:
27,279,177619,1,0,0:0:0:0:
28,286,177704,6,0,L|134:269,1,107.999996704102,6|0,0:0|0:0,0:0:0:0:
252,108,178045,2,0,L|145:91,1,107.999996704102,8|0,0:0|0:0,0:0:0:0:
262,285,178386,2,0,L|369:269,1,107.999996704102,2|0,0:0|0:0,0:0:0:0:
486,107,178727,2,0,L|379:90,1,107.999996704102,8|0,0:0|0:0,0:0:0:0:
116,17,179068,6,0,P|74:49|64:101,1,107.999996704102,2|0,0:0|0:0,0:0:0:0:
134,269,179409,1,8,0:0:0:0:
252,108,179579,1,0,0:0:0:0:
262,285,179750,1,2,0:0:0:0:
145,91,179920,1,0,0:0:0:0:
28,286,180091,1,8,0:0:0:0:
252,108,180261,1,0,0:0:0:0:
411,340,180432,6,0,P|448:247|369:185,1,215.999993408203,2|8,0:0|0:0,0:0:0:0:
145,91,180943,1,0,0:0:0:0:
156,262,181113,2,0,B|228:276|228:276|297:257|297:257|368:269,1,215.999993408203,2|8,0:0|0:0,0:0:0:0:
462,37,181625,1,0,0:0:0:0:
452,46,181710,1,0,0:0:0:0:
443,56,181795,6,0,L|452:163,1,107.999996704102,2|0,0:0|0:0,0:0:0:0:
326,349,182136,2,0,L|316:241,1,107.999996704102,8|0,0:0|0:0,0:0:0:0:
169,56,182477,2,0,L|178:163,1,107.999996704102,2|0,0:0|0:0,0:0:0:0:
52,349,182818,2,0,L|42:241,1,107.999996704102,8|0,0:0|0:0,0:0:0:0:
277,146,183159,5,12,0:0:0:0:
177,319,183329,1,8,0:0:0:0:
133,107,183500,1,8,0:0:0:0:
316,241,183670,1,8,0:0:0:0:
238,1,183841,5,8,0:0:0:0:
70,189,184011,1,8,0:0:0:0:
316,241,184182,1,8,0:0:0:0:
190,152,184352,1,0,0:0:0:0:
190,152,184437,1,2,0:0:0:0:
190,152,184522,5,12,0:0:0:0:
316,241,184693,1,8,0:0:0:0:
172,330,184863,1,8,0:0:0:0:
434,282,185034,1,8,0:0:0:0:
262,80,185204,5,8,0:0:0:0:
216,105,185289,1,8,0:0:0:0:
190,152,185375,1,8,0:0:0:0:
195,205,185460,1,8,0:0:0:0:
228,246,185545,1,8,0:0:0:0:
279,263,185630,1,8,0:0:0:0:
330,249,185716,1,8,0:0:0:0:
365,209,185801,1,8,0:0:0:0:
373,156,185886,6,0,L|319:162,1,53.9999983520508,12|0,0:0|0:0,0:0:0:0:
174,254,186057,1,2,0:0:0:0:
174,254,186142,1,2,0:0:0:0:
174,254,186227,2,0,L|195:204,1,53.9999983520508,8|0,0:0|0:0,0:0:0:0:
188,32,186397,2,0,L|220:75,1,53.9999983520508,8|0,0:0|0:0,0:0:0:0:
384,242,186568,6,0,L|330:248,1,53.9999983520508,12|0,0:0|0:0,0:0:0:0:
267,359,186738,1,8,0:0:0:0:
240,356,186824,2,0,L|186:349,1,53.9999983520508,8|0,0:0|0:0,0:0:0:0:
123,239,186994,1,8,0:0:0:0:
96,242,187079,2,0,L|42:248,1,53.9999983520508,8|0,0:0|0:0,0:0:0:0:
245,25,187250,5,12,0:0:0:0:
267,359,187420,1,8,0:0:0:0:
154,138,187591,1,8,0:0:0:0:
160,112,187676,1,8,0:0:0:0:
358,245,187846,1,8,0:0:0:0:
352,271,187932,6,0,L|339:337,1,67.5000025749208,8|0,0:0|0:0,0:0:0:0:
91,361,188102,2,0,L|103:294,1,67.5000025749208,8|8,0:0|0:0,0:0:0:0:
19,64,188272,2,0,B|94:55|94:55|126:76|126:76|215:65,1,202.500007724762,8|0,0:1|0:0,0:0:0:0:
339,26,188613,6,0,L|345:70,1,45,6|0,0:0|0:0,0:0:0:0:
286,180,188784,2,0,L|279:135,1,45
439,126,188954,1,8,0:0:0:0:
461,150,189039,1,0,0:0:0:0:
469,182,189125,1,0,0:0:0:0:
459,214,189210,1,0,0:0:0:0:
435,237,189295,6,0,L|391:226,1,45,2|0,0:0|0:0,0:0:0:0:
309,275,189466,2,0,L|319:318,1,45
192,318,189636,2,0,L|203:275,1,45,8|0,0:0|0:0,0:0:0:0:
120,226,189807,2,0,L|77:237,1,45
26,157,189977,6,0,L|113:135,1,90,2|0,0:0|0:0,0:0:0:0:
135,130,190233,1,0,0:0:0:0:
156,124,190318,2,0,P|164:102|165:80,1,45,8|0,0:0|0:0,0:0:0:0:
79,5,190488,2,0,P|71:26|70:48,1,45
192,206,190659,5,2,0:0:0:0:
221,220,190744,1,0,0:0:0:0:
255,219,190829,1,0,0:0:0:0:
284,203,190914,1,0,0:0:0:0:
301,174,191000,2,0,L|294:129,3,45,8|0|0|0,0:0|0:0|0:0|0:0,0:0:0:0:
375,249,191341,5,2,0:0:0:0:
375,249,191426,1,0,0:0:0:0:
375,249,191511,2,0,P|395:257|417:261,1,45
497,153,191682,1,8,0:0:0:0:
497,153,191767,1,0,0:0:0:0:
496,152,191852,2,0,P|475:143|453:139,1,45
352,25,192022,6,0,L|342:68,1,45,2|0,0:0|0:0,0:0:0:0:
211,132,192193,2,0,L|220:88,1,45
350,164,192363,2,0,L|340:207,1,45,8|0,0:0|0:0,0:0:0:0:
209,271,192534,2,0,L|218:227,1,45
129,82,192704,6,0,P|115:124|124:167,1,90,2|0,0:0|0:0,0:0:0:0:
133,188,192960,1,0,0:0:0:0:
146,206,193045,2,0,L|101:206,1,45,8|0,0:0|0:0,0:0:0:0:
10,285,193216,2,0,L|55:285,1,45
159,352,193386,5,2,0:0:0:0:
183,329,193471,1,0,0:0:0:0:
214,316,193557,1,0,0:0:0:0:
248,315,193642,1,0,0:0:0:0:
280,325,193727,1,8,0:0:0:0:
423,340,193897,1,0,0:0:0:0:
423,340,193983,1,0,0:0:0:0:
423,340,194068,6,0,L|429:295,1,45,2|0,0:0|0:0,0:0:0:0:
488,214,194238,2,0,L|461:177,1,45
444,78,194409,1,8,0:0:0:0:
444,78,194494,1,0,0:0:0:0:
444,78,194579,2,0,L|399:71,1,45
312,151,194750,5,2,0:0:0:0:
293,163,194835,1,0,0:0:0:0:
272,171,194920,1,0,0:0:0:0:
250,172,195005,1,0,0:0:0:0:
228,168,195091,1,8,0:0:0:0:
208,157,195176,1,0,0:0:0:0:
192,142,195261,1,0,0:0:0:0:
180,123,195346,1,0,0:0:0:0:
173,101,195432,6,0,P|195:106|208:124,1,45,2|0,0:0|0:0,0:0:0:0:
264,212,195602,2,0,P|269:233|260:253,1,45
212,345,195772,1,8,0:0:0:0:
212,345,195858,1,0,0:0:0:0:
212,345,195943,2,0,P|196:360|174:362,1,45
57,357,196113,5,2,0:0:0:0:
45,337,196199,1,0,0:0:0:0:
42,315,196284,1,0,0:0:0:0:
47,294,196369,1,0,0:0:0:0:
60,275,196454,1,8,0:0:0:0:
73,256,196539,1,0,0:0:0:0:
78,235,196625,1,0,0:0:0:0:
74,213,196710,1,0,0:0:0:0:
63,193,196795,6,0,L|19:183,3,45,2|0|0|0,0:0|0:0|0:0|0:0,0:0:0:0:
151,109,197136,2,0,L|107:118,3,45,8|0|0|0,0:0|0:0|0:0|0:0,0:0:0:0:
191,231,197477,6,0,L|196:186,1,45,2|0,0:0|0:0,0:0:0:0:
270,96,197647,2,0,L|275:140,1,45
349,231,197818,2,0,L|354:187,1,45,8|0,0:0|0:0,0:0:0:0:
428,96,197988,2,0,L|433:140,1,45
499,272,198159,6,0,L|454:265,1,45,2|0,0:0|0:0,0:0:0:0:
297,320,198329,1,2,0:0:0:0:
297,320,198414,1,2,0:0:0:0:
297,320,198500,2,0,L|341:326,1,45,8|0,0:0|0:0,0:0:0:0:
240,193,198670,2,0,L|195:186,1,45,2|0,0:0|0:0,0:0:0:0:
34,346,198841,1,2,0:0:0:0:
31,178,199011,6,0,L|25:156,2,22.5,2|0|0,0:0|0:0|0:0,0:0:0:0:
36,199,199182,1,8,0:0:0:0:
200,304,199352,2,0,L|194:325,2,22.5,2|0|0,0:0|0:0|0:0,0:0:0:0:
205,283,199522,6,0,B|251:294|251:294|294:288,1,90,4|2,0:0|3:2,0:0:0:0:
97,319,199863,1,8,0:0:0:0:
169,117,200034,2,0,L|173:161,1,45,2|0,3:2|0:0,0:0:0:0:
87,229,200204,6,0,L|77:139,1,90,0|2,0:0|3:2,0:0:0:0:
75,117,200460,1,0,0:0:0:0:
72,94,200545,1,8,0:0:0:0:
299,152,200716,1,2,3:2:0:0:
173,247,200886,5,0,0:0:0:0:
255,75,201057,1,2,3:2:0:0:
255,75,201142,1,0,0:0:0:0:
255,75,201227,1,8,0:0:0:0:
427,157,201397,1,2,3:2:0:0:
160,251,201568,5,0,0:0:0:0:
250,62,201738,1,2,3:2:0:0:
439,152,201909,1,8,0:0:0:0:
110,111,202079,1,2,3:2:0:0:
300,202,202250,6,0,P|316:243|319:288,1,90,0|2,0:0|3:2,0:0:0:0:
319,288,202505,1,0,0:0:0:0:
319,288,202591,1,8,0:0:0:0:
439,152,202761,1,2,3:2:0:0:
250,62,202932,5,0,0:0:0:0:
390,13,203102,1,2,3:2:0:0:
390,13,203187,1,0,0:0:0:0:
390,13,203272,1,8,0:0:0:0:
300,202,203443,1,2,3:2:0:0:
110,111,203613,6,0,L|20:99,1,90,0|2,0:0|3:2,0:0:0:0:
20,99,203869,1,0,0:0:0:0:
20,99,203954,1,8,0:0:0:0:
146,231,204125,1,2,3:2:0:0:
223,67,204295,5,0,0:0:0:0:
265,336,204466,1,2,3:2:0:0:
10,238,204636,1,8,0:0:0:0:
300,202,204807,1,2,3:2:0:0:
109,111,204977,6,0,P|101:155|101:199,1,90,0|2,0:0|3:2,0:0:0:0:
291,290,205318,2,0,P|299:245|299:201,1,90,8|2,0:0|3:2,0:0:0:0:
41,279,205659,2,0,L|130:289,1,90,0|2,0:0|3:2,0:0:0:0:
359,122,206000,2,0,L|269:111,1,90,8|2,0:0|3:2,0:0:0:0:
319,328,206341,5,4,0:0:0:0:
354,354,206426,1,0,0:0:0:0:
398,355,206511,1,0,0:0:0:0:
434,330,206596,1,0,0:0:0:0:
448,288,206682,1,8,0:0:0:0:
435,246,206767,1,0,0:0:0:0:
399,220,206852,1,0,0:0:0:0:
355,220,206937,1,0,0:0:0:0:
319,246,207022,6,0,L|309:202,1,45,8|0,0:0|0:0,0:0:0:0:
232,114,207193,2,0,L|222:157,1,45
192,293,207363,2,0,L|182:249,1,45,8|0,0:0|0:0,0:0:0:0:
105,67,207534,2,0,L|95:110,1,45
64,339,207704,5,8,0:0:0:0:
34,300,207789,1,0,0:0:0:0:
23,251,207875,1,0,0:0:0:0:
35,202,207960,1,0,0:0:0:0:
67,163,208045,1,8,0:0:0:0:
112,143,208130,1,0,0:0:0:0:
163,144,208216,1,0,0:0:0:0:
207,167,208301,1,0,0:0:0:0:
237,207,208386,5,8,0:0:0:0:
267,247,208471,1,0,0:0:0:0:
311,270,208557,1,0,0:0:0:0:
361,271,208642,1,0,0:0:0:0:
407,250,208727,1,8,0:0:0:0:
439,211,208812,1,0,0:0:0:0:
451,163,208897,1,0,0:0:0:0:
440,113,208983,1,0,0:0:0:0:
408,74,209068,6,0,P|385:97|377:130,1,67.5000025749208,8|0,0:0|0:0,0:0:0:0:
442,361,209238,2,0,P|465:337|473:304,1,67.5000025749208,8|0,0:0|0:0,0:0:0:0:
237,207,209409,1,8,0:0:0:0:
203,210,209494,1,0,0:0:0:0:
169,213,209579,1,0,0:0:0:0:
136,217,209664,1,0,0:0:0:0:
102,220,209750,5,8,0:0:0:0:
114,163,209835,1,8,0:0:0:0:
152,118,209920,1,8,0:0:0:0:
207,98,210005,1,8,0:0:0:0:
265,108,210091,1,8,0:0:0:0:
310,144,210176,1,8,0:0:0:0:
333,198,210261,1,8,0:0:0:0:
326,256,210346,1,8,0:0:0:0:
290,302,210432,6,0,P|280:250|289:197,1,107.999996704102,6|0,0:0|0:0,0:0:0:0:
405,29,210772,1,8,0:0:0:0:
460,172,210943,1,0,0:0:0:0:
207,98,211113,2,0,L|314:96,1,107.999996704102,2|0,0:0|0:0,0:0:0:0:
346,81,211369,1,0,0:0:0:0:
346,81,211454,2,0,L|351:135,1,53.9999983520508,8|0,0:0|0:0,0:0:0:0:
469,279,211625,2,0,L|464:225,1,53.9999983520508
267,213,211795,5,2,0:0:0:0:
213,319,211966,1,0,0:0:0:0:
213,319,212051,1,0,0:0:0:0:
213,319,212136,1,8,0:0:0:0:
380,260,212307,1,0,0:0:0:0:
182,327,212477,2,0,P|163:278|172:225,1,107.999996704102,2|0,0:0|0:0,0:0:0:0:
297,148,212818,2,0,L|244:141,1,53.9999983520508,8|0,0:0|0:0,0:0:0:0:
93,90,212988,2,0,L|146:82,1,53.9999983520508
258,12,213159,5,2,0:0:0:0:
172,225,213329,1,0,0:0:0:0:
172,225,213414,1,0,0:0:0:0:
172,225,213500,2,0,L|64:212,1,107.999996704102,8|0,0:0|0:0,0:0:0:0:
297,148,213841,1,2,0:0:0:0:
301,177,213926,1,0,0:0:0:0:
406,300,214096,1,0,0:0:0:0:
410,271,214182,1,8,0:0:0:0:
268,314,214352,1,0,0:0:0:0:
424,154,214522,6,0,B|442:103|442:103|424:51,1,107.999996704102,2|0,0:0|0:0,0:0:0:0:
413,30,214778,1,0,0:0:0:0:
413,30,214863,2,0,L|362:48,1,53.9999983520508,8|0,0:0|0:0,0:0:0:0:
297,148,215034,2,0,L|246:129,1,53.9999983520508
155,31,215204,2,0,P|102:43|58:73,1,107.999996704102,2|0,0:0|0:0,0:0:0:0:
135,311,215545,2,0,L|143:257,1,53.9999983520508,8|0,0:0|0:0,0:0:0:0:
51,163,215716,2,0,L|42:216,1,53.9999983520508
153,346,215886,6,0,L|170:239,1,107.999996704102,2|0,0:0|0:0,0:0:0:0:
174,212,216142,1,0,0:0:0:0:
178,185,216227,2,0,L|169:131,1,53.9999983520508,8|0,0:0|0:0,0:0:0:0:
282,35,216397,2,0,L|291:89,1,53.9999983520508
371,218,216568,2,0,B|421:238|421:238|472:220,2,107.999996704102,2|0|8,0:0|0:0|0:0,0:0:0:0:
169,131,217079,1,0,0:0:0:0:
169,131,217164,1,0,0:0:0:0:
168,131,217250,6,0,P|117:189|137:264,1,161.999995056153,2|0,0:0|0:0,0:0:0:0:
210,315,217591,2,0,L|263:305,1,53.9999983520508,8|0,0:0|0:0,0:0:0:0:
300,162,217761,2,0,L|281:212,1,53.9999983520508
387,316,217932,1,2,0:0:0:0:
197,209,218102,1,0,0:0:0:0:
197,209,218187,1,0,0:0:0:0:
197,209,218272,1,8,0:0:0:0:
463,138,218443,1,0,0:0:0:0:
263,305,218613,5,2,0:0:0:0:
299,162,218784,2,0,P|326:164|351:174,1,53.9999983520508,0|0,3:0|0:0,0:0:0:0:
284,313,218954,5,8,0:0:0:0:
223,143,219125,2,0,P|247:131|274:127,1,53.9999983520508,0|0,3:0|0:0,0:0:0:0:
305,321,219295,5,2,0:0:0:0:
146,165,219466,2,0,P|161:142|182:126,1,53.9999983520508,0|0,3:0|0:0,0:0:0:0:
326,329,219636,5,8,0:0:0:0:
91,222,219807,2,0,P|93:195|103:170,1,53.9999983520508,0|0,3:0|0:0,0:0:0:0:
304,45,219977,5,2,0:0:0:0:
107,86,220147,1,2,0:0:0:0:
80,78,220233,1,2,0:0:0:0:
56,67,220318,1,8,0:0:0:0:
91,222,220488,1,0,0:0:0:0:
186,40,220659,1,2,0:0:0:0:
350,173,220829,6,0,L|377:168,2,26.9999991760254,2|0|0,0:0|0:0|0:0,0:0:0:0:
323,177,221000,1,8,0:0:0:0:
135,315,221170,2,0,L|108:310,2,26.9999991760254,2|0|0,0:0|0:0|0:0,0:0:0:0:
162,319,221341,6,0,B|197:249|197:249|162:116,1,215.999993408203,6|8,0:0|0:0,0:0:0:0:
274,279,221852,1,0,0:0:0:0:
274,279,221937,1,0,0:0:0:0:
274,279,222022,1,2,0:0:0:0:
91,222,222193,1,0,0:0:0:0:
302,153,222363,1,8,0:0:0:0:
63,96,222534,1,0,0:0:0:0:
329,26,222704,6,0,P|253:17|213:82,1,161.999995056153,2|0,0:0|0:0,0:0:0:0:
213,177,223045,2,0,L|106:169,1,107.999996704102,8|0,0:0|0:0,0:0:0:0:
78,166,223301,1,0,0:0:0:0:
51,164,223386,1,2,0:0:0:0:
260,309,223557,2,0,L|273:256,1,53.9999983520508
302,153,223727,1,8,0:0:0:0:
161,283,223897,1,0,0:0:0:0:
344,341,224068,6,0,P|398:334|447:311,1,107.999996704102,2|0,0:0|0:0,0:0:0:0:
447,311,224324,1,0,0:0:0:0:
447,311,224409,1,8,0:0:0:0:
256,136,224579,1,0,0:0:0:0:
167,341,224750,6,0,P|113:334|64:311,1,107.999996704102,2|0,0:0|0:0,0:0:0:0:
64,311,225005,1,0,0:0:0:0:
64,311,225091,1,8,0:0:0:0:
256,136,225261,1,0,0:0:0:0:
185,237,225432,5,2,0:0:0:0:
378,146,225602,1,0,0:0:0:0:
204,24,225772,1,8,0:0:0:0:
204,24,226113,1,2,0:0:0:0:
327,214,226284,1,2,0:0:0:0:
377,230,226369,1,2,0:0:0:0:
428,215,226454,1,8,0:0:0:0:
261,323,226625,1,2,0:0:0:0:
378,146,226795,6,0,L|370:38,1,107.999996704102,6|0,0:0|0:0,0:0:0:0:
253,215,227136,2,0,L|261:323,1,107.999996704102,8|0,0:0|0:0,0:0:0:0:
486,266,227477,2,0,L|478:158,1,107.999996704102,2|0,0:0|0:0,0:0:0:0:
258,18,227818,1,8,0:0:0:0:
218,12,227903,1,0,0:0:0:0:
180,25,227988,1,0,0:0:0:0:
154,55,228074,1,0,0:0:0:0:
145,95,228159,6,0,L|153:203,1,107.999996704102,2|0,0:0|0:0,0:0:0:0:
286,249,228500,1,8,0:0:0:0:
48,308,228670,1,0,0:0:0:0:
48,308,228755,1,0,0:0:0:0:
48,308,228841,2,0,L|56:200,1,107.999996704102,2|0,0:0|0:0,0:0:0:0:
277,81,229182,1,8,0:0:0:0:
152,202,229352,1,0,0:0:0:0:
63,33,229522,1,2,0:0:0:0:
348,21,229693,5,8,0:0:0:0:
372,68,229778,1,8,0:0:0:0:
366,120,229863,1,8,0:0:0:0:
330,160,229949,1,8,0:0:0:0:
279,173,230034,1,8,0:0:0:0:
228,158,230119,1,8,0:0:0:0:
176,172,230204,1,8,0:0:0:0:
139,210,230289,1,8,0:0:0:0:
126,262,230375,1,8,0:0:0:0:
142,313,230460,1,8,0:0:0:0:
181,348,230545,1,8,0:0:0:0:
234,359,230630,1,8,0:0:0:0:
284,341,230716,1,8,0:0:0:0:
318,299,230801,1,8,0:0:0:0:
326,247,230886,6,0,L|320:193,1,53.9999983520508,8|0,0:0|0:0,0:0:0:0:
63,33,231057,2,0,L|68:86,1,53.9999983520508,8|0,0:0|0:0,0:0:0:0:
294,54,231227,1,8,0:0:0:0:
294,54,231312,1,8,0:0:0:0:
294,54,231397,2,0,L|240:59,1,53.9999983520508,8|0,0:0|0:0,0:0:0:0:
95,226,231568,5,8,0:0:0:0:
121,223,231653,1,8,0:0:0:0:
148,220,231738,1,8,0:0:0:0:
175,217,231824,1,8,0:0:0:0:
202,214,231909,2,0,L|196:160,1,53.9999983520508,8|0,0:0|0:0,0:0:0:0:
318,299,232079,2,0,L|312:352,1,53.9999983520508,8|0,0:0|0:0,0:0:0:0:
434,214,232250,5,6,0:0:0:0:
465,330,243159,6,0,P|436:311|401:302,1,72,12|0,0:0|0:0,0:0:0:0:
300,230,243500,2,0,P|335:220|371:223,1,72,8|0,0:0|0:0,0:0:0:0:
211,230,243841,2,0,P|176:220|141:223,1,72,8|0,0:0|0:0,0:0:0:0:
46,330,244182,2,0,P|75:311|110:302,1,72,8|0,0:0|0:0,0:0:0:0:
256,292,244522,6,0,P|288:231|257:169,2,144,8|8|8,0:0|0:0|0:0,0:0:0:0:
141,50,245545,1,8,0:0:0:0:
371,50,245716,1,8,0:0:0:0:
257,169,245886,6,0,P|248:134|250:98,1,72,8|0,0:0|0:0,0:0:0:0:
371,50,246227,2,0,P|379:84|377:120,1,72,8|0,0:0|0:0,0:0:0:0:
421,244,246568,2,0,L|351:231,1,72,8|0,0:0|0:0,0:0:0:0:
292,309,246909,2,0,L|221:295,1,72,8|0,0:0|0:0,0:0:0:0:
97,224,247250,6,0,B|71:278|71:278|95:358,2,144,8|8|8,0:0|0:0|0:0,0:0:0:0:
255,111,248272,1,8,0:0:0:0:
77,31,248443,1,8,0:0:0:0:
97,224,248613,5,12,0:0:0:0:
97,224,248784,1,8,0:0:0:0:
310,270,248954,5,8,0:0:0:0:
310,270,249125,1,8,0:0:0:0:
164,107,249295,5,8,0:0:0:0:
164,107,249466,1,8,0:0:0:0:
188,324,249636,5,8,0:0:0:0:
188,324,249807,1,8,0:0:0:0:
297,135,249977,5,12,0:0:0:0:
97,224,250147,1,8,0:0:0:0:
310,270,250318,1,8,0:0:0:0:
164,107,250488,1,8,0:0:0:0:
182,352,250659,5,12,0:0:0:0:
318,115,250829,1,8,0:0:0:0:
68,227,251000,1,8,0:0:0:0:
334,284,251170,1,8,0:0:0:0:
152,80,251341,5,8,0:0:0:0:
392,61,251511,1,8,0:0:0:0:
392,61,251596,2,0,P|411:110|398:161,1,107.999996704102,8|0,0:0|0:0,0:0:0:0:
317,208,251852,1,8,0:0:0:0:
152,80,252022,5,8,0:0:0:0:
400,245,252193,1,8,0:0:0:0:
400,245,252278,2,0,P|367:286|316:301,1,107.999996704102,8|0,0:0|0:0,0:0:0:0:
235,253,252534,1,8,0:0:0:0:
256,60,252704,5,12,0:0:0:0:
344,171,252875,2,0,L|397:161,1,53.9999983520508,0|0,1:0|0:0,0:0:0:0:
256,50,253045,5,8,0:0:0:0:
168,226,253216,2,0,L|114:216,1,53.9999983520508,0|0,1:0|0:0,0:0:0:0:
256,40,253386,5,8,0:0:0:0:
344,281,253557,2,0,L|397:271,1,53.9999983520508,0|0,1:0|0:0,0:0:0:0:
256,30,253727,5,8,0:0:0:0:
168,336,253897,2,0,L|114:326,1,53.9999983520508,0|0,1:0|0:0,0:0:0:0:
256,20,254068,5,4,0:0:0:0:
183,279,255432,6,0,L|201:344,1,67.5000025749208,8|0,0:0|0:0,0:0:0:0:
256,192,255687,6,0,L|274:257,1,67.5000025749208,8|0,0:0|0:0,0:0:0:0:
329,105,255943,6,0,L|347:170,1,67.5000025749208,8|0,0:0|0:0,0:0:0:0:
459,332,256113,6,0,B|355:320|355:320|298:355|298:355|200:343,1,270,8|0,0:1|0:0,0:0:0:0:
99,361,256454,1,8,0:0:0:0:
274,257,256625,1,8,0:0:0:0:
81,109,256795,5,6,0:0:0:0:
52,108,256880,1,0,0:0:0:0:
147,223,257051,5,0,0:0:0:0:
126,244,257136,1,8,0:0:0:0:
274,257,257307,5,0,0:0:0:0:
274,285,257392,1,0,0:0:0:0:
274,315,257477,1,2,0:0:0:0:
388,219,257647,5,0,0:0:0:0:
409,240,257733,1,0,0:0:0:0:
422,92,257903,5,0,0:0:0:0:
451,91,257988,1,0,0:0:0:0:
409,240,258159,5,2,0:0:0:0:
430,261,258244,1,0,0:0:0:0:
274,315,258414,5,0,0:0:0:0:
274,344,258500,1,8,0:0:0:0:
126,244,258670,5,0,0:0:0:0:
105,265,258755,1,0,0:0:0:0:
84,286,258841,2,0,L|45:324,1,53.9999983520508,2|0,0:0|0:0,0:0:0:0:
81,109,259011,2,0,L|133:123,1,53.9999983520508
256,192,259182,1,8,0:0:0:0:
214,23,259352,1,0,0:0:0:0:
205,263,259522,6,0,P|255:280|305:264,1,107.999996704102,2|0,0:0|0:0,0:0:0:0:
361,198,259778,2,0,L|357:251,1,53.9999983520508,0|8,0:0|0:0,0:0:0:0:
214,23,260034,2,0,L|217:76,1,53.9999983520508
256,192,260204,1,2,0:0:0:0:
81,109,260375,1,0,0:0:0:0:
349,36,260545,1,8,0:0:0:0:
157,171,260716,1,0,0:0:0:0:
157,171,260801,1,0,0:0:0:0:
157,171,260886,6,0,B|110:218|110:218|136:309,1,161.999995056153,2|0,0:0|0:0,0:0:0:0:
39,356,261227,2,0,L|146:345,1,107.999996704102,8|0,0:0|0:0,0:0:0:0:
256,192,261568,1,2,0:0:0:0:
338,321,261738,1,0,0:0:0:0:
338,321,261824,1,0,0:0:0:0:
338,321,261909,1,8,0:0:0:0:
422,124,262079,1,0,0:0:0:0:
324,344,262250,5,2,0:0:0:0:
309,182,262420,2,0,L|304:128,1,53.9999983520508,0|0,3:0|0:0,0:0:0:0:
214,325,262591,5,8,0:0:0:0:
281,177,262761,2,0,L|303:127,1,53.9999983520508,0|0,3:0|0:0,0:0:0:0:
127,252,262932,5,2,0:0:0:0:
259,158,263102,2,0,L|303:126,1,53.9999983520508,0|0,3:0|0:0,0:0:0:0:
88,146,263272,5,8,0:0:0:0:
249,130,263443,2,0,L|302:125,1,53.9999983520508,0|0,3:0|0:0,0:0:0:0:
106,34,263613,5,2,0:0:0:0:
127,252,263784,1,2,0:0:0:0:
127,252,263869,1,2,0:0:0:0:
127,252,263954,1,8,0:0:0:0:
249,130,264125,1,0,0:0:0:0:
27,206,264295,1,2,0:0:0:0:
205,360,264466,6,0,L|172:365,2,26.9999991760254,2|0|0,0:0|0:0|0:0,0:0:0:0:
231,355,264636,1,8,0:0:0:0:
458,201,264807,2,0,L|491:206,2,26.9999991760254,2|0|0,0:0|0:0|0:0,0:0:0:0:
432,196,264977,5,6,0:0:0:0:
348,321,265147,1,0,0:0:0:0:
281,185,265318,1,8,0:0:0:0:
365,60,265488,1,0,0:0:0:0:
378,60,265574,1,0,0:0:0:0:
391,61,265659,5,2,0:0:0:0:
281,185,265829,1,0,0:0:0:0:
432,196,266000,1,8,0:0:0:0:
241,51,266170,1,0,0:0:0:0:
211,289,266341,6,0,L|318:277,1,107.999996704102,2|0,0:0|0:0,0:0:0:0:
120,148,266682,2,0,L|12:159,1,107.999996704102,8|0,0:0|0:0,0:0:0:0:
223,303,267022,2,0,L|330:291,1,107.999996704102,2|0,0:0|0:0,0:0:0:0:
108,134,267363,2,0,L|0:145,1,107.999996704102,8|0,0:0|0:0,0:0:0:0:
357,52,267704,5,2,0:0:0:0:
208,124,267875,1,0,0:0:0:0:
208,124,267960,1,0,0:0:0:0:
208,124,268045,1,8,0:0:0:0:
386,210,268216,1,0,0:0:0:0:
208,124,268386,5,2,0:0:0:0:
386,210,268557,1,0,0:0:0:0:
386,210,268642,1,0,0:0:0:0:
386,210,268727,1,8,0:0:0:0:
179,282,268897,1,0,0:0:0:0:
415,368,269068,5,2,0:0:0:0:
179,282,269238,1,0,0:0:0:0:
371,120,269409,1,8,0:0:0:0:
371,120,269750,1,2,0:0:0:0:
272,240,269920,1,2,0:0:0:0:
264,293,270005,1,2,0:0:0:0:
282,343,270091,1,8,0:0:0:0:
374,278,270261,1,0,0:0:0:0:
170,202,270432,6,0,B|118:184|118:184|67:201,1,107.999996704102,6|0,0:0|0:0,0:0:0:0:
113,317,270772,1,8,0:0:0:0:
32,92,270943,1,0,0:0:0:0:
227,292,271113,1,2,0:0:0:0:
227,52,271284,1,0,0:0:0:0:
341,306,271454,1,8,0:0:0:0:
423,81,271625,1,0,0:0:0:0:
443,358,271795,6,0,P|467:311|476:257,1,107.999996704102,2|0,0:0|0:0,0:0:0:0:
186,39,272136,1,8,0:0:0:0:
423,81,272307,1,0,0:0:0:0:
146,189,272477,1,2,0:0:0:0:
386,189,272647,1,0,0:0:0:0:
131,343,272818,1,8,0:0:0:0:
368,301,272988,1,0,0:0:0:0:
186,39,273159,1,2,0:0:0:0:
386,189,273329,5,8,0:0:0:0:
436,153,273414,1,8,0:0:0:0:
444,93,273500,1,8,0:0:0:0:
405,45,273585,1,8,0:0:0:0:
344,42,273670,1,8,0:0:0:0:
300,84,273755,1,8,0:0:0:0:
301,145,273841,5,8,0:0:0:0:
260,101,273926,1,8,0:0:0:0:
202,82,274011,1,8,0:0:0:0:
143,93,274096,1,8,0:0:0:0:
96,131,274182,1,8,0:0:0:0:
74,187,274267,1,8,0:0:0:0:
81,247,274352,1,8,0:0:0:0:
117,296,274437,1,8,0:0:0:0:
171,322,274522,5,8,0:0:0:0:
216,281,274608,1,8,0:0:0:0:
274,263,274693,1,8,0:0:0:0:
334,270,274778,1,8,0:0:0:0:
385,302,274863,1,8,0:0:0:0:
445,305,274949,1,8,0:0:0:0:
490,266,275034,1,8,0:0:0:0:
496,207,275119,1,8,0:0:0:0:
459,160,275204,5,0,0:0:0:0:
446,162,275289,1,0,0:0:0:0:
432,164,275375,1,2,3:2:0:0:
419,167,275460,1,0,0:0:0:0:
406,169,275545,1,0,0:0:0:0:
392,171,275630,1,0,0:0:0:0:
379,173,275716,1,2,3:2:0:0:
366,176,275801,1,0,0:0:0:0:
352,178,275886,5,6,0:0:0:0:
171,322,276057,1,0,0:0:0:0:
160,128,276227,5,8,0:0:0:0:
341,272,276397,1,0,0:0:0:0:
352,78,276568,5,2,0:0:0:0:
171,222,276738,1,0,0:0:0:0:
160,28,276909,5,8,0:0:0:0:
341,172,277079,1,0,0:0:0:0:
64,276,277250,6,0,P|45:225|59:174,1,107.999996704102,2|0,0:0|0:0,0:0:0:0:
352,78,277591,5,8,0:0:0:0:
171,222,277761,1,0,0:0:0:0:
420,162,277932,5,2,0:0:0:0:
151,221,278102,1,0,0:0:0:0:
436,268,278272,5,8,0:0:0:0:
131,220,278443,1,0,0:0:0:0:
396,366,278613,6,0,P|436:267|419:161,1,215.999993408203,2|8,0:0|0:0,0:0:0:0:
489,15,279125,2,0,L|444:44,1,53.9999983520508
351,99,279295,2,0,L|244:82,1,107.999996704102,2|0,0:0|0:0,0:0:0:0:
58,174,279636,2,0,L|165:191,1,107.999996704102,8|0,0:0|0:0,0:0:0:0:
190,194,279892,1,0,0:0:0:0:
217,198,279977,6,0,B|237:249|237:249|219:299,1,107.999996704102,2|0,0:0|0:0,0:0:0:0:
82,294,280318,1,8,0:0:0:0:
244,82,280488,1,0,0:0:0:0:
345,327,280659,2,0,P|394:348|446:334,1,107.999996704102,2|0,0:0|0:0,0:0:0:0:
476,132,281000,1,8,0:0:0:0:
217,198,281170,1,2,0:0:0:0:
217,198,281255,1,2,0:0:0:0:
217,198,281341,6,0,L|109:184,1,107.999996704102,6|0,0:0|0:0,0:0:0:0:
289,36,281682,2,0,P|337:58|357:107,1,107.999996704102,8|0,0:0|0:0,0:0:0:0:
357,107,281937,1,0,0:0:0:0:
357,107,282022,1,2,0:0:0:0:
474,55,282193,1,0,0:0:0:0:
329,229,282363,2,0,L|346:343,1,107.999996704102,8|0,0:0|0:0,0:0:0:0:
108,183,282704,6,0,P|105:93|189:128,1,215.999993408203,6|8,0:0|0:0,0:0:0:0:
211,326,283216,1,0,0:0:0:0:
211,326,283301,1,0,0:0:0:0:
211,326,283386,2,0,P|159:310|105:308,1,107.999996704102,2|0,0:0|0:0,0:0:0:0:
329,229,283727,2,0,P|380:244|434:246,1,107.999996704102,8|0,0:0|0:0,0:0:0:0:
392,74,284068,5,6,0:0:0:0:
246,132,284238,1,0,0:0:0:0:
246,132,284324,1,0,0:0:0:0:
246,132,284409,2,0,P|239:79|246:26,1,107.999996704102,8|0,0:0|0:0,0:0:0:0:
182,278,284750,5,2,0:0:0:0:
328,336,284920,1,0,0:0:0:0:
328,336,285005,1,0,0:0:0:0:
328,335,285091,2,0,P|335:281|328:228,1,107.999996704102,8|0,0:0|0:0,0:0:0:0:
245,25,285432,5,2,0:0:0:0:
348,150,285602,1,2,0:0:0:0:
401,157,285687,1,2,0:0:0:0:
451,142,285772,2,0,P|477:133|500:118,1,53.9999983520508,8|0,0:0|0:0,0:0:0:0:
460,308,285943,2,0,P|437:293|411:284,1,53.9999983520508,8|0,0:0|0:0,0:0:0:0:
182,278,286113,1,2,0:0:0:0:
278,62,286284,6,0,L|281:35,2,26.9999991760254,2|0|0,0:0|0:0|0:0,0:0:0:0:
274,88,286454,1,8,0:0:0:0:
61,144,286625,2,0,L|57:117,2,26.9999991760254,2|0|0,0:0|0:0|0:0,0:0:0:0:
65,170,286795,5,6,0:0:0:0:
182,278,286966,1,0,0:0:0:0:
192,72,287136,5,8,0:0:0:0:
195,288,287307,1,0,0:0:0:0:
351,92,287477,5,2,0:0:0:0:
197,304,287647,1,0,0:0:0:0:
449,218,287818,5,8,0:0:0:0:
187,317,287988,1,0,0:0:0:0:
429,375,288159,6,0,P|437:322|431:269,1,107.999996704102,2|0,0:0|0:0,0:0:0:0:
192,72,288500,5,8,0:0:0:0:
187,317,288670,1,0,0:0:0:0:
402,199,288841,5,2,0:0:0:0:
118,193,289011,1,0,0:0:0:0:
333,75,289182,5,8,0:0:0:0:
328,320,289352,1,0,0:0:0:0:
40,148,289522,6,0,P|132:105|205:176,1,215.999993408203,2|8,0:0|0:0,0:0:0:0:
333,75,290034,2,0,P|313:93|297:115,1,53.9999983520508
310,213,290204,2,0,L|328:319,1,107.999996704102,2|0,0:0|0:0,0:0:0:0:
475,167,290545,2,0,L|456:60,1,107.999996704102,8|0,0:0|0:0,0:0:0:0:
451,34,290801,1,0,0:0:0:0:
447,7,290886,6,0,B|406:14|406:14|384:8|384:8|341:15,1,107.999996704102,2|0,0:0|0:0,0:0:0:0:
153,131,291227,1,8,0:0:0:0:
310,213,291397,1,0,0:0:0:0:
80,366,291568,2,0,P|62:315|76:263,1,107.999996704102,2|0,0:0|0:0,0:0:0:0:
306,110,291909,2,0,P|323:160|309:212,1,107.999996704102,8|0,0:0|0:0,0:0:0:0:
153,131,292250,5,12,0:0:0:0:
320,314,292420,1,8,0:0:0:0:
77,264,292591,1,8,0:0:0:0:
241,78,292761,1,8,0:0:0:0:
184,359,292932,5,8,0:0:0:0:
64,82,293102,1,8,0:0:0:0:
364,116,293272,1,8,0:0:0:0:
77,264,293443,1,2,0:0:0:0:
77,264,293528,1,2,0:0:0:0:
77,264,293613,5,12,0:0:0:0:
320,314,293784,1,8,0:0:0:0:
241,78,293954,1,8,0:0:0:0:
184,359,294125,1,8,0:0:0:0:
457,268,294295,5,8,0:0:0:0:
474,218,294380,1,8,0:0:0:0:
453,169,294466,1,8,0:0:0:0:
405,148,294551,1,8,0:0:0:0:
355,165,294636,1,8,0:0:0:0:
330,211,294721,1,8,0:0:0:0:
289,245,294807,1,8,0:0:0:0:
237,258,294892,1,8,0:0:0:0:
184,246,294977,6,0,L|178:192,1,53.9999983520508,12|0,0:0|0:0,0:0:0:0:
30,342,295147,1,2,0:0:0:0:
30,342,295233,1,2,0:0:0:0:
30,342,295318,2,0,L|36:288,1,53.9999983520508,8|0,0:0|0:0,0:0:0:0:
8,154,295488,2,0,L|14:100,1,53.9999983520508,8|0,0:0|0:0,0:0:0:0:
133,53,295659,6,0,P|159:56|184:67,1,53.9999983520508,12|0,0:0|0:0,0:0:0:0:
347,144,295829,1,8,0:0:0:0:
325,140,295914,2,0,P|299:148|277:163,1,53.9999983520508,8|0,0:0|0:0,0:0:0:0:
184,246,296085,1,8,0:0:0:0:
197,260,296170,2,0,P|207:284|209:311,1,53.9999983520508,8|0,0:0|0:0,0:0:0:0:
36,288,296341,5,12,0:0:0:0:
358,232,296511,1,8,0:0:0:0:
110,151,296682,1,8,0:0:0:0:
83,145,296767,1,8,0:0:0:0:
284,369,296937,1,8,0:0:0:0:
311,375,297022,6,0,L|302:307,1,67.5000025749208,8|0,0:0|0:0,0:0:0:0:
184,67,297193,2,0,L|192:134,1,67.5000025749208,8|0,0:0|0:0,0:0:0:0:
473,259,297363,2,0,B|517:210|510:146|450:121|450:121|428:149,1,202.500007724762,8|0,0:1|0:0,0:0:0:0:
358,232,297704,6,0,L|179:212,1,180,6|8,0:0|0:0,0:0:0:0:
14,112,298216,1,0,0:0:0:0:
38,89,298301,1,0,0:0:0:0:
71,84,298386,1,2,0:0:0:0:
101,98,298471,1,0,0:0:0:0:
118,127,298557,1,0,0:0:0:0:
146,293,298727,2,0,P|156:250|178:211,1,90,8|0,0:0|0:0,0:0:0:0:
340,136,299068,5,2,0:0:0:0:
219,58,299238,1,0,0:0:0:0:
422,30,299409,1,8,0:0:0:0:
316,159,299579,1,0,0:0:0:0:
301,190,299664,1,0,0:0:0:0:
296,223,299750,1,2,0:0:0:0:
302,256,299835,1,0,0:0:0:0:
317,286,299920,1,0,0:0:0:0:
485,216,300091,2,0,L|396:222,1,90,8|0,0:0|0:0,0:0:0:0:
182,332,300432,6,0,P|235:264|317:286,1,180,2|8,0:0|0:0,0:0:0:0:
485,216,300943,1,0,0:0:0:0:
458,195,301028,1,0,0:0:0:0:
441,166,301113,1,2,0:0:0:0:
435,133,301199,1,0,0:0:0:0:
443,100,301284,1,0,0:0:0:0:
307,33,301454,2,0,P|262:36|217:31,1,90,8|0,0:0|0:0,0:0:0:0:
114,220,301795,5,2,0:0:0:0:
114,220,301880,1,0,0:0:0:0:
114,220,301966,1,0,0:0:0:0:
228,245,302136,1,8,0:0:0:0:
139,105,302307,1,0,0:0:0:0:
88,334,302477,5,2,0:0:0:0:
88,334,302562,1,0,0:0:0:0:
88,334,302647,1,0,0:0:0:0:
228,245,302818,1,8,0:0:0:0:
0,194,302988,2,0,L|43:182,1,45
138,105,303159,6,0,P|149:61|143:17,1,90,2|0,0:0|0:0,0:0:0:0:
310,106,303500,1,8,0:0:0:0:
228,245,303670,1,0,0:0:0:0:
211,274,303755,1,0,0:0:0:0:
206,307,303841,1,2,0:0:0:0:
213,340,303926,1,0,0:0:0:0:
231,369,304011,1,0,0:0:0:0:
374,253,304182,1,8,0:0:0:0:
310,106,304352,1,0,0:0:0:0:
138,250,304522,6,0,L|227:244,1,90,2|0,0:0|0:0,0:0:0:0:
28,330,304863,1,8,0:0:0:0:
18,162,305034,1,0,0:0:0:0:
39,136,305119,1,0,0:0:0:0:
71,125,305204,1,2,0:0:0:0:
104,132,305289,1,0,0:0:0:0:
129,154,305375,1,0,0:0:0:0:
257,66,305545,1,8,0:0:0:0:
227,244,305716,1,0,0:0:0:0:
261,35,305886,6,0,L|172:52,1,90,2|0,0:0|0:0,0:0:0:0:
105,234,306227,1,8,0:0:0:0:
259,323,306397,1,0,0:0:0:0:
288,305,306483,1,0,0:0:0:0:
307,277,306568,1,2,0:0:0:0:
312,244,306653,1,0,0:0:0:0:
304,211,306738,1,0,0:0:0:0:
199,122,306909,1,8,0:0:0:0:
409,193,307079,1,0,0:0:0:0:
227,244,307250,5,2,0:0:0:0:
227,244,307335,1,0,0:0:0:0:
227,244,307420,1,0,0:0:0:0:
347,17,307591,1,8,0:0:0:0:
437,117,307761,5,0,0:0:0:0:
400,142,307846,1,0,0:0:0:0:
355,143,307932,1,2,0:0:0:0:
318,120,308017,1,0,0:0:0:0:
280,96,308102,1,0,0:0:0:0:
235,97,308187,1,0,0:0:0:0:
199,122,308272,2,0,L|195:166,1,45,8|0,0:0|0:0,0:0:0:0:
71,33,308443,2,0,L|74:77,1,45,2|0,0:0|0:0,0:0:0:0:
0,243,308613,6,0,L|88:226,1,90,6|0,0:0|0:0,0:0:0:0:
309,322,308954,2,0,L|220:305,1,90,8|0,0:0|0:0,0:0:0:0:
197,300,309210,1,0,0:0:0:0:
196,299,309295,2,0,P|191:278|192:255,1,45,2|0,0:0|0:0,0:0:0:0:
332,203,309466,1,0,0:0:0:0:
199,122,309636,2,0,L|110:138,1,90,8|0,0:0|0:0,0:0:0:0:
389,271,309977,6,0,P|416:234|420:190,1,90,2|0,0:0|0:0,0:0:0:0:
331,21,310318,2,0,P|305:57|301:102,1,90,8|0,0:0|0:0,0:0:0:0:
311,123,310574,1,0,0:0:0:0:
311,123,310659,2,0,L|355:121,1,45,2|0,0:0|0:0,0:0:0:0:
220,208,310829,1,0,0:0:0:0:
389,271,311000,2,0,L|478:268,1,90,8|0,0:0|0:0,0:0:0:0:
470,68,311341,6,0,P|448:106|445:151,1,90,2|0,0:0|0:0,0:0:0:0:
413,354,311682,2,0,P|410:309|388:270,1,90,8|0,0:0|0:0,0:0:0:0:
367,264,311937,1,0,0:0:0:0:
367,264,312022,2,0,L|323:273,1,45,2|0,0:0|0:0,0:0:0:0:
158,350,312193,1,0,0:0:0:0:
222,181,312363,2,0,B|237:224|237:224|222:265,1,90,8|0,0:0|0:0,0:0:0:0:
46,278,312704,5,2,0:0:0:0:
46,278,312789,1,0,0:0:0:0:
46,278,312875,1,0,0:0:0:0:
166,80,313045,1,8,0:0:0:0:
222,181,313216,1,0,0:0:0:0:
50,77,313386,5,2,0:0:0:0:
50,77,313471,1,0,0:0:0:0:
50,77,313557,1,0,0:0:0:0:
46,278,313727,1,8,0:0:0:0:
106,178,313897,1,0,0:0:0:0:
213,350,314068,6,0,B|274:333|274:333|325:353|325:353|383:332,1,180,2|8,0:0|0:0,0:0:0:0:
487,214,314579,2,0,L|442:205,1,45
387,121,314750,2,0,L|342:129,1,45,2|0,0:0|0:0,0:0:0:0:
263,222,314920,1,0,0:0:0:0:
105,177,315091,2,0,P|96:134|100:89,1,90,8|0,0:0|0:0,0:0:0:0:
125,57,315346,1,0,0:0:0:0:
125,57,315432,6,0,L|169:59,3,45,2|0|0|0,0:0|0:0|0:0|0:0,0:0:0:0:
239,133,315772,2,0,L|283:130,3,45,8|0|0|0,0:0|0:0|0:0|0:0,0:0:0:0:
353,57,316113,2,0,L|397:59,3,45,2|0|0|0,0:0|0:0|0:0|0:0,0:0:0:0:
467,133,316454,2,0,L|511:130,3,45,8|0|0|0,0:0|0:0|0:0|0:0,0:0:0:0:
362,206,316795,5,8,0:0:0:0:
343,246,316880,1,0,0:0:0:0:
357,287,316966,1,0,0:0:0:0:
395,309,317051,1,0,0:0:0:0:
438,300,317136,1,8,0:0:0:0:
403,272,317221,1,0,0:0:0:0:
359,262,317307,1,0,0:0:0:0:
316,273,317392,1,0,0:0:0:0:
283,303,317477,1,8,0:0:0:0:
249,332,317562,1,0,0:0:0:0:
206,343,317647,1,0,0:0:0:0:
162,333,317733,1,0,0:0:0:0:
128,305,317818,2,0,P|126:282|126:260,1,45,8|0,0:0|0:0,0:0:0:0:
217,159,317988,2,0,P|218:181|218:203,1,45
114,100,318159,5,8,0:0:0:0:
141,66,318244,1,8,0:0:0:0:
180,43,318329,1,8,0:0:0:0:
225,37,318414,1,8,0:0:0:0:
268,48,318500,1,8,0:0:0:0:
304,75,318585,1,8,0:0:0:0:
328,112,318670,1,8,0:0:0:0:
336,156,318755,1,8,0:0:0:0:
327,200,318841,1,8,0:0:0:0:
475,161,319011,6,0,L|513:157,2,22.5,2|0|0,0:0|0:0|0:0,0:0:0:0:
453,164,319182,1,8,0:0:0:0:
308,327,319352,2,0,L|285:324,2,22.5,2|0|0,0:0|0:0|0:0,0:0:0:0:
328,329,319522,5,6,0:0:0:0:
340,297,319608,1,0,0:0:0:0:
344,264,319693,1,0,0:0:0:0:
339,230,319778,1,0,0:0:0:0:
326,199,319863,2,0,L|281:197,1,45,8|0,0:0|0:0,0:0:0:0:
210,254,320034,2,0,L|165:256,1,45
95,198,320204,5,2,0:0:0:0:
83,166,320289,1,0,0:0:0:0:
79,133,320375,1,0,0:0:0:0:
84,100,320460,1,0,0:0:0:0:
97,69,320545,2,0,L|141:66,1,45,8|0,0:0|0:0,0:0:0:0:
213,123,320716,2,0,L|257:125,1,45
324,64,320886,5,2,0:0:0:0:
354,50,320971,1,0,0:0:0:0:
387,50,321057,1,0,0:0:0:0:
417,65,321142,1,0,0:0:0:0:
438,91,321227,2,0,L|433:136,1,45,8|0,0:0|0:0,0:0:0:0:
366,196,321397,2,0,L|371:240,1,45
408,328,321568,5,2,0:0:0:0:
377,342,321653,1,0,0:0:0:0:
344,341,321738,1,0,0:0:0:0:
314,326,321824,1,0,0:0:0:0:
293,300,321909,2,0,L|298:255,1,45,8|0,0:0|0:0,0:0:0:0:
366,196,322079,2,0,L|360:151,1,45
338,63,322250,5,2,0:0:0:0:
304,68,322335,1,0,0:0:0:0:
271,73,322420,1,0,0:0:0:0:
237,78,322505,1,0,0:0:0:0:
204,83,322591,2,0,L|196:38,1,45,8|0,0:0|0:0,0:0:0:0:
124,148,322761,2,0,L|116:103,1,45
44,213,322932,5,2,0:0:0:0:
77,218,323017,1,0,0:0:0:0:
110,223,323102,1,0,0:0:0:0:
144,228,323187,1,0,0:0:0:0:
178,233,323272,2,0,L|186:188,1,45,8|0,0:0|0:0,0:0:0:0:
258,298,323443,2,0,L|266:253,1,45
337,362,323613,5,2,0:0:0:0:
342,328,323699,1,0,0:0:0:0:
348,295,323784,1,0,0:0:0:0:
354,262,323869,1,0,0:0:0:0:
360,229,323954,2,0,L|405:222,1,45,8|0,0:0|0:0,0:0:0:0:
426,134,324125,2,0,L|381:140,1,45
291,140,324295,5,2,0:0:0:0:
246,135,324380,1,0,0:0:0:0:
201,130,324466,1,0,0:0:0:0:
156,125,324551,1,0,0:0:0:0:
112,120,324636,5,8,0:0:0:0:
76,147,324721,1,0,0:0:0:0:
55,186,324807,1,2,0:0:0:0:
53,231,324892,1,0,0:0:0:0:
68,271,324977,6,0,L|113:268,3,45,2|0|0|0,0:0|0:0|0:0|0:0,0:0:0:0:
185,309,325318,2,0,L|229:305,1,45,8|0,0:0|0:0,0:0:0:0:
301,346,325488,2,0,L|345:342,1,45
368,255,325659,6,0,L|323:258,3,45,2|0|0|0,0:0|0:0|0:0|0:0,0:0:0:0:
251,217,326000,2,0,L|206:220,1,45,8|0,0:0|0:0,0:0:0:0:
135,180,326170,2,0,L|90:183,1,45
112,95,326341,6,0,L|157:92,3,45,2|0|0|0,0:0|0:0|0:0|0:0,0:0:0:0:
228,132,326682,2,0,L|273:129,1,45,8|0,0:0|0:0,0:0:0:0:
345,170,326852,2,0,L|390:167,1,45
412,79,327022,6,0,L|367:82,3,45,2|0|0|0,0:0|0:0|0:0|0:0,0:0:0:0:
295,41,327363,2,0,L|250:44,1,45,8|0,0:0|0:0,0:0:0:0:
179,4,327534,2,0,L|134:7,1,45
41,64,327704,6,0,P|37:87|37:109,3,45,2|0|0|0,0:0|0:0|0:0|0:0,0:0:0:0:
56,200,328045,2,0,P|78:192|97:180,1,45,8|0,0:0|0:0,0:0:0:0:
165,118,328216,2,0,P|147:103|128:92,1,45
181,254,328386,6,0,P|198:268|217:279,3,45,2|0|0|0,0:0|0:0|0:0|0:0,0:0:0:0:
306,308,328727,2,0,P|309:285|309:263,1,45,8|0,0:0|0:0,0:0:0:0:
290,172,328897,2,0,P|268:179|249:191,1,45
418,191,329068,6,0,L|462:185,3,45,2|0|0|0,0:0|0:0|0:0|0:0,0:0:0:0:
354,269,329409,2,0,L|309:263,3,45,8|0|0|0,0:0|0:0|0:0|0:0,0:0:0:0:
354,94,329750,2,0,L|398:88,3,45,2|0|0|0,0:0|0:0|0:0|0:0,0:0:0:0:
290,172,330091,2,0,L|245:166,3,45,8|0|2|0,0:0|0:0|0:0|0:0,0:0:0:0:
241,52,330432,5,6,0:0:0:0:
219,55,330517,1,0,0:0:0:0:
198,63,330602,1,0,0:0:0:0:
179,74,330687,1,0,0:0:0:0:
162,89,330772,1,8,0:0:0:0:
149,108,330858,1,0,0:0:0:0:
139,128,330943,1,0,0:0:0:0:
134,150,331028,1,0,0:0:0:0:
133,172,331113,1,2,0:0:0:0:
136,194,331199,1,0,0:0:0:0:
144,215,331284,1,0,0:0:0:0:
155,235,331369,1,0,0:0:0:0:
170,251,331454,1,8,0:0:0:0:
188,265,331539,1,0,0:0:0:0:
208,275,331625,1,0,0:0:0:0:
230,280,331710,1,0,0:0:0:0:
252,282,331795,2,0,P|274:278|293:266,15,45,2|0|0|0|8|0|0|0|2|0|0|0|8|0|0|0,0:0|0:0|0:0|0:0|0:0|0:0|0:0|0:0|0:0|0:0|0:0|0:0|0:0|0:0|0:0|0:0,0:0:0:0:
385,244,333159,5,2,0:0:0:0:
377,224,333244,1,0,0:0:0:0:
364,206,333329,1,0,0:0:0:0:
347,191,333414,1,0,0:0:0:0:
327,181,333500,1,8,0:0:0:0:
305,175,333585,1,0,0:0:0:0:
283,175,333670,1,0,0:0:0:0:
261,179,333755,1,0,0:0:0:0:
242,189,333841,1,2,0:0:0:0:
219,198,333926,1,0,0:0:0:0:
197,203,334011,1,0,0:0:0:0:
175,202,334096,1,0,0:0:0:0:
153,197,334182,1,8,0:0:0:0:
133,187,334267,1,0,0:0:0:0:
116,172,334352,1,0,0:0:0:0:
103,154,334437,1,0,0:0:0:0:
94,133,334522,2,0,P|89:110|91:88,15,45,2|0|0|0|8|0|0|0|2|0|0|0|8|0|0|0,0:0|0:0|0:0|0:0|0:0|0:0|0:0|0:0|0:0|0:0|0:0|0:0|0:0|0:0|0:0|0:0,0:0:0:0:
185,50,335886,5,2,0:0:0:0:
205,39,335971,1,0,0:0:0:0:
227,33,336057,1,0,0:0:0:0:
249,31,336142,1,0,0:0:0:0:
272,35,336227,1,8,0:0:0:0:
293,43,336312,1,0,0:0:0:0:
311,55,336397,1,0,0:0:0:0:
327,71,336483,1,0,0:0:0:0:
340,90,336568,1,2,0:0:0:0:
345,111,336653,1,0,0:0:0:0:
356,131,336738,1,0,0:0:0:0:
373,146,336824,1,0,0:0:0:0:
393,155,336909,1,8,0:0:0:0:
415,157,336994,1,0,0:0:0:0:
437,153,337079,1,0,0:0:0:0:
457,142,337164,1,0,0:0:0:0:
472,126,337250,5,2,0:0:0:0:
479,105,337335,1,0,0:0:0:0:
479,82,337420,1,0,0:0:0:0:
471,62,337505,1,0,0:0:0:0:
455,45,337591,1,8,0:0:0:0:
435,36,337676,1,0,0:0:0:0:
413,35,337761,1,0,0:0:0:0:
391,42,337846,1,0,0:0:0:0:
374,57,337932,1,2,0:0:0:0:
364,76,338017,1,0,0:0:0:0:
361,99,338102,1,0,0:0:0:0:
367,120,338187,1,0,0:0:0:0:
381,138,338272,1,8,0:0:0:0:
392,157,338358,1,0,0:0:0:0:
398,178,338443,1,0,0:0:0:0:
399,201,338528,1,0,0:0:0:0:
393,222,338613,5,10,0:0:0:0:
384,250,338699,1,0,0:0:0:0:
368,275,338784,1,0,0:0:0:0:
347,297,338869,1,0,0:0:0:0:
322,313,338954,1,8,0:0:0:0:
294,323,339039,1,0,0:0:0:0:
265,327,339125,1,0,0:0:0:0:
235,324,339210,1,0,0:0:0:0:
206,315,339295,1,10,0:0:0:0:
181,300,339380,1,0,0:0:0:0:
159,279,339466,1,0,0:0:0:0:
143,254,339551,1,0,0:0:0:0:
132,226,339636,1,8,0:0:0:0:
128,196,339721,1,0,0:0:0:0:
134,167,339807,1,0,0:0:0:0:
150,142,339892,1,0,0:0:0:0:
175,125,339977,5,10,0:0:0:0:
204,117,340062,1,0,0:0:0:0:
233,121,340147,1,0,0:0:0:0:
260,134,340233,1,0,0:0:0:0:
280,156,340318,2,0,L|277:200,1,45,8|0,0:0|0:0,0:0:0:0:
391,92,340488,2,0,L|388:47,1,45
480,208,340659,1,2,0:0:0:0:
341,325,340829,6,0,L|319:332,2,22.5,2|0|0,0:0|0:0|0:0,0:0:0:0:
362,317,341000,1,8,0:0:0:0:
175,300,341170,2,0,L|153:307,2,22.5,2|0|0,0:0|0:0|0:0,0:0:0:0:
196,292,341341,5,6,0:0:0:0:
