osu file format v14

[General]
AudioFilename: audio.mp3
AudioLeadIn: 0
PreviewTime: 60208
Countdown: 0
SampleSet: Normal
StackLeniency: 0.7
Mode: 1
LetterboxInBreaks: 0
WidescreenStoryboard: 0

[Editor]
DistanceSpacing: 1
BeatDivisor: 1
GridSize: 32
TimelineZoom: 0.3

[Metadata]
Title:Last Fortune (Short Ver.)
TitleUnicode:Last Fortune (Short Ver.)
Artist:fripSide
ArtistUnicode:fripSide
Creator:Cocoaaa
Version:Kantan
Source:ティンクル☆くるせいだーす -Passion Star Stream-
Tags:game OP Lillian Hayate1129 rew0825 conflict Twinkle Crusaders -Passion Star Stream-
BeatmapID:1403378
BeatmapSetID:660585

[Difficulty]
HPDrainRate:8
CircleSize:4
OverallDifficulty:2
ApproachRate:5
SliderMultiplier:1.4
SliderTickRate:1

[Events]
//Background and Video events
0,0,"BG.png",0,0
//Break Periods
//Storyboard Layer 0 (Background)
//Storyboard Layer 1 (Fail)
//Storyboard Layer 2 (Pass)
//Storyboard Layer 3 (Foreground)
//Storyboard Sound Samples

[TimingPoints]
208,447.761194029851,4,1,0,50,1,0
14312,-100,4,1,0,80,0,0
61103,-100,4,1,0,80,0,1
89312,-100,4,1,0,80,0,0

[HitObjects]
256,192,208,5,8,0:0:0:0:
256,192,1999,1,0,0:0:0:0:
256,192,3790,1,8,0:0:0:0:
256,192,5581,1,8,0:0:0:0:
256,192,6476,1,0,0:0:0:0:
256,192,7372,1,8,0:0:0:0:
256,192,9163,1,0,0:0:0:0:
64,320,10954,2,0,L|448:64,1,420.000001788138
256,192,12745,12,0,14088,0:0:0:0:
256,192,14536,5,8,0:0:0:0:
256,192,15431,1,0,0:0:0:0:
256,192,15879,1,0,0:0:0:0:
256,192,16327,1,8,0:0:0:0:
256,192,17222,1,8,0:0:0:0:
256,192,18118,1,4,0:0:0:0:
256,192,19909,1,0,0:0:0:0:
256,192,20805,1,8,0:0:0:0:
256,192,21700,1,12,0:0:0:0:
256,192,23491,1,8,0:0:0:0:
256,192,24387,1,0,0:0:0:0:
256,192,25282,1,4,0:0:0:0:
256,192,26178,1,8,0:0:0:0:
256,192,27073,1,12,0:0:0:0:
256,192,27969,1,0,0:0:0:0:
160,288,28864,2,0,L|512:32,1,420.000001788138
256,192,30655,12,0,31999,0:0:0:0:
256,192,32446,5,4,0:0:0:0:
256,192,33341,1,8,0:0:0:0:
256,192,33789,1,8,0:0:0:0:
256,192,34237,1,0,0:0:0:0:
256,192,36028,1,8,0:0:0:0:
256,192,36923,1,0,0:0:0:0:
224,192,37371,1,0,0:0:0:0:
256,192,37819,1,8,0:0:0:0:
256,192,39610,1,8,0:0:0:0:
256,192,40506,1,0,0:0:0:0:
256,192,40954,1,8,0:0:0:0:
256,192,41402,1,0,0:0:0:0:
256,192,43193,1,0,0:0:0:0:
256,192,44088,1,8,0:0:0:0:
256,192,44536,1,0,0:0:0:0:
256,192,44984,1,8,0:0:0:0:
256,192,46775,1,4,0:0:0:0:
256,192,47671,1,8,0:0:0:0:
256,192,48566,1,0,0:0:0:0:
256,192,50357,1,12,0:0:0:0:
256,192,51252,1,0,0:0:0:0:
256,192,52148,1,8,0:0:0:0:
256,192,53939,1,0,0:0:0:0:
256,192,54834,1,8,0:0:0:0:
256,192,55730,1,8,0:0:0:0:
64,192,56625,1,0,0:0:0:0:
256,192,57521,1,4,0:0:0:0:
256,192,58416,1,0,0:0:0:0:
256,192,59312,1,8,0:0:0:0:
256,192,61103,1,4,0:0:0:0:
256,192,61999,1,8,0:0:0:0:
256,192,62446,1,0,0:0:0:0:
256,192,62894,1,8,0:0:0:0:
256,192,64685,1,0,0:0:0:0:
256,192,65581,1,0,0:0:0:0:
256,192,66028,1,8,0:0:0:0:
256,192,66476,1,0,0:0:0:0:
256,192,68267,1,0,0:0:0:0:
256,192,69163,1,8,0:0:0:0:
256,192,69610,1,8,0:0:0:0:
224,128,70058,1,0,0:0:0:0:
224,128,70954,1,8,0:0:0:0:
64,352,71849,2,0,L|512:0,1,560.000002384184
256,192,74535,1,8,0:0:0:0:
256,192,74984,1,8,0:0:0:0:
256,192,75431,1,0,0:0:0:0:
256,192,76327,1,8,0:0:0:0:
256,192,76775,1,8,0:0:0:0:
256,192,77222,1,0,0:0:0:0:
256,192,79013,1,8,0:0:0:0:
256,192,79909,1,8,0:0:0:0:
256,192,80805,1,0,0:0:0:0:
256,192,82596,1,0,0:0:0:0:
256,192,84387,1,8,0:0:0:0:
256,192,86178,1,4,0:0:0:0:
256,192,87073,1,12,0:0:0:0:
256,192,87969,12,0,89312,0:0:0:0:
