osu file format v14

[General]
AudioFilename: audio.mp3
AudioLeadIn: 0
PreviewTime: 60208
Countdown: 0
SampleSet: Normal
StackLeniency: 0.7
Mode: 1
LetterboxInBreaks: 0
WidescreenStoryboard: 0

[Editor]
Bookmarks: 24722
DistanceSpacing: 1
BeatDivisor: 4
GridSize: 32
TimelineZoom: 1.3

[Metadata]
Title:Last Fortune (Short Ver.)
TitleUnicode:Last Fortune (Short Ver.)
Artist:fripSide
ArtistUnicode:fripSide
Creator:Cocoaaa
Version:Inner Oni
Source:ティンクル☆くるせいだーす -Passion Star Stream-
Tags:game OP Lillian Hayate1129 rew0825 conflict Twinkle Crusaders -Passion Star Stream-
BeatmapID:1398732
BeatmapSetID:660585

[Difficulty]
HPDrainRate:5
CircleSize:4
OverallDifficulty:6
ApproachRate:10
SliderMultiplier:1.4
SliderTickRate:1

[Events]
//Background and Video events
0,0,"BG.png",0,0
//Break Periods
//Storyboard Layer 0 (Background)
//Storyboard Layer 1 (Fail)
//Storyboard Layer 2 (Pass)
//Storyboard Layer 3 (Foreground)
//Storyboard Sound Samples

[TimingPoints]
208,447.761194029851,4,1,0,50,1,0
14312,-100,4,1,0,80,0,0
61103,-100,4,1,0,80,0,1
89312,-100,4,1,0,80,0,0

[HitObjects]
256,192,208,5,8,0:0:0:0:
256,192,431,1,0,0:0:0:0:
256,192,655,1,0,0:0:0:0:
256,192,879,1,8,0:0:0:0:
256,192,1103,1,0,0:0:0:0:
256,192,1327,1,0,0:0:0:0:
256,192,1551,1,8,0:0:0:0:
256,192,1999,1,0,0:0:0:0:
256,192,2446,1,0,0:0:0:0:
256,192,2670,1,8,0:0:0:0:
256,192,3342,1,0,0:0:0:0:
256,192,3790,1,0,0:0:0:0:
256,192,4013,1,8,0:0:0:0:
256,192,4237,1,8,0:0:0:0:
256,192,4461,1,0,0:0:0:0:
256,192,4685,1,8,0:0:0:0:
256,192,4909,1,8,0:0:0:0:
256,192,5133,1,0,0:0:0:0:
256,192,5581,1,8,0:0:0:0:
256,192,6028,1,0,0:0:0:0:
256,192,6252,1,8,0:0:0:0:
256,192,6476,1,0,0:0:0:0:
256,192,6924,1,0,0:0:0:0:
256,192,7372,1,8,0:0:0:0:
256,192,7596,1,0,0:0:0:0:
256,192,7819,1,0,0:0:0:0:
256,192,8043,1,8,0:0:0:0:
256,192,8267,1,0,0:0:0:0:
256,192,8491,1,0,0:0:0:0:
256,192,8715,1,8,0:0:0:0:
256,192,9163,1,0,0:0:0:0:
256,192,9610,1,0,0:0:0:0:
256,192,9834,1,8,0:0:0:0:
256,192,10282,1,8,0:0:0:0:
256,192,10506,1,0,0:0:0:0:
96,320,10954,2,0,L|448:64,1,420.000001788139
256,192,12745,12,0,14088,0:0:0:0:
256,192,14312,5,8,0:0:0:0:
256,192,14424,1,8,0:0:0:0:
256,192,14536,1,0,0:0:0:0:
256,192,14648,1,8,0:0:0:0:
256,192,14872,1,0,0:0:0:0:
256,192,14984,1,8,0:0:0:0:
256,192,15208,1,0,0:0:0:0:
256,192,15319,1,8,0:0:0:0:
256,192,15431,1,0,0:0:0:0:
256,192,15543,1,0,0:0:0:0:
256,192,15655,1,8,0:0:0:0:
256,192,15879,1,8,0:0:0:0:
256,192,16103,1,0,0:0:0:0:
256,192,16215,1,8,0:0:0:0:
256,192,16327,1,0,0:0:0:0:
256,192,16439,1,0,0:0:0:0:
256,192,16551,1,8,0:0:0:0:
256,192,16663,1,0,0:0:0:0:
256,192,16775,1,8,0:0:0:0:
256,192,16887,1,8,0:0:0:0:
256,192,16999,1,0,0:0:0:0:
256,192,17110,1,8,0:0:0:0:
256,192,17222,1,0,0:0:0:0:
256,192,17334,1,0,0:0:0:0:
256,192,17446,1,8,0:0:0:0:
256,192,17558,1,8,0:0:0:0:
256,192,17670,1,0,0:0:0:0:
256,192,17745,1,8,0:0:0:0:
256,192,17819,1,8,0:0:0:0:
256,192,17894,1,0,0:0:0:0:
256,192,18118,1,4,0:0:0:0:
256,192,18454,1,0,0:0:0:0:
256,192,18566,1,8,0:0:0:0:
256,192,18790,1,0,0:0:0:0:
256,192,18902,1,0,0:0:0:0:
256,192,19013,1,8,0:0:0:0:
256,192,19237,1,0,0:0:0:0:
256,192,19461,1,8,0:0:0:0:
256,192,19573,1,8,0:0:0:0:
256,192,19685,1,0,0:0:0:0:
256,192,19909,1,8,0:0:0:0:
256,192,20245,1,0,0:0:0:0:
256,192,20357,1,8,0:0:0:0:
256,192,20581,1,0,0:0:0:0:
256,192,20805,1,8,0:0:0:0:
256,192,20916,1,0,0:0:0:0:
256,192,21028,1,8,0:0:0:0:
256,192,21140,1,8,0:0:0:0:
256,192,21252,1,0,0:0:0:0:
256,192,21476,1,8,0:0:0:0:
256,192,21700,1,4,0:0:0:0:
256,192,22036,1,8,0:0:0:0:
256,192,22148,1,0,0:0:0:0:
256,192,22372,1,8,0:0:0:0:
256,192,22484,1,8,0:0:0:0:
256,192,22596,1,0,0:0:0:0:
256,192,22819,1,8,0:0:0:0:
256,192,23043,1,0,0:0:0:0:
256,192,23155,1,0,0:0:0:0:
256,192,23267,1,8,0:0:0:0:
256,192,23491,1,0,0:0:0:0:
256,192,23827,1,8,0:0:0:0:
256,192,23939,1,0,0:0:0:0:
256,192,24163,1,8,0:0:0:0:
256,192,24387,1,0,0:0:0:0:
256,192,24499,1,8,0:0:0:0:
256,192,24610,1,0,0:0:0:0:
256,192,24722,1,0,0:0:0:0:
256,192,24834,1,8,0:0:0:0:
256,192,25058,1,8,0:0:0:0:
256,192,25282,1,4,0:0:0:0:
256,192,25618,1,0,0:0:0:0:
256,192,25730,1,8,0:0:0:0:
256,192,25954,1,0,0:0:0:0:
256,192,26178,1,8,0:0:0:0:
256,192,26290,1,8,0:0:0:0:
256,192,26401,1,0,0:0:0:0:
256,192,26513,1,0,0:0:0:0:
256,192,26625,1,8,0:0:0:0:
256,192,26849,1,0,0:0:0:0:
256,192,27073,1,12,0:0:0:0:
256,192,27409,1,8,0:0:0:0:
256,192,27521,1,0,0:0:0:0:
256,192,27745,1,8,0:0:0:0:
256,192,27857,1,8,0:0:0:0:
256,192,27969,1,0,0:0:0:0:
256,192,28081,1,8,0:0:0:0:
256,192,28193,1,0,0:0:0:0:
256,192,28416,1,8,0:0:0:0:
256,192,28640,1,0,0:0:0:0:
256,192,28864,1,4,0:0:0:0:
256,192,29088,1,0,0:0:0:0:
256,192,29200,1,0,0:0:0:0:
256,192,29312,1,8,0:0:0:0:
256,192,29536,1,0,0:0:0:0:
256,192,29760,1,0,0:0:0:0:
256,192,29872,1,0,0:0:0:0:
256,192,29984,1,0,0:0:0:0:
256,192,30208,1,8,0:0:0:0:
256,192,30431,1,0,0:0:0:0:
256,192,30655,1,0,0:0:0:0:
256,192,30767,1,0,0:0:0:0:
256,192,30879,1,8,0:0:0:0:
256,192,30991,1,8,0:0:0:0:
256,192,31103,1,0,0:0:0:0:
256,192,31215,1,8,0:0:0:0:
256,192,31327,1,0,0:0:0:0:
256,192,31439,1,0,0:0:0:0:
256,192,31551,1,8,0:0:0:0:
256,192,31663,1,0,0:0:0:0:
256,192,31775,1,0,0:0:0:0:
256,192,31887,1,8,0:0:0:0:
256,192,31999,1,0,0:0:0:0:
256,192,32446,1,4,0:0:0:0:
256,192,32782,1,0,0:0:0:0:
256,192,32894,1,8,0:0:0:0:
256,192,33118,1,0,0:0:0:0:
256,192,33342,1,8,0:0:0:0:
256,192,33566,1,0,0:0:0:0:
256,192,33678,1,0,0:0:0:0:
256,192,33790,1,8,0:0:0:0:
256,192,34013,1,0,0:0:0:0:
256,192,34237,1,8,0:0:0:0:
256,192,34461,1,8,0:0:0:0:
256,192,34573,1,0,0:0:0:0:
256,192,34797,1,0,0:0:0:0:
256,192,34909,1,8,0:0:0:0:
256,192,35021,1,8,0:0:0:0:
288,128,35133,1,0,0:0:0:0:
256,192,35469,1,0,0:0:0:0:
256,192,35581,1,8,0:0:0:0:
256,192,35805,1,0,0:0:0:0:
256,192,36028,1,8,0:0:0:0:
256,192,36252,1,0,0:0:0:0:
256,192,36364,1,0,0:0:0:0:
256,192,36476,1,8,0:0:0:0:
256,192,36700,1,0,0:0:0:0:
256,192,36924,1,8,0:0:0:0:
256,192,37148,1,8,0:0:0:0:
256,192,37260,1,8,0:0:0:0:
256,192,37372,1,0,0:0:0:0:
256,192,37596,1,0,0:0:0:0:
256,192,37819,1,8,0:0:0:0:
256,192,38043,1,0,0:0:0:0:
256,192,38155,1,8,0:0:0:0:
256,192,38379,1,8,0:0:0:0:
256,192,38491,1,0,0:0:0:0:
320,192,38603,1,0,0:0:0:0:
256,192,38715,1,8,0:0:0:0:
256,192,38939,1,8,0:0:0:0:
256,192,39051,1,8,0:0:0:0:
256,192,39163,1,0,0:0:0:0:
256,192,39387,1,0,0:0:0:0:
256,192,39610,1,4,0:0:0:0:
256,192,39834,1,0,0:0:0:0:
256,192,39946,1,0,0:0:0:0:
256,192,40058,1,8,0:0:0:0:
256,192,40282,1,8,0:0:0:0:
256,192,40506,1,0,0:0:0:0:
256,192,40618,1,8,0:0:0:0:
256,192,40842,1,0,0:0:0:0:
256,192,41178,1,0,0:0:0:0:
256,192,41402,1,8,0:0:0:0:
256,192,41625,1,8,0:0:0:0:
256,192,41737,1,8,0:0:0:0:
256,192,41849,1,0,0:0:0:0:
256,192,42073,1,0,0:0:0:0:
256,192,42297,1,8,0:0:0:0:
256,192,42409,1,0,0:0:0:0:
256,192,42633,1,8,0:0:0:0:
256,192,42969,1,8,0:0:0:0:
256,192,43193,1,0,0:0:0:0:
256,192,43528,1,0,0:0:0:0:
256,192,43640,1,8,0:0:0:0:
256,192,43864,1,0,0:0:0:0:
256,192,44088,1,8,0:0:0:0:
256,192,44200,1,0,0:0:0:0:
256,192,44312,1,8,0:0:0:0:
256,192,44424,1,8,0:0:0:0:
256,192,44536,1,0,0:0:0:0:
256,192,44760,1,0,0:0:0:0:
256,192,44984,1,8,0:0:0:0:
256,192,45208,1,8,0:0:0:0:
256,192,45319,1,0,0:0:0:0:
256,192,45543,1,0,0:0:0:0:
256,192,45655,1,8,0:0:0:0:
256,192,45879,1,0,0:0:0:0:
256,192,46103,1,0,0:0:0:0:
256,192,46215,1,0,0:0:0:0:
256,192,46327,1,8,0:0:0:0:
256,192,46551,1,0,0:0:0:0:
256,192,46775,1,4,0:0:0:0:
256,192,47110,1,0,0:0:0:0:
256,192,47222,1,8,0:0:0:0:
256,192,47446,1,0,0:0:0:0:
256,192,47670,1,8,0:0:0:0:
256,192,47782,1,0,0:0:0:0:
256,192,48006,1,0,0:0:0:0:
256,192,48118,1,8,0:0:0:0:
256,192,48342,1,8,0:0:0:0:
256,192,48454,1,8,0:0:0:0:
256,192,48566,1,0,0:0:0:0:
256,192,48790,1,0,0:0:0:0:
256,192,48902,1,8,0:0:0:0:
256,192,49125,1,8,0:0:0:0:
256,192,49237,1,0,0:0:0:0:
256,192,49461,1,8,0:0:0:0:
256,192,49797,1,0,0:0:0:0:
256,192,49909,1,8,0:0:0:0:
256,192,50133,1,0,0:0:0:0:
256,192,50357,1,12,0:0:0:0:
256,192,50693,1,8,0:0:0:0:
256,192,50805,1,0,0:0:0:0:
256,192,51028,1,8,0:0:0:0:
256,192,51252,1,8,0:0:0:0:
256,192,51364,1,0,0:0:0:0:
256,192,51588,1,0,0:0:0:0:
256,192,51700,1,8,0:0:0:0:
256,192,51924,1,0,0:0:0:0:
224,192,52036,1,0,0:0:0:0:
256,192,52148,1,8,0:0:0:0:
256,192,52372,1,0,0:0:0:0:
256,192,52484,1,8,0:0:0:0:
256,192,52708,1,8,0:0:0:0:
256,192,52819,1,0,0:0:0:0:
256,192,53043,1,8,0:0:0:0:
256,192,53267,1,8,0:0:0:0:
256,192,53379,1,8,0:0:0:0:
256,192,53491,1,0,0:0:0:0:
256,192,53715,1,8,0:0:0:0:
256,192,53939,1,4,0:0:0:0:
256,192,54163,1,8,0:0:0:0:
256,192,54275,1,0,0:0:0:0:
256,192,54499,1,0,0:0:0:0:
256,192,54610,1,8,0:0:0:0:
256,192,54834,1,0,0:0:0:0:
256,192,55170,1,0,0:0:0:0:
256,192,55282,1,8,0:0:0:0:
256,192,55506,1,0,0:0:0:0:
256,192,55730,1,8,0:0:0:0:
256,192,55954,1,0,0:0:0:0:
256,192,56066,1,8,0:0:0:0:
256,192,56290,1,8,0:0:0:0:
256,192,56402,1,0,0:0:0:0:
256,192,56625,1,8,0:0:0:0:
256,192,56961,1,0,0:0:0:0:
256,192,57073,1,8,0:0:0:0:
256,192,57297,1,8,0:0:0:0:
256,192,57521,1,4,0:0:0:0:
256,192,57745,1,0,0:0:0:0:
256,192,57857,1,8,0:0:0:0:
256,192,58081,1,8,0:0:0:0:
256,192,58193,1,0,0:0:0:0:
256,192,58416,1,8,0:0:0:0:
256,192,58640,1,8,0:0:0:0:
256,192,58752,1,0,0:0:0:0:
256,192,58976,1,0,0:0:0:0:
256,192,59088,1,8,0:0:0:0:
256,192,59312,1,0,0:0:0:0:
256,192,59424,1,0,0:0:0:0:
256,192,59536,1,8,0:0:0:0:
256,192,59648,1,0,0:0:0:0:
256,192,59760,1,8,0:0:0:0:
256,192,59872,1,8,0:0:0:0:
256,192,59984,1,0,0:0:0:0:
256,192,60096,1,0,0:0:0:0:
256,192,60208,1,8,0:0:0:0:
256,192,60319,1,8,0:0:0:0:
256,192,60431,1,0,0:0:0:0:
256,192,60543,1,0,0:0:0:0:
256,192,60655,1,8,0:0:0:0:
256,192,60730,1,8,0:0:0:0:
256,192,60805,1,8,0:0:0:0:
256,192,60879,1,0,0:0:0:0:
256,192,61103,1,4,0:0:0:0:
256,192,61439,1,0,0:0:0:0:
256,192,61551,1,8,0:0:0:0:
256,192,61775,1,8,0:0:0:0:
256,192,61887,1,0,0:0:0:0:
256,192,61999,1,8,0:0:0:0:
256,192,62110,1,8,0:0:0:0:
256,192,62222,1,0,0:0:0:0:
256,192,62334,1,0,0:0:0:0:
256,192,62446,1,8,0:0:0:0:
256,192,62670,1,0,0:0:0:0:
256,192,62782,1,0,0:0:0:0:
256,192,62894,1,8,0:0:0:0:
256,192,63118,1,0,0:0:0:0:
256,192,63230,1,8,0:0:0:0:
256,192,63454,1,8,0:0:0:0:
256,192,63566,1,0,0:0:0:0:
256,192,63790,1,8,0:0:0:0:
256,192,64125,1,0,0:0:0:0:
256,192,64237,1,8,0:0:0:0:
256,192,64461,1,0,0:0:0:0:
256,192,64685,1,12,0:0:0:0:
256,192,65021,1,0,0:0:0:0:
256,192,65133,1,8,0:0:0:0:
256,192,65357,1,0,0:0:0:0:
256,192,65469,1,8,0:0:0:0:
256,192,65581,1,0,0:0:0:0:
256,192,65693,1,0,0:0:0:0:
256,192,65805,1,8,0:0:0:0:
256,192,65917,1,8,0:0:0:0:
256,192,66028,1,0,0:0:0:0:
256,192,66252,1,8,0:0:0:0:
256,192,66364,1,8,0:0:0:0:
256,192,66476,1,0,0:0:0:0:
256,192,66700,1,8,0:0:0:0:
256,192,66812,1,0,0:0:0:0:
256,192,67036,1,0,0:0:0:0:
256,192,67148,1,8,0:0:0:0:
256,192,67372,1,0,0:0:0:0:
256,192,67708,1,0,0:0:0:0:
256,192,67819,1,8,0:0:0:0:
256,192,68043,1,8,0:0:0:0:
256,192,68267,1,4,0:0:0:0:
256,192,68491,1,0,0:0:0:0:
256,192,68603,1,8,0:0:0:0:
256,192,68827,1,8,0:0:0:0:
256,192,68939,1,0,0:0:0:0:
256,192,69163,1,8,0:0:0:0:
256,192,69499,1,0,0:0:0:0:
256,192,69610,1,8,0:0:0:0:
256,192,69834,1,0,0:0:0:0:
256,192,70058,1,12,0:0:0:0:
256,192,70282,1,0,0:0:0:0:
256,192,70394,1,0,0:0:0:0:
256,192,70506,1,8,0:0:0:0:
256,192,70730,1,0,0:0:0:0:
256,192,70954,1,8,0:0:0:0:
256,192,71178,1,8,0:0:0:0:
256,192,71290,1,0,0:0:0:0:
256,192,71513,1,0,0:0:0:0:
256,192,71625,1,8,0:0:0:0:
256,192,71849,1,4,0:0:0:0:
256,192,72297,1,8,0:0:0:0:
256,192,72521,1,0,0:0:0:0:
256,192,72633,1,0,0:0:0:0:
256,192,72745,1,8,0:0:0:0:
256,192,72969,1,8,0:0:0:0:
256,192,73081,1,8,0:0:0:0:
256,192,73194,1,0,0:0:0:0:
256,192,73305,1,0,0:0:0:0:
256,192,73416,1,8,0:0:0:0:
256,192,73640,1,0,0:0:0:0:
256,192,73864,1,8,0:0:0:0:
256,192,73976,1,0,0:0:0:0:
256,192,74088,1,8,0:0:0:0:
256,192,74312,1,0,0:0:0:0:
256,192,74424,1,0,0:0:0:0:
256,192,74536,1,8,0:0:0:0:
256,192,74648,1,0,0:0:0:0:
256,192,74760,1,8,0:0:0:0:
256,192,74872,1,8,0:0:0:0:
256,192,74984,1,0,0:0:0:0:
256,192,75096,1,8,0:0:0:0:
256,192,75208,1,0,0:0:0:0:
256,192,75319,1,0,0:0:0:0:
256,192,75431,1,8,0:0:0:0:
128,160,75655,1,0,0:0:0:0:
256,192,75767,1,8,0:0:0:0:
256,192,75879,1,0,0:0:0:0:
256,192,76103,1,8,0:0:0:0:
256,192,76215,1,8,0:0:0:0:
256,192,76327,1,0,0:0:0:0:
256,192,76439,1,8,0:0:0:0:
256,192,76551,1,0,0:0:0:0:
256,192,76663,1,0,0:0:0:0:
256,192,76775,1,8,0:0:0:0:
256,192,76886,1,0,0:0:0:0:
256,192,76998,1,8,0:0:0:0:
256,192,77110,1,8,0:0:0:0:
256,192,77222,1,0,0:0:0:0:
256,192,77446,1,0,0:0:0:0:
256,192,77558,1,0,0:0:0:0:
256,192,77670,1,8,0:0:0:0:
256,192,77894,1,0,0:0:0:0:
256,192,78118,1,8,0:0:0:0:
256,192,78230,1,0,0:0:0:0:
256,192,78454,1,0,0:0:0:0:
256,192,78566,1,8,0:0:0:0:
256,192,78790,1,0,0:0:0:0:
256,192,79013,1,12,0:0:0:0:
256,192,79237,1,8,0:0:0:0:
256,192,79349,1,0,0:0:0:0:
256,192,79573,1,8,0:0:0:0:
256,192,79685,1,0,0:0:0:0:
256,192,79797,1,0,0:0:0:0:
256,192,79909,1,8,0:0:0:0:
256,192,80133,1,0,0:0:0:0:
256,192,80245,1,8,0:0:0:0:
256,192,80469,1,0,0:0:0:0:
256,192,80581,1,8,0:0:0:0:
256,192,80693,1,8,0:0:0:0:
256,192,80805,1,0,0:0:0:0:
256,192,81140,1,0,0:0:0:0:
256,192,81252,1,8,0:0:0:0:
256,192,81476,1,0,0:0:0:0:
256,192,81700,1,8,0:0:0:0:
256,192,81812,1,8,0:0:0:0:
256,192,81924,1,0,0:0:0:0:
256,192,82036,1,0,0:0:0:0:
256,192,82148,1,8,0:0:0:0:
256,192,82372,1,8,0:0:0:0:
256,192,82596,1,4,0:0:0:0:
256,192,82819,1,0,0:0:0:0:
256,192,82931,1,0,0:0:0:0:
256,192,83043,1,8,0:0:0:0:
256,192,83267,1,0,0:0:0:0:
256,192,83491,1,8,0:0:0:0:
256,192,83603,1,8,0:0:0:0:
256,192,83715,1,0,0:0:0:0:
256,192,83827,1,8,0:0:0:0:
256,192,83939,1,0,0:0:0:0:
256,192,84163,1,8,0:0:0:0:
256,192,84387,1,12,0:0:0:0:
256,192,84610,1,8,0:0:0:0:
256,192,84722,1,8,0:0:0:0:
256,192,84834,1,0,0:0:0:0:
256,192,85058,1,8,0:0:0:0:
256,192,85282,1,0,0:0:0:0:
256,192,85394,1,8,0:0:0:0:
256,192,85506,1,0,0:0:0:0:
256,192,85618,1,0,0:0:0:0:
256,192,85730,1,8,0:0:0:0:
256,192,85954,1,0,0:0:0:0:
256,192,86178,1,4,0:0:0:0:
256,192,86402,1,8,0:0:0:0:
256,192,86513,1,8,0:0:0:0:
256,192,86737,1,0,0:0:0:0:
256,192,86849,1,8,0:0:0:0:
256,192,87073,1,0,0:0:0:0:
256,192,87297,1,0,0:0:0:0:
256,192,87409,1,8,0:0:0:0:
256,192,87633,1,8,0:0:0:0:
256,192,87745,1,8,0:0:0:0:
256,192,87969,1,0,0:0:0:0:
256,192,88081,1,0,0:0:0:0:
256,192,88193,1,8,0:0:0:0:
256,192,88305,1,0,0:0:0:0:
256,192,88416,1,8,0:0:0:0:
256,192,88528,1,8,0:0:0:0:
256,192,88640,1,0,0:0:0:0:
256,192,88752,1,0,0:0:0:0:
256,192,88864,1,8,0:0:0:0:
256,192,88976,1,0,0:0:0:0:
256,192,89088,1,0,0:0:0:0:
256,192,89200,1,8,0:0:0:0:
256,192,89312,1,0,0:0:0:0:
