osu file format v14

[General]
AudioFilename: audio.mp3
AudioLeadIn: 0
PreviewTime: 60208
Countdown: 0
SampleSet: Normal
StackLeniency: 0.7
Mode: 1
LetterboxInBreaks: 0
WidescreenStoryboard: 0

[Editor]
DistanceSpacing: 1
BeatDivisor: 4
GridSize: 32
TimelineZoom: 0.6

[Metadata]
Title:Last Fortune (Short Ver.)
TitleUnicode:Last Fortune (Short Ver.)
Artist:fripSide
ArtistUnicode:fripSide
Creator:Cocoaaa
Version:Futsuu
Source:ティンクル☆くるせいだーす -Passion Star Stream-
Tags:game OP Lillian Hayate1129 rew0825 conflict Twinkle Crusaders -Passion Star Stream-
BeatmapID:1398731
BeatmapSetID:660585

[Difficulty]
HPDrainRate:7
CircleSize:4
OverallDifficulty:3
ApproachRate:5
SliderMultiplier:1.4
SliderTickRate:1

[Events]
//Background and Video events
0,0,"BG.png",0,0
//Break Periods
//Storyboard Layer 0 (Background)
//Storyboard Layer 1 (Fail)
//Storyboard Layer 2 (Pass)
//Storyboard Layer 3 (Foreground)
//Storyboard Sound Samples

[TimingPoints]
208,447.761194029851,4,1,0,50,1,0
14312,-100,4,1,0,80,0,0
61103,-100,4,1,0,80,0,1
89312,-100,4,1,0,80,0,0

[HitObjects]
256,192,208,5,8,0:0:0:0:
256,192,879,1,8,0:0:0:0:
256,192,1551,1,0,0:0:0:0:
256,192,1999,1,0,0:0:0:0:
256,192,3790,1,8,0:0:0:0:
256,192,4461,1,0,0:0:0:0:
256,192,5133,1,8,0:0:0:0:
256,192,5581,1,8,0:0:0:0:
256,192,6252,1,8,0:0:0:0:
256,192,6476,1,0,0:0:0:0:
256,192,7372,1,8,0:0:0:0:
256,192,8043,1,8,0:0:0:0:
256,192,8715,1,0,0:0:0:0:
256,192,9163,1,0,0:0:0:0:
256,192,9834,1,8,0:0:0:0:
256,192,10506,1,0,0:0:0:0:
64,320,10954,2,0,L|448:64,1,420.000001788138
256,192,12745,12,0,14088,0:0:0:0:
256,192,14536,5,8,0:0:0:0:
256,192,14760,1,8,0:0:0:0:
256,192,14984,1,0,0:0:0:0:
256,192,15432,1,0,0:0:0:0:
256,192,16327,1,0,0:0:0:0:
256,192,16551,1,0,0:0:0:0:
256,192,16775,1,8,0:0:0:0:
256,192,17222,1,8,0:0:0:0:
256,192,18118,1,4,0:0:0:0:
256,192,18566,1,0,0:0:0:0:
256,192,18790,1,8,0:0:0:0:
256,192,19013,1,0,0:0:0:0:
256,192,19461,1,8,0:0:0:0:
256,192,19909,1,0,0:0:0:0:
256,192,20805,1,8,0:0:0:0:
256,192,21252,1,0,0:0:0:0:
256,192,21700,1,12,0:0:0:0:
256,192,22148,1,8,0:0:0:0:
256,192,22372,1,0,0:0:0:0:
256,192,22596,1,8,0:0:0:0:
256,192,23043,1,0,0:0:0:0:
256,192,23491,1,8,0:0:0:0:
256,192,24387,1,0,0:0:0:0:
256,192,24834,1,8,0:0:0:0:
256,192,25282,1,4,0:0:0:0:
256,192,25730,1,8,0:0:0:0:
256,192,25954,1,0,0:0:0:0:
256,192,26178,1,8,0:0:0:0:
256,192,27073,1,12,0:0:0:0:
256,192,27521,1,0,0:0:0:0:
256,192,27745,1,8,0:0:0:0:
256,192,27969,1,0,0:0:0:0:
96,288,28864,2,0,L|480:64,1,420.000001788138
256,192,30655,12,0,31999,0:0:0:0:
256,192,32446,5,4,0:0:0:0:
256,192,32894,1,8,0:0:0:0:
256,192,33342,1,0,0:0:0:0:
256,192,33566,1,0,0:0:0:0:
256,192,33790,1,8,0:0:0:0:
256,192,34237,1,0,0:0:0:0:
256,192,35133,1,0,0:0:0:0:
256,192,36028,1,8,0:0:0:0:
256,192,36476,1,0,0:0:0:0:
256,192,36924,1,8,0:0:0:0:
256,192,37148,1,8,0:0:0:0:
256,192,37372,1,0,0:0:0:0:
256,192,37820,1,8,0:0:0:0:
256,192,38715,1,8,0:0:0:0:
256,192,39610,1,0,0:0:0:0:
256,192,40058,1,8,0:0:0:0:
256,192,40282,1,8,0:0:0:0:
256,192,40506,1,0,0:0:0:0:
256,192,41402,1,8,0:0:0:0:
256,192,41849,1,0,0:0:0:0:
256,192,42073,1,0,0:0:0:0:
256,192,42297,1,8,0:0:0:0:
256,192,43193,1,0,0:0:0:0:
256,192,44088,1,0,0:0:0:0:
256,192,44312,1,8,0:0:0:0:
256,192,44536,1,0,0:0:0:0:
256,192,44984,1,8,0:0:0:0:
256,192,45655,1,8,0:0:0:0:
256,192,45879,1,0,0:0:0:0:
256,192,46775,1,4,0:0:0:0:
256,192,47222,1,8,0:0:0:0:
256,192,47670,1,0,0:0:0:0:
256,192,47894,1,0,0:0:0:0:
256,192,48118,1,8,0:0:0:0:
256,192,48566,1,0,0:0:0:0:
256,192,49013,1,8,0:0:0:0:
256,192,49461,1,0,0:0:0:0:
256,192,50357,1,12,0:0:0:0:
256,192,50805,1,0,0:0:0:0:
256,192,51253,1,8,0:0:0:0:
256,192,51476,1,8,0:0:0:0:
256,192,51700,1,0,0:0:0:0:
256,192,52148,1,8,0:0:0:0:
256,192,52596,1,0,0:0:0:0:
256,192,53043,1,8,0:0:0:0:
256,192,53939,1,4,0:0:0:0:
256,192,54387,1,8,0:0:0:0:
256,192,54610,1,8,0:0:0:0:
256,192,54834,1,0,0:0:0:0:
256,192,55730,1,12,0:0:0:0:
256,192,56178,1,0,0:0:0:0:
256,192,56402,1,0,0:0:0:0:
256,192,56625,1,8,0:0:0:0:
256,192,57521,1,4,0:0:0:0:
256,192,57969,1,8,0:0:0:0:
256,192,58193,1,8,0:0:0:0:
256,192,58416,1,0,0:0:0:0:
256,192,58864,1,8,0:0:0:0:
256,192,59312,1,0,0:0:0:0:
256,192,60208,1,8,0:0:0:0:
256,192,60431,1,0,0:0:0:0:
256,192,60655,1,8,0:0:0:0:
256,192,61103,1,4,0:0:0:0:
256,192,61551,1,0,0:0:0:0:
256,192,61775,1,0,0:0:0:0:
256,192,61999,1,8,0:0:0:0:
256,192,62446,1,0,0:0:0:0:
256,192,62894,1,8,0:0:0:0:
256,192,63342,1,0,0:0:0:0:
256,192,63566,1,8,0:0:0:0:
256,192,63790,1,0,0:0:0:0:
256,192,64685,1,12,0:0:0:0:
256,192,65133,1,8,0:0:0:0:
256,192,65357,1,8,0:0:0:0:
256,192,65581,1,0,0:0:0:0:
256,192,66028,1,8,0:0:0:0:
256,192,66476,1,0,0:0:0:0:
256,192,66924,1,8,0:0:0:0:
256,192,67148,1,0,0:0:0:0:
256,192,67372,1,8,0:0:0:0:
256,192,68267,1,4,0:0:0:0:
256,192,68715,1,8,0:0:0:0:
256,192,68939,1,8,0:0:0:0:
256,192,69163,1,0,0:0:0:0:
256,192,70058,1,12,0:0:0:0:
256,192,70506,1,0,0:0:0:0:
256,192,70730,1,0,0:0:0:0:
256,192,70954,1,8,0:0:0:0:
256,192,71849,1,4,0:0:0:0:
256,192,72297,1,8,0:0:0:0:
256,192,72521,1,0,0:0:0:0:
256,192,72745,1,8,0:0:0:0:
256,192,73193,1,8,0:0:0:0:
256,192,73640,1,0,0:0:0:0:
256,192,74536,1,8,0:0:0:0:
256,192,74760,1,8,0:0:0:0:
256,192,74984,1,0,0:0:0:0:
256,192,75431,1,8,0:0:0:0:
256,192,76327,1,0,0:0:0:0:
256,192,76551,1,0,0:0:0:0:
256,192,76775,1,8,0:0:0:0:
256,192,77222,1,0,0:0:0:0:
256,192,78118,1,8,0:0:0:0:
256,192,78342,1,0,0:0:0:0:
256,192,78566,1,8,0:0:0:0:
256,192,79013,1,12,0:0:0:0:
256,192,79909,1,12,0:0:0:0:
256,192,80805,1,4,0:0:0:0:
256,192,81700,1,0,0:0:0:0:
256,192,82148,1,8,0:0:0:0:
256,192,82596,1,4,0:0:0:0:
256,192,83043,1,0,0:0:0:0:
256,192,83267,1,0,0:0:0:0:
256,192,83491,1,8,0:0:0:0:
256,192,84387,1,12,0:0:0:0:
256,192,84834,1,8,0:0:0:0:
256,192,85058,1,8,0:0:0:0:
256,192,85282,1,0,0:0:0:0:
256,192,86178,1,4,0:0:0:0:
256,192,86625,1,8,0:0:0:0:
256,192,86849,1,0,0:0:0:0:
256,192,87073,1,8,0:0:0:0:
256,192,87969,12,0,89312,0:0:0:0:
