osu file format v14

[General]
AudioFilename: lastfortune.mp3
AudioLeadIn: 2000
PreviewTime: 60138
Countdown: 0
SampleSet: Normal
StackLeniency: 0.7
Mode: 1
LetterboxInBreaks: 0
WidescreenStoryboard: 1

[Editor]
DistanceSpacing: 0.1
BeatDivisor: 4
GridSize: 8
TimelineZoom: 1.7

[Metadata]
Title:Last Fortune (Short Ver.)
TitleUnicode:Last Fortune (Short Ver.)
Artist:fripSide
ArtistUnicode:fripSide
Creator:Arnon
Version:Muzukashi
Source:Twinkle Crusaders -Passion Star Stream-
Tags:Lillian PPS OP opening
BeatmapID:1312203
BeatmapSetID:592880

[Difficulty]
HPDrainRate:6
CircleSize:4
OverallDifficulty:4
ApproachRate:10
SliderMultiplier:1.45
SliderTickRate:1

[Events]
//Background and Video events
Video,-267,"lastfortune.avi"
0,0,"v102gsb.png",0,100
//Break Periods
//Storyboard Layer 0 (Background)
//Storyboard Layer 1 (Fail)
//Storyboard Layer 2 (Pass)
//Storyboard Layer 3 (Foreground)
//Storyboard Sound Samples

[TimingPoints]
138,447.761194029851,4,1,0,50,1,0
7302,-100,4,1,0,65,0,0
7749,-100,4,1,0,60,0,0
14242,-100,4,1,0,70,0,0
18048,-100,4,1,0,95,0,0
32376,-100,4,1,0,80,0,0
44914,-100,4,1,0,90,0,0
61033,-100,4,1,0,100,0,1
89242,-100,4,1,0,100,0,0

[Colours]
Combo1 : 255,0,6
Combo2 : 251,255,85
Combo3 : 255,106,210
Combo4 : 32,143,255
SliderBorder : 255,255,255

[HitObjects]
200,176,138,5,0,0:0:0:0:
200,176,361,1,0,0:0:0:0:
200,176,585,1,0,0:0:0:0:
200,176,809,1,2,0:0:0:0:
200,176,1481,1,2,0:0:0:0:
200,176,1929,1,0,0:0:0:0:
200,176,2152,1,0,0:0:0:0:
200,176,2376,1,0,0:0:0:0:
200,176,2600,1,2,0:0:0:0:
208,176,3720,1,2,0:0:0:0:
208,176,3943,1,0,0:0:0:0:
208,176,4167,1,0,0:0:0:0:
208,176,4391,1,2,0:0:0:0:
208,176,4503,1,2,0:0:0:0:
208,176,4615,1,2,0:0:0:0:
208,176,4839,1,0,0:0:0:0:
208,176,5063,1,2,0:0:0:0:
208,176,5511,1,2,0:0:0:0:
208,176,6182,1,2,0:0:0:0:
224,176,6406,1,2,0:0:0:0:
216,176,7302,1,2,0:0:0:0:
216,176,7526,1,0,0:0:0:0:
216,184,7749,1,0,0:0:0:0:
216,184,7973,1,2,0:0:0:0:
224,184,8645,1,2,0:0:0:0:
224,184,9093,1,2,0:0:0:0:
224,184,9317,1,0,0:0:0:0:
224,184,9540,1,0,0:0:0:0:
224,184,9764,1,2,0:0:0:0:
224,184,10212,1,0,0:0:0:0:
224,184,10436,1,2,0:0:0:0:
224,192,10884,1,2,0:0:0:0:
224,192,11108,1,0,0:0:0:0:
224,192,11332,1,0,0:0:0:0:
224,192,11555,1,2,0:0:0:0:
224,192,12003,1,0,0:0:0:0:
224,192,12451,1,0,0:0:0:0:
224,192,12675,1,2,0:0:0:0:
224,192,14242,1,0,0:0:0:0:
224,192,14354,1,0,0:0:0:0:
224,192,14466,1,0,0:0:0:0:
224,192,14690,1,0,0:0:0:0:
224,192,14802,1,0,0:0:0:0:
224,192,14914,1,2,0:0:0:0:
224,192,15138,1,0,0:0:0:0:
224,192,15249,1,0,0:0:0:0:
224,192,15361,1,0,0:0:0:0:
224,192,15473,1,0,0:0:0:0:
216,200,15585,1,0,0:0:0:0:
224,192,15809,1,0,0:0:0:0:
224,192,16033,1,0,0:0:0:0:
224,192,16145,1,0,0:0:0:0:
224,192,16257,1,0,0:0:0:0:
208,200,16481,1,0,0:0:0:0:
208,200,16593,1,0,0:0:0:0:
208,200,16705,1,2,0:0:0:0:
208,200,16929,1,0,0:0:0:0:
208,200,17040,1,0,0:0:0:0:
208,200,17152,1,0,0:0:0:0:
208,200,17264,1,0,0:0:0:0:
208,200,17376,1,0,0:0:0:0:
208,200,17600,1,2,0:0:0:0:
232,200,18048,1,0,0:0:0:0:
368,160,18272,1,0,0:0:0:0:
232,200,18496,1,2,0:0:0:0:
232,200,18720,1,0,0:0:0:0:
232,200,18832,1,0,0:0:0:0:
232,200,18943,1,0,0:0:0:0:
432,200,19055,1,0,0:0:0:0:
224,200,19167,1,0,0:0:0:0:
224,200,19391,1,2,0:0:0:0:
224,208,19615,1,0,0:0:0:0:
232,208,19839,1,0,0:0:0:0:
224,208,20063,1,0,0:0:0:0:
224,208,20175,1,0,0:0:0:0:
232,208,20287,1,2,0:0:0:0:
224,208,20511,1,0,0:0:0:0:
224,208,20623,1,0,0:0:0:0:
224,208,20735,1,0,0:0:0:0:
224,208,20846,1,0,0:0:0:0:
232,192,20958,1,0,0:0:0:0:
224,200,21182,1,2,0:0:0:0:
224,200,21406,1,0,0:0:0:0:
224,208,21630,1,0,0:0:0:0:
232,208,21854,1,0,0:0:0:0:
232,208,21966,1,0,0:0:0:0:
224,200,22078,1,2,0:0:0:0:
216,232,22302,1,0,0:0:0:0:
216,232,22526,1,0,0:0:0:0:
216,232,22638,1,0,0:0:0:0:
216,232,22861,1,0,0:0:0:0:
216,232,22973,1,2,0:0:0:0:
232,232,23197,1,0,0:0:0:0:
256,232,23421,1,2,0:0:0:0:
256,232,23645,1,0,0:0:0:0:
264,232,23757,1,0,0:0:0:0:
264,232,23869,1,2,0:0:0:0:
264,232,24093,1,2,0:0:0:0:
224,264,24205,1,2,0:0:0:0:
264,224,24317,1,2,0:0:0:0:
264,224,24540,1,2,0:0:0:0:
264,232,24652,1,2,0:0:0:0:
264,224,24764,1,2,0:0:0:0:
264,224,24988,1,0,0:0:0:0:
272,224,25212,1,0,0:0:0:0:
224,240,25436,1,0,0:0:0:0:
248,248,25548,1,0,0:0:0:0:
264,224,25660,1,2,0:0:0:0:
264,232,25884,1,0,0:0:0:0:
264,232,26108,1,2,0:0:0:0:
256,232,26220,1,2,0:0:0:0:
256,232,26443,1,2,0:0:0:0:
264,232,26555,1,2,0:0:0:0:
256,232,26779,1,2,0:0:0:0:
256,232,27003,1,0,0:0:0:0:
256,232,27227,1,0,0:0:0:0:
256,232,27339,1,0,0:0:0:0:
256,232,27451,1,2,0:0:0:0:
288,216,27675,1,0,0:0:0:0:
272,224,27899,1,2,0:0:0:0:
272,224,28011,1,2,0:0:0:0:
272,224,28235,1,2,0:0:0:0:
272,224,28346,1,2,0:0:0:0:
264,224,28570,1,0,0:0:0:0:
256,224,28794,1,0,0:0:0:0:
272,216,29018,1,0,0:0:0:0:
272,224,29130,1,0,0:0:0:0:
272,224,29242,1,2,0:0:0:0:
272,216,29466,1,0,0:0:0:0:
272,216,29690,1,0,0:0:0:0:
272,216,29802,1,0,0:0:0:0:
272,216,29914,1,0,0:0:0:0:
384,240,30026,1,0,0:0:0:0:
272,224,30138,1,2,0:0:0:0:
264,208,30361,1,0,0:0:0:0:
264,216,30585,1,0,0:0:0:0:
264,208,30921,1,0,0:0:0:0:
272,192,31257,1,0,0:0:0:0:
272,192,31481,1,0,0:0:0:0:
208,224,31593,1,0,0:0:0:0:
272,192,31705,1,0,0:0:0:0:
272,208,31929,1,0,0:0:0:0:
288,192,32376,1,0,0:0:0:0:
288,192,32824,1,0,0:0:0:0:
280,192,33272,1,0,0:0:0:0:
280,192,33720,1,0,0:0:0:0:
280,192,34167,1,0,0:0:0:0:
280,192,34615,1,0,0:0:0:0:
256,184,35063,1,0,0:0:0:0:
256,184,35511,1,0,0:0:0:0:
256,184,35735,1,0,0:0:0:0:
256,184,35958,1,0,0:0:0:0:
256,184,36406,1,0,0:0:0:0:
256,184,36854,1,0,0:0:0:0:
256,184,37302,1,0,0:0:0:0:
368,200,37526,1,0,0:0:0:0:
240,152,37749,1,0,0:0:0:0:
256,168,37861,1,0,0:0:0:0:
256,168,38085,1,0,0:0:0:0:
256,168,38197,1,0,0:0:0:0:
256,168,38421,1,0,0:0:0:0:
376,192,38533,1,0,0:0:0:0:
256,168,38645,1,0,0:0:0:0:
256,168,38869,1,0,0:0:0:0:
256,168,39093,1,0,0:0:0:0:
248,168,39317,1,0,0:0:0:0:
248,168,39540,1,0,0:0:0:0:
256,152,39988,1,0,0:0:0:0:
256,160,40212,1,0,0:0:0:0:
256,152,40436,1,0,0:0:0:0:
256,152,40548,1,0,0:0:0:0:
256,152,40772,1,0,0:0:0:0:
272,152,40884,1,0,0:0:0:0:
256,152,41108,1,0,0:0:0:0:
256,152,41332,1,0,0:0:0:0:
256,152,41779,1,0,0:0:0:0:
256,152,42003,1,0,0:0:0:0:
256,152,42227,1,0,0:0:0:0:
256,152,42339,1,0,0:0:0:0:
256,152,42563,1,0,0:0:0:0:
256,152,42675,1,0,0:0:0:0:
256,152,42899,1,0,0:0:0:0:
256,152,43123,1,0,0:0:0:0:
264,152,43570,1,0,0:0:0:0:
256,152,44018,1,0,0:0:0:0:
256,152,44242,1,0,0:0:0:0:
256,152,44466,1,0,0:0:0:0:
256,152,44690,1,0,0:0:0:0:
248,160,44914,1,0,0:0:0:0:
256,152,45026,1,0,0:0:0:0:
240,160,45249,1,0,0:0:0:0:
240,160,45361,1,0,0:0:0:0:
248,160,45585,1,0,0:0:0:0:
392,192,45697,1,0,0:0:0:0:
240,160,45809,1,0,0:0:0:0:
240,160,46033,1,0,0:0:0:0:
248,160,46257,1,0,0:0:0:0:
240,160,46481,1,0,0:0:0:0:
240,160,46705,1,0,0:0:0:0:
248,160,47152,1,2,0:0:0:0:
248,160,47376,1,0,0:0:0:0:
248,160,47600,1,0,0:0:0:0:
248,160,47712,1,2,0:0:0:0:
248,160,47936,1,0,0:0:0:0:
248,160,48048,1,2,0:0:0:0:
240,168,48272,1,0,0:0:0:0:
240,168,48496,1,0,0:0:0:0:
240,168,48943,1,2,0:0:0:0:
224,168,49167,1,0,0:0:0:0:
216,160,49391,1,0,0:0:0:0:
224,160,49503,1,2,0:0:0:0:
216,160,49727,1,2,0:0:0:0:
232,176,49839,1,2,0:0:0:0:
224,176,50063,1,2,0:0:0:0:
224,160,50287,1,0,0:0:0:0:
224,160,50735,1,2,0:0:0:0:
216,168,50958,1,0,0:0:0:0:
208,160,51182,1,0,0:0:0:0:
224,176,51294,1,0,0:0:0:0:
224,176,51518,1,0,0:0:0:0:
208,160,51630,1,2,0:0:0:0:
376,184,51854,1,0,0:0:0:0:
232,160,52078,1,0,0:0:0:0:
232,168,52526,1,2,0:0:0:0:
224,168,52749,1,0,0:0:0:0:
224,168,52861,1,0,0:0:0:0:
232,168,52973,1,2,0:0:0:0:
232,168,53197,1,2,0:0:0:0:
224,168,53421,1,2,0:0:0:0:
224,168,53645,1,0,0:0:0:0:
224,168,53869,1,0,0:0:0:0:
224,168,54317,1,2,0:0:0:0:
232,168,54540,1,0,0:0:0:0:
232,168,54764,1,0,0:0:0:0:
232,168,54876,1,0,0:0:0:0:
232,168,54988,1,0,0:0:0:0:
232,168,55212,1,2,0:0:0:0:
240,184,55660,1,0,0:0:0:0:
216,200,56108,1,2,0:0:0:0:
224,176,56332,1,0,0:0:0:0:
224,168,56555,1,0,0:0:0:0:
208,176,56667,1,2,0:0:0:0:
224,176,56891,1,2,0:0:0:0:
192,152,57003,1,2,0:0:0:0:
216,152,57227,1,2,0:0:0:0:
224,176,57451,1,0,0:0:0:0:
224,176,57899,1,2,0:0:0:0:
224,176,58123,1,0,0:0:0:0:
224,176,58346,1,0,0:0:0:0:
224,176,58458,1,0,0:0:0:0:
224,176,58570,1,0,0:0:0:0:
224,176,58794,1,2,0:0:0:0:
224,176,59242,1,0,0:0:0:0:
216,176,59466,1,0,0:0:0:0:
216,176,59578,1,0,0:0:0:0:
216,176,59690,1,2,0:0:0:0:
216,176,59914,1,0,0:0:0:0:
216,176,60026,1,0,0:0:0:0:
216,176,60138,1,0,0:0:0:0:
216,176,60361,1,0,0:0:0:0:
216,176,60585,1,2,0:0:0:0:
216,176,60809,1,2,0:0:0:0:
216,176,60921,1,2,0:0:0:0:
216,176,61033,1,2,0:0:0:0:
208,176,61481,1,2,0:0:0:0:
232,232,61705,1,0,0:0:0:0:
232,232,61929,1,0,0:0:0:0:
232,232,62040,1,0,0:0:0:0:
232,232,62152,1,0,0:0:0:0:
232,232,62376,1,2,0:0:0:0:
232,232,62824,1,0,0:0:0:0:
240,240,63048,1,0,0:0:0:0:
240,240,63160,1,0,0:0:0:0:
232,232,63272,1,2,0:0:0:0:
232,232,63496,1,0,0:0:0:0:
232,232,63720,1,2,0:0:0:0:
232,232,63832,1,0,0:0:0:0:
232,232,64055,1,0,0:0:0:0:
232,232,64167,1,2,0:0:0:0:
248,248,64391,1,0,0:0:0:0:
264,248,64615,1,0,0:0:0:0:
264,248,65063,1,2,0:0:0:0:
264,248,65287,1,0,0:0:0:0:
264,240,65511,1,0,0:0:0:0:
264,248,65623,1,0,0:0:0:0:
296,248,65735,1,0,0:0:0:0:
296,248,65958,1,2,0:0:0:0:
296,240,66182,1,2,0:0:0:0:
296,248,66406,1,0,0:0:0:0:
264,240,66854,1,2,0:0:0:0:
272,232,67078,1,0,0:0:0:0:
240,240,67190,1,2,0:0:0:0:
272,232,67302,1,0,0:0:0:0:
272,232,67526,1,0,0:0:0:0:
272,232,67749,1,0,0:0:0:0:
296,248,67973,1,0,0:0:0:0:
272,232,68197,1,0,0:0:0:0:
264,248,68645,1,2,0:0:0:0:
384,224,68869,1,0,0:0:0:0:
256,240,69093,1,0,0:0:0:0:
256,240,69205,1,0,0:0:0:0:
272,248,69317,1,0,0:0:0:0:
272,240,69540,1,2,0:0:0:0:
272,240,69764,1,0,0:0:0:0:
272,240,69876,1,0,0:0:0:0:
272,240,69988,1,0,0:0:0:0:
256,224,70436,1,2,0:0:0:0:
256,224,70660,1,0,0:0:0:0:
256,224,70772,1,0,0:0:0:0:
256,224,70884,1,0,0:0:0:0:
256,224,71108,1,0,0:0:0:0:
256,224,71332,1,2,0:0:0:0:
256,224,71443,1,2,0:0:0:0:
256,224,71555,1,2,0:0:0:0:
256,224,71779,1,0,0:0:0:0:
280,216,72227,1,2,0:0:0:0:
264,208,72451,1,0,0:0:0:0:
248,216,72675,1,0,0:0:0:0:
248,216,72787,1,0,0:0:0:0:
248,216,72899,1,0,0:0:0:0:
248,216,73123,1,2,0:0:0:0:
440,224,73346,1,0,0:0:0:0:
248,216,73570,1,0,0:0:0:0:
240,200,73682,1,0,0:0:0:0:
232,200,73794,1,0,0:0:0:0:
232,200,74018,1,2,0:0:0:0:
392,216,74242,1,0,0:0:0:0:
384,232,74466,1,0,0:0:0:0:
232,200,74578,1,0,0:0:0:0:
232,200,74690,1,0,0:0:0:0:
240,200,74802,1,0,0:0:0:0:
240,200,74914,1,0,0:0:0:0:
232,200,75138,1,0,0:0:0:0:
232,200,75361,1,0,0:0:0:0:
208,176,75809,1,2,0:0:0:0:
232,232,76033,1,0,0:0:0:0:
232,232,76257,1,0,0:0:0:0:
232,232,76368,1,0,0:0:0:0:
232,232,76480,1,0,0:0:0:0:
232,232,76704,1,2,0:0:0:0:
360,248,76929,1,0,0:0:0:0:
232,232,77152,1,0,0:0:0:0:
232,232,77600,1,2,0:0:0:0:
232,232,77824,1,0,0:0:0:0:
232,232,78048,1,0,0:0:0:0:
232,232,78160,1,0,0:0:0:0:
232,232,78383,1,0,0:0:0:0:
232,232,78495,1,2,0:0:0:0:
248,248,78719,1,0,0:0:0:0:
264,248,78943,1,0,0:0:0:0:
264,248,79391,1,2,0:0:0:0:
264,248,79615,1,0,0:0:0:0:
264,240,79839,1,0,0:0:0:0:
264,248,79951,1,0,0:0:0:0:
296,248,80063,1,0,0:0:0:0:
296,248,80286,1,2,0:0:0:0:
360,240,80511,1,0,0:0:0:0:
296,248,80734,1,0,0:0:0:0:
264,240,81182,1,2,0:0:0:0:
240,240,81406,1,0,0:0:0:0:
272,232,81630,1,2,0:0:0:0:
272,232,81742,1,2,0:0:0:0:
272,232,81854,1,2,0:0:0:0:
272,232,82077,1,2,0:0:0:0:
296,248,82301,1,0,0:0:0:0:
272,232,82525,1,0,0:0:0:0:
336,256,82749,1,0,0:0:0:0:
264,248,82973,1,2,0:0:0:0:
336,256,83197,1,0,0:0:0:0:
256,240,83421,1,0,0:0:0:0:
256,240,83533,1,0,0:0:0:0:
272,248,83645,1,0,0:0:0:0:
272,240,83868,1,2,0:0:0:0:
272,240,84092,1,0,0:0:0:0:
272,240,84204,1,0,0:0:0:0:
272,240,84316,1,0,0:0:0:0:
256,224,84540,1,0,0:0:0:0:
256,224,84764,1,2,0:0:0:0:
256,224,84988,1,0,0:0:0:0:
256,224,85212,1,0,0:0:0:0:
400,216,85324,1,0,0:0:0:0:
368,208,85548,1,0,0:0:0:0:
368,192,85660,1,2,0:0:0:0:
256,224,85883,1,2,0:0:0:0:
256,224,86107,1,0,0:0:0:0:
360,224,86332,1,0,0:0:0:0:
280,216,86555,1,2,0:0:0:0:
264,208,86779,1,0,0:0:0:0:
248,216,87003,1,0,0:0:0:0:
248,216,87115,1,0,0:0:0:0:
248,216,87227,1,0,0:0:0:0:
248,216,87451,1,2,0:0:0:0:
256,224,87675,1,0,0:0:0:0:
248,216,87898,1,0,0:0:0:0:
352,184,88123,1,0,0:0:0:0:
232,200,88235,1,0,0:0:0:0:
232,200,88346,1,2,0:0:0:0:
240,200,88570,1,0,0:0:0:0:
240,200,88682,1,0,0:0:0:0:
232,200,88794,1,0,0:0:0:0:
232,200,89018,1,0,0:0:0:0:
240,200,89242,1,0,0:0:0:0:
