osu file format v14

[General]
AudioFilename: audio.mp3
AudioLeadIn: 0
PreviewTime: 27029
Countdown: 0
SampleSet: Soft
StackLeniency: 0.7
Mode: 0
LetterboxInBreaks: 0
WidescreenStoryboard: 1

[Editor]
Bookmarks: 14233,21115,27996,43480,57244,64125,71007,84771,100254,114018,120900,127781,141545,155308,160470,177674,191437,205201,218964,222405,236115,260254
DistanceSpacing: 0.4
BeatDivisor: 8
GridSize: 16
TimelineZoom: 1.5

[Metadata]
Title:LEVEL5 -judgelight-
TitleUnicode:LEVEL5 -judgelight-
Artist:fripSide
ArtistUnicode:fripSide
Creator:iRedi
Version:Lancien's -insane-
Source:とある科学の超電磁砲
Tags:agllius -_matha_- matha petal lancien Opening Opening2 Op2 2 Misaka Mikoto Shirai Kuroko 御坂美琴 白井黒子 level sisters japanese anime pop jpop j-pop female vocal full version toaru kagaku no railgun a certain scientific index lv5 lvl 5 八木沼悟志 yaginuma satoshi
BeatmapID:4361631
BeatmapSetID:2074570

[Difficulty]
HPDrainRate:5
CircleSize:3.8
OverallDifficulty:7
ApproachRate:8
SliderMultiplier:1.8
SliderTickRate:1

[Events]
//Background and Video events
0,0,"BG.jpg",0,0
//Break Periods
//Storyboard Layer 0 (Background)
//Storyboard Layer 1 (Fail)
//Storyboard Layer 2 (Pass)
//Storyboard Layer 3 (Foreground)
//Storyboard Layer 4 (Overlay)
//Storyboard Sound Samples

[TimingPoints]
470,430.107526881721,4,2,1,40,1,0
14448,-100,4,2,1,45,0,0
21115,-100,4,2,2,50,0,0
21437,-100,4,2,1,50,0,0
27996,-100,4,2,2,75,0,0
28318,-100,4,2,1,75,0,0
28803,-100,4,2,1,5,0,0
28857,-100,4,2,1,75,0,0
32028,-100,4,2,1,5,0,0
32082,-100,4,2,1,75,0,0
35684,-100,4,2,1,5,0,0
35738,-100,4,2,1,75,0,0
38319,-133.333333333333,4,2,1,75,0,0
39179,-100,4,2,1,75,0,0
40039,-100,4,2,2,75,0,0
40254,-100,4,2,1,75,0,0
41491,-100,4,2,1,5,0,0
41545,-100,4,2,1,75,0,0
42136,-100,4,2,1,5,0,0
42190,-100,4,2,1,75,0,0
43480,-100,4,2,2,40,0,0
43802,-100,4,2,1,40,0,0
49878,-100,4,2,1,5,0,0
49932,-100,4,2,1,40,0,0
57244,-100,4,2,1,45,0,0
60631,-100,4,2,1,5,0,0
60685,-100,4,2,1,45,0,0
64125,-100,4,2,1,50,0,0
67566,-100,4,2,1,60,0,0
71007,-100,4,2,2,75,0,1
71115,-100,4,2,1,75,0,1
71813,-100,4,2,1,5,0,1
71867,-83.3333333333333,4,2,1,75,0,1
75039,-83.3333333333333,4,2,1,5,0,1
75093,-83.3333333333333,4,2,1,75,0,1
78695,-83.3333333333333,4,2,1,5,0,1
78749,-83.3333333333333,4,2,1,75,0,1
85362,-83.3333333333333,4,2,1,5,0,1
85416,-83.3333333333333,4,2,1,75,0,1
88803,-83.3333333333333,4,2,1,5,0,1
88857,-83.3333333333333,4,2,1,75,0,1
92458,-83.3333333333333,4,2,1,5,0,1
92513,-83.3333333333333,4,2,1,75,0,1
100254,-100,4,2,2,40,0,0
100684,-100,4,2,1,40,0,0
106652,-100,4,2,1,5,0,0
106706,-100,4,2,1,40,0,0
107082,-100,4,2,1,5,0,0
107136,-100,4,2,1,40,0,0
114018,-100,4,2,1,45,0,0
117405,-100,4,2,1,5,0,0
117459,-100,4,2,1,45,0,0
122190,-100,4,2,1,50,0,0
124340,-100,4,2,1,60,0,0
127781,-83.3333333333333,4,2,1,75,0,1
128372,-83.3333333333333,4,2,1,5,0,1
128426,-83.3333333333333,4,2,1,75,0,1
131813,-83.3333333333333,4,2,1,5,0,1
131867,-83.3333333333333,4,2,1,75,0,1
135254,-83.3333333333333,4,2,1,5,0,1
135308,-83.3333333333333,4,2,1,75,0,1
142351,-83.3333333333333,4,2,1,5,0,1
142405,-83.3333333333333,4,2,1,75,0,1
145577,-83.3333333333333,4,2,1,5,0,1
145631,-83.3333333333333,4,2,1,75,0,1
149018,-83.3333333333333,4,2,1,5,0,1
149072,-83.3333333333333,4,2,1,75,0,1
155308,-133.333333333333,4,2,1,75,0,1
156168,-100,4,2,1,75,0,1
158749,-83.3333333333333,4,2,1,75,0,1
160470,-83.3333333333333,4,2,1,60,0,0
161330,-83.3333333333333,4,2,1,65,0,0
161760,-83.3333333333333,4,2,1,70,0,0
162190,-83.3333333333333,4,2,1,75,0,0
163319,-83.3333333333333,4,2,1,5,0,0
163373,-83.3333333333333,4,2,1,75,0,0
173319,-83.3333333333333,4,2,1,5,0,0
173373,-83.3333333333333,4,2,1,75,0,0
176814,-133.333333333333,4,2,1,75,0,0
177029,-133.333333333333,4,2,1,55,0,0
177674,-133.333333333333,4,2,1,60,0,0
189717,-133.333333333333,4,2,1,70,0,0
191437,-83.3333333333333,4,2,1,85,0,1
192243,-83.3333333333333,4,2,1,5,0,1
192297,-83.3333333333333,4,2,1,85,0,1
195469,-83.3333333333333,4,2,1,5,0,1
195523,-83.3333333333333,4,2,1,85,0,1
198910,-83.3333333333333,4,2,1,5,0,1
198964,-83.3333333333333,4,2,1,85,0,1
206007,-83.3333333333333,4,2,1,5,0,1
206061,-83.3333333333333,4,2,1,85,0,1
209233,-83.3333333333333,4,2,1,5,0,1
209287,-83.3333333333333,4,2,1,85,0,1
212674,-83.3333333333333,4,2,1,5,0,1
212728,-83.3333333333333,4,2,1,85,0,1
221706,-83.3333333333333,4,2,1,5,0,1
221760,-83.3333333333333,4,2,1,85,0,1
222405,-83.3333333333333,4,2,1,85,0,0
222781,-83.3333333333333,4,2,1,5,0,0
222835,-83.3333333333333,4,2,1,85,0,0
230093,-83.3333333333333,4,2,1,5,0,0
230147,-83.3333333333333,4,2,1,85,0,0
231813,-83.3333333333333,4,2,1,5,0,0
231867,-83.3333333333333,4,2,1,85,0,0
253480,-83.3333333333333,4,2,1,75,0,0
253803,-83.3333333333333,4,2,1,65,0,0
254233,-83.3333333333333,4,2,1,55,0,0
254663,-83.3333333333333,4,2,1,45,0,0
255093,-83.3333333333333,4,2,1,35,0,0
255523,-83.3333333333333,4,2,1,25,0,0
255953,-83.3333333333333,4,2,1,15,0,0
260254,-83.3333333333333,4,2,1,5,0,0

[Colours]
Combo1 : 255,128,64
Combo2 : 155,206,206
Combo3 : 198,147,170
Combo4 : 163,183,220

[HitObjects]
133,219,470,6,0,L|142:280,2,45,2|2|2,2:0|2:0|2:0,0:0:0:0:
123,121,1007,1,2,2:0:0:0:
123,121,1330,1,2,2:0:0:0:
123,121,1652,1,2,2:0:0:0:
123,121,1975,1,2,2:0:0:0:
242,241,2190,6,0,L|275:207,2,45,2|2|2,2:0|2:0|2:0,0:0:0:0:
163,384,2728,1,2,2:0:0:0:
163,384,3050,1,2,2:0:0:0:
163,384,3373,1,2,2:0:0:0:
163,384,3695,1,2,2:0:0:0:
338,283,3910,6,0,L|327:337,2,45,2|2|2,2:0|2:0|2:0,0:0:0:0:
367,162,4448,1,2,2:0:0:0:
367,162,4771,1,2,2:0:0:0:
367,162,5093,1,2,2:0:0:0:
367,162,5416,1,2,2:0:0:0:
274,59,5631,6,0,L|209:42,2,45,2|2|2,2:0|2:0|2:0,0:0:0:0:
477,132,6168,1,2,2:0:0:0:
477,132,6491,1,2,2:0:0:0:
477,132,6814,1,2,2:0:0:0:
477,132,7136,1,2,2:0:0:0:
449,237,7351,5,2,2:0:0:0:
449,237,7459,1,2,2:0:0:0:
449,237,7566,1,2,2:0:0:0:
288,160,7889,1,2,2:0:0:0:
217,314,8211,1,2,2:0:0:0:
370,384,8534,1,2,2:0:0:0:
328,271,8857,1,2,2:0:0:0:
215,221,9072,5,2,2:0:0:0:
215,221,9179,1,2,2:0:0:0:
215,221,9287,1,2,2:0:0:0:
83,223,9609,2,0,P|99:281|119:366,2,135,2|2|2,2:0|2:0|2:0,0:0:0:0:
17,307,10577,1,2,2:0:0:0:
12,162,10792,5,2,2:0:0:0:
12,162,10900,1,2,2:0:0:0:
12,162,11007,1,2,2:0:0:0:
170,147,11330,1,2,2:0:0:0:
1,5,11652,1,2,2:0:0:0:
158,0,11975,1,2,2:0:0:0:
86,83,12297,1,2,2:0:0:0:
245,86,12513,5,2,2:0:0:0:
245,86,12620,1,2,2:0:0:0:
245,86,12728,1,2,2:0:0:0:
345,7,13050,2,0,P|362:59|401:145,2,135,2|2|2,2:0|2:0|2:0,0:0:0:0:
491,148,14018,2,0,P|484:182|423:224,1,90,2|2,2:0|2:0,0:0:0:0:
408,220,14340,5,2,2:0:0:0:
402,217,14448,1,2,2:0:0:0:
354,307,14771,2,0,P|416:329|483:368,2,135,2|2|2,2:0|2:0|2:0,0:0:0:0:
296,222,15738,1,2,2:0:0:0:
221,338,15953,5,2,2:0:0:0:
221,338,16061,1,2,2:0:0:0:
221,338,16168,1,2,2:0:0:0:
139,233,16491,2,0,P|120:285|119:372,2,135,2|2|2,2:0|2:0|2:0,0:0:0:0:
209,141,17459,1,2,2:0:0:0:
56,187,17674,5,2,2:0:0:0:
56,187,17781,1,2,2:0:0:0:
56,187,17889,1,2,2:0:0:0:
4,70,18211,2,0,P|56:37|142:17,2,135,2|2|2,2:0|2:0|2:0,0:0:0:0:
209,141,19179,1,2,2:0:0:0:
284,43,19394,5,2,2:0:0:0:
284,43,19502,1,2,2:0:0:0:
284,43,19609,1,2,2:0:0:0:
368,172,19932,2,0,P|393:114|406:17,2,135,2|2|2,2:0|2:0|2:0,0:0:0:0:
260,267,20900,1,2,2:0:0:0:
341,336,21115,6,0,P|256:357|180:314,1,180,6|0,3:2|3:2,0:0:0:0:
175,275,21653,1,2,0:0:0:0:
174,237,21760,2,0,L|152:179,1,45,2|0,2:0|0:0,0:0:0:0:
260,267,21975,2,0,L|236:102,1,135,2|2,3:2|2:0,0:0:0:0:
320,320,22620,2,0,P|363:328|411:325,1,90,2|2,2:0|3:2,0:0:0:0:
408,325,22943,5,2,0:0:0:0:
408,325,23050,1,2,0:0:0:0:
501,290,23265,2,0,L|457:222,1,45,2|0,3:2|0:0,0:0:0:0:
371,243,23480,2,0,L|363:178,1,45,2|0,2:0|0:0,0:0:0:0:
355,116,23695,2,0,P|413:118|473:29,1,135,2|2,3:2|2:0,0:0:0:0:
466,68,24125,1,0,3:2:0:0:
511,172,24340,1,2,2:0:0:0:
384,34,24556,5,2,3:2:0:0:
361,27,24663,1,2,2:0:0:0:
341,22,24771,2,0,L|254:59,1,90,2|0,3:2|3:0,0:0:0:0:
258,261,25201,1,2,3:2:0:0:
156,104,25416,1,2,3:2:0:0:
58,189,25631,1,0,3:0:0:0:
181,236,25846,1,0,3:0:0:0:
288,150,26061,1,2,3:2:0:0:
216,354,26276,5,2,3:2:0:0:
180,347,26383,1,2,3:2:0:0:
144,340,26491,1,2,3:2:0:0:
108,334,26599,1,2,3:2:0:0:
72,327,26706,1,0,3:0:0:0:
36,321,26814,1,2,3:2:0:0:
0,314,26921,1,2,3:2:0:0:
181,236,27136,6,0,L|270:289,1,90,6|2,3:2|0:0,0:0:0:0:
344,347,27566,2,0,L|351:229,1,90,2|2,0:0|0:0,0:0:0:0:
509,384,27996,6,0,L|481:211,1,135,14|0,3:2|2:0,0:0:0:0:
487,250,28426,1,10,2:0:0:0:
502,130,28642,1,2,2:0:0:0:
502,130,28749,1,2,0:0:0:0:
502,130,28857,2,0,P|441:152|406:164,1,90,2|2,3:2|2:0,0:0:0:0:
393,73,29179,2,0,P|409:129|419:169,1,90,2|0,2:0|2:0,0:0:0:0:
416,159,29502,1,2,2:0:0:0:
290,107,29717,5,2,3:2:0:0:
149,144,29932,1,2,2:0:0:0:
113,12,30147,1,8,2:0:0:0:
145,236,30362,1,2,2:0:0:0:
145,236,30470,1,2,2:0:0:0:
145,236,30577,2,0,P|73:188|55:109,1,135,0|0,3:0|3:0,0:0:0:0:
55,145,31007,1,8,2:0:0:0:
238,40,31222,1,2,3:2:0:0:
149,144,31437,6,0,L|214:165,1,45,2|2,3:2|0:2,0:2:0:0:
328,209,31652,1,2,2:0:0:0:
251,363,31867,2,0,L|234:255,1,90,14|2,2:0|2:0,0:0:0:0:
200,166,32297,5,6,3:2:0:0:
200,166,32405,1,2,2:0:0:0:
200,166,32513,1,2,2:0:0:0:
428,66,32728,2,0,P|393:106|301:96,1,135,12|0,0:0|2:0,0:0:0:0:
315,106,33158,6,0,P|302:43|292:3,1,90,6|2,3:2|2:0,0:0:0:0:
295,18,33480,1,2,2:0:0:0:
295,18,33588,1,8,0:0:0:0:
171,80,33803,1,2,2:0:0:0:
48,118,34018,5,6,3:2:0:0:
95,322,34233,1,2,3:2:0:0:
250,198,34448,1,14,0:2:0:0:
14,251,34663,5,2,3:2:0:0:
14,251,34771,1,2,2:0:0:0:
14,251,34878,2,0,P|78:227|167:239,1,135,6|0,3:2|2:0,0:0:0:0:
143,230,35308,1,10,2:0:0:0:
340,335,35523,1,2,2:0:0:0:
265,384,35738,2,0,P|260:305|271:263,1,90,2|2,3:2|2:0,0:0:0:0:
261,294,36061,1,2,2:0:0:0:
261,294,36168,1,10,0:0:0:0:
392,220,36383,6,0,P|412:246|435:273,1,45,2|2,2:0|2:0,2:0:0:0:
499,351,36599,2,0,L|516:241,1,90,2|2,3:2|2:0,0:0:0:0:
396,65,37029,1,10,2:0:0:0:
512,154,37244,1,2,2:0:0:0:
392,220,37459,6,0,P|339:197|288:144,1,90,10|2,2:0|2:0,0:0:0:0:
314,176,37781,1,10,2:0:0:0:
314,176,37889,1,2,3:2:0:0:
476,86,38104,5,2,3:2:0:0:
483,55,38211,1,2,3:2:0:0:
489,25,38319,2,0,B|355:28|431:86|303:90,1,202.500007724762,6|0,3:2|0:0,0:0:0:0:
153,18,39179,2,0,P|180:80|233:123,2,135,6|6|6,3:2|3:2|3:2,0:0:0:0:
264,13,40039,5,6,3:2:0:0:
315,138,40254,1,2,2:0:0:0:
300,173,40362,1,0,2:0:0:0:
284,208,40470,2,0,L|176:236,1,90,10|0,2:0|2:0,0:0:0:0:
129,266,40792,1,2,2:0:0:0:
129,266,40900,2,0,L|247:313,1,90,2|0,3:2|2:0,0:0:0:0:
256,371,41222,1,2,2:0:0:0:
256,371,41330,2,0,P|204:378|165:364,1,90,10|2,2:0|2:0,0:0:0:0:
123,370,41652,1,2,2:0:0:0:
123,370,41760,5,6,3:2:0:0:
17,241,41975,1,2,0:0:0:0:
193,217,42190,2,0,P|173:196|144:178,1,45,10|2,2:0|2:0,2:0:0:0:
60,166,42405,1,2,0:0:0:0:
212,299,42620,1,2,3:2:0:0:
212,299,42728,2,0,P|234:232|267:146,1,135,2|8,0:0|2:0,0:0:0:0:
49,44,43265,5,0,3:2:0:0:
40,53,43373,1,0,3:2:0:0:
31,62,43480,2,0,P|92:87|192:63,2,135,6|2|2,3:2|2:0|2:0,0:0:0:0:
60,221,44340,2,0,L|74:320,1,90,0|2,3:0|2:0,0:0:0:0:
171,231,44771,1,10,2:0:0:0:
171,231,44878,1,2,2:0:0:0:
171,231,44986,1,2,2:0:0:0:
247,320,45201,6,0,P|296:351|397:352,2,135,2|2|2,3:2|2:0|2:0,0:0:0:0:
171,231,46061,1,2,3:2:0:0:
343,267,46276,1,2,2:0:0:0:
241,113,46491,1,10,2:0:0:0:
222,123,46599,1,2,2:0:0:0:
203,134,46706,1,2,0:0:0:0:
342,267,46921,6,0,P|362:202|359:135,2,135,2|2|2,3:2|2:0|2:0,0:0:0:0:
241,113,47781,2,0,P|262:155|272:216,1,90,0|2,3:0|2:0,0:0:0:0:
214,266,48211,1,10,2:0:0:0:
214,266,48319,1,2,2:0:0:0:
214,266,48426,1,2,2:0:0:0:
349,368,48642,6,0,L|495:323,2,135,2|2|2,3:2|2:0|2:0,0:0:0:0:
380,262,49502,1,2,3:2:0:0:
485,211,49717,1,2,2:0:0:0:
389,138,49932,1,10,2:0:0:0:
362,131,50039,1,10,2:0:0:0:
335,125,50147,1,2,3:0:0:0:
308,119,50254,1,2,3:0:0:0:
281,114,50362,6,0,L|258:11,1,90,6|0,3:2|0:0,0:0:0:0:
194,208,50792,2,0,L|104:251,1,90,10|0,2:0|0:0,0:0:0:0:
351,217,51222,2,0,P|412:244|468:325,1,135,2|0,3:2|2:0,0:0:0:0:
455,294,51652,1,10,2:0:0:0:
315,378,51867,1,2,2:0:0:0:
204,292,52082,6,0,P|189:347|193:393,1,90,2|2,3:2|0:0,0:0:0:0:
190,379,52405,1,2,2:0:0:0:
190,379,52513,1,6,3:2:0:0:
272,243,52728,1,0,0:0:0:0:
102,341,52943,2,0,P|49:284|40:162,1,180,2|14,3:2|2:0,0:0:0:0:
33,185,53480,1,2,2:0:0:0:
33,185,53588,1,2,2:0:0:0:
146,222,53803,6,0,P|122:127|119:21,1,180,6|8,3:2|2:0,0:0:0:0:
209,164,54448,1,2,2:0:0:0:
209,66,54663,2,0,P|260:45|326:31,1,90,2|0,3:2|0:0,0:0:0:0:
458,84,55093,1,8,2:0:0:0:
302,133,55308,5,2,2:0:0:0:
302,133,55416,1,2,2:0:0:0:
302,133,55523,2,0,P|297:178|327:306,2,135,6|2|2,3:2|2:0|2:0,0:0:0:0:
394,302,56383,1,2,3:2:0:0:
421,304,56491,1,2,2:0:0:0:
447,299,56599,1,2,2:0:0:0:
472,290,56706,1,2,2:0:0:0:
490,270,56814,1,10,2:0:0:0:
507,249,56921,1,2,2:0:0:0:
512,222,57029,1,2,2:0:0:0:
507,195,57136,1,2,2:0:0:0:
492,171,57244,6,0,P|427:182|353:209,2,135,6|2|2,3:2|2:0|2:0,0:0:0:0:
502,35,58104,2,0,P|448:86|410:92,1,90,2|0,3:2|0:0,0:0:0:0:
361,117,58426,2,0,P|319:91|257:69,1,90,2|0,2:0|0:0,0:0:0:0:
281,75,58749,1,2,2:0:0:0:
290,303,58964,2,0,P|267:212|286:136,2,135,2|2|2,3:2|2:0|2:0,0:0:0:0:
367,234,59824,1,2,3:2:0:0:
334,384,60039,1,0,3:0:0:0:
199,304,60254,1,8,2:0:0:0:
199,304,60362,1,0,3:2:0:0:
199,304,60470,1,0,3:0:0:0:
108,372,60685,6,0,P|71:291|27:258,2,135,6|2|2,3:2|2:0|2:0,0:0:0:0:
217,201,61545,2,0,P|157:231|120:225,1,90,2|0,3:2|0:0,0:0:0:0:
73,191,61867,2,0,P|40:146|1:118,1,90,2|0,2:0|0:0,0:0:0:0:
13,125,62190,1,2,2:0:0:0:
152,144,62405,2,0,L|193:9,2,135,2|2|2,3:2|2:0|3:2,0:0:0:0:
134,152,63158,1,0,3:2:0:0:
119,160,63265,5,2,3:2:0:0:
245,250,63480,1,2,3:2:0:0:
277,110,63695,1,10,2:0:0:0:
277,110,63803,1,0,3:2:0:0:
277,110,63910,1,2,3:2:0:0:
324,264,64125,6,0,P|243:225|181:219,2,135,6|2|2,3:2|2:0|2:0,0:0:0:0:
418,310,64986,2,0,L|426:195,1,90,2|0,3:2|0:0,0:0:0:0:
459,39,65416,1,8,2:0:0:0:
459,39,65523,1,0,3:2:0:0:
459,39,65631,1,0,0:0:0:0:
380,114,65846,6,0,P|471:144|511:187,2,135,6|2|2,3:2|2:0|2:0,0:0:0:0:
310,0,66706,2,0,L|306:49,1,45,2|0,3:2|0:0,0:0:0:0:
189,148,67029,1,2,3:2:0:0:
189,148,67136,1,0,3:0:0:0:
107,74,67351,1,2,3:2:0:0:
232,225,67566,6,0,P|276:163|272:110,1,90,6|0,3:2|2:0,0:0:0:0:
277,151,67889,1,2,2:0:0:0:
277,151,67996,1,0,3:2:0:0:
149,224,68211,1,2,2:0:0:0:
212,384,68426,2,0,P|197:319|189:285,1,90,2|0,3:2|2:0,0:0:0:0:
360,278,68749,2,0,P|290:295|260:303,1,90,2|0,2:0|2:0,0:0:0:0:
273,300,69072,1,2,2:0:0:0:
97,333,69287,5,6,3:2:0:0:
57,324,69394,1,2,2:0:0:0:
24,297,69502,1,2,3:2:0:0:
8,256,69609,1,2,2:0:0:0:
11,216,69717,1,10,3:2:0:0:
30,179,69824,1,2,2:0:0:0:
65,159,69932,1,2,3:2:0:0:
106,154,70039,1,2,2:0:0:0:
143,171,70147,5,6,3:2:0:0:
203,47,70362,1,2,0:0:0:0:
48,0,70577,2,0,P|66:55|96:93,1,90,2|2,0:0|0:0,0:0:0:0:
251,144,71007,5,14,3:2:0:0:
263,109,71115,1,2,2:0:0:0:
278,71,71222,1,2,0:0:0:0:
143,171,71437,1,10,2:0:0:0:
291,241,71652,1,2,2:0:0:0:
391,111,71867,2,0,P|414:179|413:227,1,107.999996704102,2|2,3:2|2:0,0:0:0:0:
414,214,72190,1,2,2:0:0:0:
414,214,72297,1,8,0:0:0:0:
512,124,72513,1,2,2:0:0:0:
419,302,72728,5,2,3:2:0:0:
292,236,72943,1,2,2:0:0:0:
234,323,73158,1,10,2:0:0:0:
368,384,73373,1,2,2:0:0:0:
506,309,73588,5,0,3:0:0:0:
506,309,73695,2,0,P|506:240|520:177,1,107.999996704102,8|0,2:0|3:0,0:0:0:0:
512,124,74018,1,8,2:0:0:0:
331,303,74233,1,2,3:2:0:0:
241,176,74448,6,0,P|195:175|110:228,1,107.999996704102,2|2,3:2|2:0,0:0:0:0:
138,198,74771,1,2,2:0:0:0:
138,198,74878,1,14,2:0:0:0:
244,271,75093,1,2,2:0:0:0:
51,190,75308,2,0,P|36:115|27:73,1,107.999996704102,6|2,3:2|2:0,0:0:0:0:
29,84,75631,1,2,2:0:0:0:
29,84,75738,1,12,0:0:0:0:
228,107,75953,1,2,2:0:0:0:
51,190,76168,6,0,P|27:247|26:314,1,107.999996704102,6|2,3:2|2:0,0:0:0:0:
23,292,76491,1,2,2:0:0:0:
23,292,76599,1,8,0:0:0:0:
98,384,76814,1,2,2:0:0:0:
236,200,77029,5,6,3:2:0:0:
145,285,77244,1,2,3:2:0:0:
330,274,77459,1,14,0:2:0:0:
244,364,77674,1,2,3:2:0:0:
118,202,77889,6,0,P|144:113|149:34,1,161.999995056153,6|0,3:2|2:0,0:0:0:0:
149,44,78319,1,10,2:0:0:0:
38,161,78534,1,2,2:0:0:0:
215,192,78749,2,0,L|328:161,1,107.999996704102,2|2,3:2|2:0,0:0:0:0:
319,163,79072,1,2,2:0:0:0:
319,163,79179,1,8,0:0:0:0:
244,60,79394,1,2,2:0:0:0:
376,245,79609,6,0,L|314:268,1,53.9999983520508,2|2,3:2|0:0,0:0:0:0:
230,303,79824,1,2,2:0:0:0:
435,318,80039,2,0,P|454:256|452:192,1,107.999996704102,10|2,2:0|2:0,0:0:0:0:
454,213,80362,1,2,2:0:0:0:
454,213,80470,1,2,3:2:0:0:
333,271,80684,1,2,2:0:0:0:
333,271,80792,1,10,2:0:0:0:
333,271,80900,1,0,3:2:0:0:
307,142,81115,6,0,L|318:83,1,53.9999983520508,2|2,3:2|3:2,3:2:0:0:
400,59,81330,2,0,P|305:39|156:5,1,215.999993408203,6|10,3:2|2:0,0:0:0:0:
421,144,81975,1,0,0:0:0:0:
229,132,82190,2,0,P|228:206|249:251,1,107.999996704102,6|2,3:2|2:0,0:0:0:0:
240,236,82513,1,2,2:0:0:0:
240,236,82620,1,10,2:0:0:0:
328,172,82835,1,2,2:0:0:0:
171,322,83050,5,6,3:2:0:0:
133,313,83158,1,2,2:0:0:0:
94,305,83265,1,2,2:0:0:0:
378,382,83480,2,0,L|395:315,1,53.9999983520508,8|0,2:0|3:0,0:0:0:0:
413,256,83695,1,0,2:0:0:0:
276,345,83910,2,0,P|247:262|251:210,1,107.999996704102,10|2,2:0|3:2,0:0:0:0:
405,126,84340,1,10,2:0:0:0:
187,75,84556,5,2,3:2:0:0:
187,75,84663,1,0,2:0:0:0:
187,75,84771,2,0,P|161:151|163:251,1,161.999995056153,6|0,3:2|2:0,0:0:0:0:
159,232,85201,1,10,2:0:0:0:
279,119,85416,1,2,2:0:0:0:
74,192,85631,2,0,P|42:137|31:55,1,107.999996704102,2|2,3:2|2:0,0:0:0:0:
31,94,85953,1,2,2:0:0:0:
31,94,86061,1,8,0:0:0:0:
252,200,86276,1,2,2:0:0:0:
78,271,86491,5,2,3:2:0:0:
47,287,86599,1,2,2:0:0:0:
16,306,86706,1,2,2:0:0:0:
200,384,86921,1,10,2:0:0:0:
252,200,87136,1,2,2:0:0:0:
276,338,87351,5,0,3:0:0:0:
276,338,87459,2,0,P|231:306|177:296,1,107.999996704102,8|0,2:0|3:0,0:0:0:0:
116,336,87781,1,8,2:0:0:0:
171,140,87996,1,2,3:2:0:0:
322,266,88211,6,0,L|450:238,1,107.999996704102,2|2,3:2|2:0,0:0:0:0:
427,242,88534,1,2,2:0:0:0:
427,242,88642,1,14,2:0:0:0:
410,362,88857,1,2,2:0:0:0:
512,200,89072,2,0,P|464:158|384:149,1,107.999996704102,6|2,3:2|2:0,0:0:0:0:
422,146,89394,1,2,2:0:0:0:
422,146,89502,1,12,0:0:0:0:
335,190,89717,1,2,2:0:0:0:
384,36,89932,6,0,P|434:42|504:61,1,107.999996704102,6|2,3:2|2:0,0:0:0:0:
327,106,90254,2,0,P|269:96|211:74,1,107.999996704102,2|0,2:0|2:0,0:0:0:0:
222,79,90577,1,2,2:0:0:0:
425,223,90792,1,6,3:2:0:0:
346,384,91007,1,2,3:2:0:0:
223,279,91222,2,0,L|246:162,1,107.999996704102,6|2,3:2|3:2,0:0:0:0:
243,173,91545,1,0,2:0:0:0:
243,173,91652,6,0,L|299:231,1,53.9999983520508,6|2,3:2|2:0,0:0:0:0:
345,269,91867,1,0,0:0:0:0:
170,357,92082,2,0,P|138:310|118:245,1,107.999996704102,10|2,2:0|2:0,0:0:0:0:
28,321,92513,2,0,P|28:235|44:174,1,107.999996704102,2|2,3:2|2:0,0:0:0:0:
102,180,92835,2,0,L|216:151,1,107.999996704102,2|0,2:0|2:0,0:0:0:0:
206,153,93158,1,2,2:0:0:0:
109,3,93373,5,2,3:2:0:0:
88,42,93480,1,2,2:0:0:0:
70,81,93588,1,2,2:0:0:0:
272,236,93803,2,0,P|298:166|286:106,1,107.999996704102,10|2,2:0|2:0,0:0:0:0:
295,134,94125,1,2,2:0:0:0:
295,134,94233,1,10,2:0:0:0:
188,285,94448,1,2,2:0:0:0:
188,285,94556,2,0,P|236:325|322:334,1,107.999996704102,8|0,2:0|2:0,0:0:0:0:
341,284,94878,2,0,P|359:308|374:357,1,53.9999983520508,2|2,3:2|3:2,0:0:0:0:
463,384,95093,6,0,P|478:303|460:187,1,161.999995056153,6|0,3:2|2:0,0:0:0:0:
470,224,95523,1,10,2:0:0:0:
298,141,95738,1,0,0:0:0:0:
487,127,95953,1,6,3:2:0:0:
501,88,96061,1,0,2:0:0:0:
512,48,96168,1,2,2:0:0:0:
371,182,96383,2,0,P|346:120|340:67,1,107.999996704102,10|2,2:0|2:0,0:0:0:0:
388,12,96814,5,6,3:2:0:0:
205,87,97029,1,2,2:0:0:0:
205,87,97136,2,0,L|60:57,1,107.999996704102,2|2,2:0|2:0,0:0:0:0:
34,95,97459,2,0,L|101:111,1,53.9999983520508,0|0,0:0|2:0,0:0:0:0:
263,156,97674,5,2,3:2:0:0:
263,156,97782,2,0,L|249:235,1,53.9999983520508,0|0,0:0|2:0,0:0:0:0:
166,169,97996,5,2,2:0:0:0:
166,169,98104,2,0,L|152:237,1,53.9999983520508,10|0,2:0|2:0,0:0:0:0:
95,362,98319,5,2,3:2:0:0:
95,362,98426,1,0,2:0:0:0:
95,362,98534,2,0,P|63:284|64:232,1,107.999996704102,6|2,3:2|2:0,0:0:0:0:
61,261,98857,1,0,2:0:0:0:
61,261,98964,1,10,2:0:0:0:
184,382,99179,1,2,0:0:0:0:
299,265,99394,5,2,3:2:0:0:
299,265,99502,2,0,L|315:327,1,53.9999983520508,0|0,0:0|2:0,0:0:0:0:
383,264,99717,5,2,3:2:0:0:
383,264,99825,2,0,L|399:326,1,53.9999983520508,8|0,2:0|3:0,0:0:0:0:
512,384,100039,5,2,3:2:0:0:
512,384,100147,1,0,0:0:0:0:
512,384,100254,2,0,P|514:299|477:206,1,180,6|8,3:2|0:0,0:0:0:0:
406,187,100900,1,2,2:0:0:0:
512,75,101115,2,0,P|446:98|411:110,1,90,0|2,3:0|2:0,0:0:0:0:
316,0,101545,2,0,P|337:54|349:91,1,90,10|2,2:0|2:0,0:0:0:0:
406,187,101975,6,0,P|346:162|226:180,1,180,2|8,3:2|0:0,0:0:0:0:
234,175,102620,1,2,2:0:0:0:
347,341,102835,2,0,P|360:285|375:231,1,90,2|2,3:2|2:0,0:0:0:0:
368,253,103158,1,2,2:0:0:0:
368,253,103265,1,8,2:0:0:0:
225,310,103480,1,0,0:0:0:0:
151,112,103695,6,0,P|143:187|165:263,2,135,2|2|2,3:2|2:0|2:0,0:0:0:0:
211,38,104556,1,0,3:0:0:0:
57,122,104771,1,2,2:0:0:0:
57,122,104878,1,2,2:0:0:0:
57,122,104986,2,0,P|42:82|36:23,1,90,10|2,2:0|2:0,0:0:0:0:
237,169,105416,6,0,P|304:165|371:105,2,135,2|2|2,3:2|2:0|2:0,0:0:0:0:
216,150,106168,1,8,2:0:0:0:
197,132,106276,1,2,3:2:0:0:
278,251,106491,1,2,2:0:0:0:
126,212,106706,1,8,2:0:0:0:
95,225,106814,1,2,2:0:0:0:
64,241,106921,1,2,0:0:0:0:
196,38,107136,6,0,P|259:64|287:91,1,90,6|0,3:2|0:0,0:0:0:0:
275,77,107459,1,0,2:0:0:0:
275,77,107566,1,10,2:0:0:0:
365,17,107781,1,0,0:0:0:0:
350,233,107996,2,0,P|352:161|373:84,1,135,2|0,3:2|2:0,0:0:0:0:
366,100,108426,1,10,2:0:0:0:
454,78,108642,1,2,2:0:0:0:
497,203,108857,6,0,L|514:302,1,90,2|0,3:2|0:0,0:0:0:0:
512,291,109179,1,0,2:0:0:0:
512,291,109287,1,6,3:2:0:0:
421,384,109502,1,0,0:0:0:0:
350,233,109717,2,0,P|328:291|327:337,1,90,2|2,3:2|2:0,0:0:0:0:
497,203,110147,2,0,L|421:176,1,45,10|2,0:2|0:2,0:0:0:0:
377,158,110362,1,2,2:0:0:0:
325,318,110577,6,0,L|129:285,1,180,6|8,3:2|2:0,0:0:0:0:
237,226,111222,1,2,2:0:0:0:
180,118,111437,2,0,P|158:181|153:236,1,90,2|0,3:2|0:0,0:0:0:0:
47,328,111867,2,0,P|68:264|74:210,1,90,8|2,2:0|2:0,0:0:0:0:
72,241,112190,1,2,2:0:0:0:
72,241,112297,5,6,3:2:0:0:
25,156,112513,1,2,0:0:0:0:
180,118,112728,2,0,L|273:157,1,90,2|2,0:0|2:0,0:0:0:0:
176,297,113158,1,2,3:2:0:0:
204,325,113265,1,2,2:0:0:0:
242,339,113373,1,2,2:0:0:0:
282,342,113480,1,2,2:0:0:0:
322,339,113588,1,10,2:0:0:0:
360,326,113695,1,2,2:0:0:0:
392,301,113803,1,2,2:0:0:0:
412,266,113910,1,2,2:0:0:0:
416,225,114018,6,0,P|425:157|397:60,2,135,6|2|2,3:2|2:0|2:0,0:0:0:0:
487,69,114878,1,2,3:2:0:0:
318,13,115093,1,0,0:0:0:0:
343,167,115308,1,2,3:2:0:0:
333,186,115416,1,2,0:0:0:0:
324,204,115523,1,2,2:0:0:0:
219,144,115738,6,0,P|158:183|71:190,2,135,2|2|2,3:2|2:0|2:0,0:0:0:0:
324,204,116599,1,2,3:2:0:0:
176,306,116814,1,0,3:0:0:0:
176,306,116921,1,0,3:0:0:0:
176,306,117029,2,0,L|78:284,1,90,10|0,2:0|3:0,0:0:0:0:
271,370,117459,6,0,P|263:271|226:215,2,135,6|2|2,3:2|2:0|2:0,0:0:0:0:
353,306,118319,2,0,L|465:283,1,90,2|0,3:2|0:0,0:0:0:0:
510,259,118642,2,0,L|395:224,1,90,2|0,2:0|0:0,0:0:0:0:
355,204,118964,2,0,L|414:183,1,45,2|0,2:0|0:0,0:0:0:0:
478,145,119179,6,0,P|457:72|464:-5,2,135,2|2|2,3:2|2:0|2:0,0:0:0:0:
493,157,119932,1,0,0:0:0:0:
507,169,120039,1,2,3:2:0:0:
452,315,120254,1,2,3:2:0:0:
355,204,120470,1,10,2:0:0:0:
333,199,120577,1,8,2:0:0:0:
310,194,120685,1,2,3:2:0:0:
287,190,120792,1,0,3:2:0:0:
264,186,120900,6,0,P|258:135|247:83,1,90,6|0,3:2|0:0,0:0:0:0:
170,194,121222,2,0,P|176:245|187:297,1,90,2|0,2:0|0:0,0:0:0:0:
271,333,121545,2,0,P|268:292|260:259,1,45,2|0,2:0|0:0,0:0:0:0:
170,194,121760,6,0,P|110:208|1:145,1,180,2|8,3:2|2:0,0:0:0:0:
8,156,122297,1,2,0:0:0:0:
8,156,122405,1,2,0:0:0:0:
83,23,122620,2,0,P|85:89|81:131,1,90,6|0,3:2|0:0,0:0:0:0:
170,194,122943,2,0,P|168:128|172:86,1,90,2|0,2:0|0:0,0:0:0:0:
231,53,123265,1,2,0:0:0:0:
330,202,123480,6,0,P|332:136|328:94,1,90,2|0,3:2|2:0,0:0:0:0:
417,31,123803,2,0,P|415:97|419:139,1,90,2|0,3:2|0:0,0:0:0:0:
487,163,124125,1,2,3:2:0:0:
505,39,124340,5,6,3:2:0:0:
424,213,124556,1,2,2:0:0:0:
424,213,124663,1,2,2:0:0:0:
424,213,124771,2,0,P|449:240|512:265,1,90,0|2,3:0|2:0,0:0:0:0:
330,202,125201,2,0,P|290:249|262:282,1,90,2|0,3:2|2:0,0:0:0:0:
233,174,125523,2,0,P|193:192|143:224,1,90,2|0,2:0|2:0,0:0:0:0:
122,137,125846,2,0,P|79:137|54:141,1,45,2|0,2:0|2:0,0:0:0:0:
0,256,126061,5,6,3:2:0:0:
20,295,126168,1,2,2:0:0:0:
47,330,126276,1,2,3:2:0:0:
85,353,126383,1,2,2:0:0:0:
128,363,126491,1,2,3:2:0:0:
172,368,126599,1,2,2:0:0:0:
214,354,126706,2,0,P|274:328|323:329,1,90,2|14,3:2|3:2,0:0:0:0:
362,384,127136,5,2,0:0:0:0:
328,176,127351,2,0,P|355:243|354:292,1,90,2|2,0:0|0:0,0:0:0:0:
505,369,127781,5,14,3:2:0:0:
465,350,127889,1,2,2:0:0:0:
421,328,127996,1,2,2:0:0:0:
505,128,128211,1,10,2:0:0:0:
328,176,128426,1,2,2:0:0:0:
494,247,128642,2,0,P|481:173|480:118,1,107.999996704102,2|2,3:2|2:0,0:0:0:0:
384,26,128964,2,0,P|397:100|398:157,1,107.999996704102,2|0,2:0|2:0,0:0:0:0:
328,176,129287,2,0,P|320:143|320:106,1,53.9999983520508,2|0,2:0|2:0,0:0:0:0:
195,14,129502,5,2,3:2:0:0:
241,26,129609,1,2,2:0:0:0:
286,42,129717,1,2,2:0:0:0:
135,145,129932,1,10,2:0:0:0:
105,161,130039,1,2,2:0:0:0:
73,179,130147,1,2,2:0:0:0:
275,311,130362,1,0,3:0:0:0:
275,311,130470,2,0,P|286:243|274:187,1,107.999996704102,8|0,2:0|2:0,0:0:0:0:
231,145,130792,1,8,2:0:0:0:
386,290,131007,1,2,3:2:0:0:
203,374,131222,6,0,P|180:315|172:248,1,107.999996704102,2|2,3:2|2:0,0:0:0:0:
172,271,131545,1,2,2:0:0:0:
172,271,131652,1,14,3:2:0:0:
346,370,131867,1,2,2:0:0:0:
458,225,132082,2,0,L|336:195,1,107.999996704102,6|2,3:2|2:0,0:0:0:0:
353,199,132405,1,2,2:0:0:0:
353,199,132513,1,12,3:2:0:0:
275,311,132728,1,2,2:0:0:0:
258,113,132943,6,0,P|247:194|256:246,1,107.999996704102,6|2,3:2|2:0,0:0:0:0:
249,219,133265,1,2,2:0:0:0:
249,219,133373,1,8,0:0:0:0:
188,46,133588,1,2,2:0:0:0:
348,119,133803,5,6,3:2:0:0:
388,106,133910,1,2,2:0:0:0:
430,95,134018,1,2,3:2:0:0:
270,0,134233,1,14,3:2:0:0:
154,141,134448,5,2,3:2:0:0:
154,141,134556,1,2,2:0:0:0:
154,141,134663,2,0,P|241:120|277:101,1,107.999996704102,6|2,3:2|2:0,0:0:0:0:
28,51,135093,2,0,P|34:122|49:174,1,107.999996704102,10|2,2:0|2:0,0:0:0:0:
43,157,135416,1,2,2:0:0:0:
43,157,135523,1,2,3:2:0:0:
232,212,135738,1,2,2:0:0:0:
232,212,135846,2,0,P|208:275|164:315,1,107.999996704102,2|0,2:0|2:0,0:0:0:0:
105,299,136168,1,2,2:0:0:0:
291,384,136383,5,2,3:2:0:0:
302,347,136491,1,2,2:0:0:0:
313,313,136599,1,2,2:0:0:0:
512,291,136814,1,10,2:0:0:0:
496,240,136921,1,2,2:0:0:0:
479,188,137029,1,2,2:0:0:0:
311,209,137244,2,0,P|328:142|327:83,1,107.999996704102,10|2,2:0|2:0,0:0:0:0:
328,103,137566,1,10,2:0:0:0:
328,103,137674,1,0,3:2:0:0:
313,313,137889,6,0,P|342:303|370:279,1,53.9999983520508,10|10,0:0|0:0,0:0:0:0:
479,188,138104,2,0,P|479:97|444:8,1,161.999995056153,6|0,3:2|2:0,0:0:0:0:
456,30,138534,1,10,2:0:0:0:
399,202,138749,1,0,0:0:0:0:
241,142,138964,1,6,3:2:0:0:
241,142,139072,1,0,2:0:0:0:
241,142,139179,1,2,2:0:0:0:
327,108,139394,2,0,L|307:0,1,107.999996704102,10|2,2:0|2:0,0:0:0:0:
152,91,139824,5,6,3:2:0:0:
117,119,139932,1,2,2:0:0:0:
81,145,140039,1,2,2:0:0:0:
134,348,140254,1,8,2:0:0:0:
317,325,140470,1,0,2:0:0:0:
362,256,140685,5,10,2:0:0:0:
362,256,140792,1,10,2:0:0:0:
362,256,140900,1,2,3:2:0:0:
214,286,141115,2,0,L|136:260,1,53.9999983520508,10|0,2:0|2:0,0:0:0:0:
87,278,141330,2,0,L|14:253,1,53.9999983520508,2|0,3:2|2:0,0:0:0:0:
72,103,141545,6,0,P|99:182|126:212,1,107.999996704102,6|0,3:2|0:0,0:0:0:0:
268,48,141975,1,10,2:0:0:0:
268,48,142082,1,2,2:0:0:0:
268,48,142190,1,2,2:0:0:0:
170,122,142405,2,0,L|288:141,1,107.999996704102,2|2,3:2|2:0,0:0:0:0:
276,139,142728,1,2,2:0:0:0:
276,139,142835,1,8,0:0:0:0:
205,224,143050,1,2,2:0:0:0:
364,91,143265,6,0,P|380:159|369:208,1,107.999996704102,2|2,3:2|2:0,0:0:0:0:
373,195,143588,1,0,2:0:0:0:
373,195,143695,1,10,2:0:0:0:
205,224,143910,2,0,P|237:250|259:290,1,53.9999983520508,2|2,2:0|2:0,0:0:0:0:
318,350,144125,1,0,3:0:0:0:
318,350,144233,2,0,P|383:322|433:314,1,107.999996704102,8|0,2:0|3:0,0:0:0:0:
490,350,144556,1,8,2:0:0:0:
471,211,144771,2,0,L|459:138,1,53.9999983520508,2|0,3:2|2:0,0:0:0:0:
450,75,144986,5,2,3:2:0:0:
292,181,145201,1,2,2:0:0:0:
292,181,145308,1,2,2:0:0:0:
292,181,145416,2,0,P|275:118|283:59,1,107.999996704102,14|2,3:2|2:0,0:0:0:0:
142,248,145846,1,6,3:2:0:0:
318,350,146061,1,2,2:0:0:0:
318,350,146168,1,2,2:0:0:0:
318,350,146276,2,0,L|440:316,1,107.999996704102,12|2,0:0|2:0,0:0:0:0:
247,274,146706,6,0,P|194:328|135:334,1,107.999996704102,6|2,3:2|2:0,0:0:0:0:
0,282,147136,1,8,0:0:0:0:
14,330,147244,1,0,2:0:0:0:
30,383,147351,1,2,2:0:0:0:
166,249,147566,2,0,L|188:127,1,107.999996704102,6|2,3:2|3:2,0:0:0:0:
101,31,147996,1,14,3:2:0:0:
42,205,148211,5,2,3:2:0:0:
42,205,148319,1,0,2:0:0:0:
42,205,148426,2,0,P|13:114|21:13,1,161.999995056153,6|0,3:2|2:0,0:0:0:0:
13,48,148857,1,10,2:0:0:0:
185,142,149072,2,0,P|235:119|270:115,1,53.9999983520508,2|0,2:0|2:0,0:0:0:0:
308,147,149287,1,2,3:2:0:0:
294,278,149502,1,2,2:0:0:0:
294,278,149609,2,0,L|116:229,1,161.999995056153,2|2,2:0|2:0,0:0:0:0:
137,235,150039,1,0,2:0:0:0:
137,235,150147,6,0,P|123:270|99:301,1,53.9999983520508,2|0,3:2|2:0,0:0:0:0:
26,312,150362,1,2,2:0:0:0:
222,381,150577,2,0,L|345:348,1,107.999996704102,10|2,2:0|2:0,0:0:0:0:
284,268,151007,2,0,P|241:208|237:135,1,107.999996704102,10|2,2:0|2:0,0:0:0:0:
256,100,151330,1,10,2:0:0:0:
441,340,151652,5,2,3:2:0:0:
441,340,151760,1,2,3:2:0:0:
441,340,151867,2,0,P|474:264|476:134,1,161.999995056153,6|0,3:2|2:0,0:0:0:0:
482,185,152297,2,0,L|364:156,1,107.999996704102,10|0,2:0|0:0,0:0:0:0:
306,68,152728,2,0,L|430:39,1,107.999996704102,6|2,3:2|2:0,0:0:0:0:
411,43,153050,1,0,2:0:0:0:
411,43,153158,1,10,2:0:0:0:
291,157,153373,1,2,2:0:0:0:
200,9,153588,6,0,P|184:63|186:122,1,107.999996704102,6|0,3:2|0:0,0:0:0:0:
79,198,153910,2,0,P|95:144|93:85,1,107.999996704102,0|2,2:0|2:0,0:0:0:0:
50,30,154233,1,2,2:0:0:0:
176,197,154448,1,0,3:0:0:0:
192,224,154556,1,2,2:0:0:0:
207,249,154663,1,2,2:0:0:0:
0,286,154878,1,10,2:0:0:0:
269,380,155093,5,10,2:0:0:0:
269,380,155201,1,2,3:2:0:0:
269,380,155308,2,0,P|306:265|295:160,1,202.500007724762,6|0,3:2|0:0,0:0:0:0:
301,184,156168,6,0,L|411:141,1,90,6|0,3:2|2:0,0:0:0:0:
312,90,156491,2,0,L|349:-8,1,90,6|0,3:2|2:0,0:0:0:0:
243,40,156814,2,0,L|220:-7,1,45,6|0,3:2|2:0,0:0:0:0:
450,83,157029,2,0,P|483:149|462:243,1,135,6|2,3:2|2:0,0:0:0:0:
478,208,157459,1,8,2:0:0:0:
504,336,157674,1,2,0:0:0:0:
504,336,157781,1,2,2:0:0:0:
504,336,157889,2,0,P|422:347|376:361,1,90,2|0,3:2|2:0,0:0:0:0:
402,259,158211,2,0,P|413:341|427:387,1,90,2|0,2:0|2:0,0:0:0:0:
371,359,158534,2,0,L|437:342,1,45,2|0,2:0|3:0,0:0:0:0:
306,290,158749,6,0,P|271:328|201:354,1,107.999996704102,6|0,3:2|2:0,0:0:0:0:
148,322,159072,2,0,L|150:185,1,107.999996704102,6|0,3:2|2:0,0:0:0:0:
66,185,159394,2,0,B|172:158|137:210|266:184,1,161.999995056153,6|6,3:2|3:2,0:0:0:0:
225,190,160039,2,0,L|294:248,1,53.9999983520508,14|0,3:2|2:0,0:0:0:0:
225,190,160254,2,0,L|305:190,1,53.9999983520508,14|0,3:2|2:0,0:0:0:0:
275,52,160470,5,2,3:2:0:0:
251,81,160577,1,2,2:0:0:0:
217,97,160685,1,2,2:0:0:0:
179,95,160792,1,2,2:0:0:0:
140,78,160900,2,0,L|31:51,1,107.999996704102,10|2,2:0|2:0,0:0:0:0:
35,52,161222,1,2,2:0:0:0:
35,52,161330,5,2,3:2:0:0:
143,205,161545,2,0,L|92:220,1,53.9999983520508,2|2,2:0|2:0,0:0:0:0:
31,296,161760,2,0,P|0:215|7:167,1,107.999996704102,10|2,2:0|2:0,0:0:0:0:
0,195,162082,1,2,2:0:0:0:
0,195,162190,5,6,3:2:0:0:
145,341,162405,1,0,2:0:0:0:
145,341,162513,1,2,2:0:0:0:
145,341,162620,2,0,L|269:307,1,107.999996704102,10|2,2:0|2:0,0:0:0:0:
249,312,162943,1,2,2:0:0:0:
249,312,163050,2,0,L|309:252,1,53.9999983520508,2|10,3:2|2:0,0:0:0:0:
475,321,163373,5,0,3:0:0:0:
475,321,163480,1,10,2:0:0:0:
488,114,163695,6,0,L|413:149,1,53.9999983520508,2|2,3:2|2:0,0:0:0:0:
357,160,163910,1,2,3:2:0:0:
323,134,164018,1,2,2:0:0:0:
308,97,164125,1,2,2:0:0:0:
309,55,164233,1,2,2:0:0:0:
329,17,164340,2,0,L|443:32,1,107.999996704102,10|2,2:0|2:0,0:0:0:0:
436,31,164663,1,2,2:0:0:0:
436,31,164771,5,2,3:2:0:0:
366,202,164986,2,0,P|282:157|153:152,2,215.999993408203,2|2|2,0:0|2:0|2:0,0:0:0:0:
219,260,166061,5,10,2:0:0:0:
175,248,166168,1,2,2:0:0:0:
130,236,166276,1,2,2:0:0:0:
118,280,166383,1,2,3:2:0:0:
106,324,166491,1,2,3:2:0:0:
151,336,166598,1,2,2:0:0:0:
195,348,166706,1,2,3:2:0:0:
207,304,166814,1,2,2:0:0:0:
219,260,166921,2,0,B|307:248|267:298|379:285,1,161.999995056153,14|0,2:0|2:0,0:0:0:0:
401,323,167351,5,6,3:2:0:0:
494,230,167566,1,2,2:0:0:0:
504,189,167674,1,2,2:0:0:0:
494,158,167781,2,0,L|372:137,1,107.999996704102,10|2,2:0|2:0,0:0:0:0:
387,139,168104,1,2,2:0:0:0:
387,139,168211,6,0,L|395:70,1,53.9999983520508,2|2,3:2|2:0,0:0:0:0:
511,0,168426,2,0,L|446:28,1,53.9999983520508,2|0,2:0|2:0,0:0:0:0:
305,111,168642,2,0,L|192:67,1,107.999996704102,10|2,2:0|2:0,0:0:0:0:
204,71,168964,1,2,2:0:0:0:
204,71,169072,5,6,3:2:0:0:
308,243,169287,1,2,2:0:0:0:
308,243,169394,1,2,2:0:0:0:
308,243,169502,2,0,L|283:370,1,107.999996704102,8|2,2:0|2:0,0:0:0:0:
287,348,169824,1,2,2:0:0:0:
287,348,169932,6,0,L|216:359,1,53.9999983520508,0|8,3:0|2:0,0:0:0:0:
118,365,170147,2,0,L|55:376,2,53.9999983520508,0|0|8,3:2|3:2|0:2,0:2:0:0:
170,243,170577,1,0,3:0:0:0:
50,287,170792,6,0,L|16:72,1,215.999993408203,6|8,3:2|2:0,0:0:0:0:
293,226,171437,2,0,P|183:228|116:112,1,215.999993408203,2|0,2:0|2:0,0:0:0:0:
186,88,171975,1,2,2:0:0:0:
186,88,172082,2,0,L|261:73,1,53.9999983520508,8|0,2:0|2:0,0:0:0:0:
96,52,172297,2,0,L|81:-23,1,53.9999983520508,2|0,2:0|2:0,0:0:0:0:
120,151,172513,6,0,P|84:208|-3:215,1,107.999996704102,6|2,3:2|2:0,0:0:0:0:
48,222,172835,1,0,2:0:0:0:
48,222,172943,1,10,2:0:0:0:
210,335,173158,1,10,2:0:0:0:
244,338,173265,1,8,0:0:0:0:
279,328,173373,1,6,3:2:0:0:
309,308,173480,1,0,3:2:0:0:
327,276,173588,1,2,3:2:0:0:
335,241,173695,1,2,3:2:0:0:
333,205,173803,1,8,2:0:0:0:
198,206,174018,2,0,L|254:256,1,53.9999983520508,0|0,3:0|3:0,0:0:0:0:
392,359,174233,5,6,3:2:0:0:
392,359,174340,1,2,2:0:0:0:
392,359,174448,1,2,2:0:0:0:
449,180,174663,1,10,2:0:0:0:
260,125,174878,1,2,2:0:0:0:
199,314,175093,1,2,3:2:0:0:
324,384,175308,5,2,3:2:0:0:
324,384,175416,1,0,3:2:0:0:
324,384,175523,1,10,2:0:0:0:
333,205,175738,1,2,2:0:0:0:
117,293,175953,2,0,P|58:262|23:183,1,107.999996704102,6|2,3:2|3:2,0:0:0:0:
34,229,176276,1,2,2:0:0:0:
34,229,176383,1,10,2:0:0:0:
44,187,176491,1,2,2:0:0:0:
73,155,176599,1,2,3:2:0:0:
115,146,176706,1,2,2:0:0:0:
152,168,176814,2,0,L|176:12,1,135.000005149842,6|2,3:2|2:0,0:0:0:0:
14,127,177674,5,6,2:0:0:0:
144,296,178534,1,2,2:0:0:0:
265,174,179394,1,2,2:0:0:0:
356,264,179824,1,2,2:0:0:0:
441,125,180254,1,2,2:0:0:0:
490,379,181115,5,2,2:0:0:0:
254,282,181975,1,2,2:0:0:0:
441,125,182835,1,2,2:0:0:0:
479,249,183695,1,2,2:0:0:0:
335,105,184125,1,2,2:0:0:0:
216,197,184556,6,0,L|201:147,2,33.7500012874604,6|2|2,2:0|0:0|0:0,0:0:0:0:
315,235,184986,2,0,L|288:374,1,135.000005149842,2|2,2:0|2:0,0:0:0:0:
196,312,185631,1,2,2:0:0:0:
196,312,185738,2,0,P|138:308|83:332,1,101.250003862381,2|2,2:0|2:0,0:0:0:0:
19,206,186276,1,2,2:0:0:0:
93,235,186491,1,2,2:0:0:0:
122,159,186706,1,2,2:0:0:0:
47,126,186921,1,2,2:0:0:0:
0,307,187136,2,0,P|52:307|109:328,1,101.250003862381,2|2,2:0|2:0,0:0:0:0:
207,266,187781,5,2,2:0:0:0:
207,266,187889,1,2,2:0:0:0:
207,266,187996,2,0,P|207:186|228:107,1,135.000005149842,6|2,2:0|2:0,0:0:0:0:
218,132,188857,1,6,2:0:0:0:
263,42,189072,1,2,2:0:0:0:
163,57,189287,2,0,L|78:79,1,67.5000025749208,2|2,2:0|2:0,0:0:0:0:
346,79,189717,6,0,P|396:93|485:235,1,202.500007724762,6|0,2:0|0:0,0:0:0:0:
482,208,190577,2,0,P|460:241|437:276,1,67.5000025749208,2|2,2:0|2:0,0:0:0:0:
510,381,191007,2,0,L|438:336,1,67.5000025749208,2|2,2:0|2:0,0:0:0:0:
301,252,191437,5,6,3:2:0:0:
318,294,191545,1,2,2:0:0:0:
335,339,191652,1,2,2:0:0:0:
378,167,191867,1,10,2:0:0:0:
209,130,192082,1,2,2:0:0:0:
174,309,192297,2,0,P|115:345|38:322,1,107.999996704102,2|2,3:2|2:0,0:0:0:0:
20,287,192620,2,0,L|-2:169,1,107.999996704102,2|0,2:0|2:0,0:0:0:0:
0,180,192943,1,2,2:0:0:0:
203,217,193158,5,2,3:2:0:0:
252,235,193265,1,2,2:0:0:0:
301,252,193373,1,2,2:0:0:0:
141,18,193588,2,0,L|114:138,1,107.999996704102,10|2,2:0|2:0,0:0:0:0:
117,123,193910,1,2,2:0:0:0:
117,123,194018,2,0,P|96:76|73:53,1,53.9999983520508,0|8,3:0|2:0,0:0:0:0:
14,58,194233,1,0,2:0:0:0:
230,34,194448,2,0,P|253:88|257:155,1,107.999996704102,10|2,2:0|3:2,0:0:0:0:
497,192,194878,5,2,3:2:0:0:
462,172,194986,1,2,2:0:0:0:
417,152,195093,1,2,2:0:0:0:
445,370,195308,2,0,P|456:311|480:268,1,107.999996704102,14|2,3:2|2:0,0:0:0:0:
342,69,195738,1,6,3:2:0:0:
388,51,195845,1,2,2:0:0:0:
437,39,195953,1,2,2:0:0:0:
281,241,196168,2,0,P|222:215|155:211,1,107.999996704102,12|2,0:0|2:0,0:0:0:0:
63,370,196599,5,6,3:2:0:0:
110,351,196706,1,2,2:0:0:0:
161,333,196814,1,2,2:0:0:0:
50,218,197029,1,12,0:0:0:0:
259,318,197244,1,2,2:0:0:0:
312,162,197459,5,6,3:2:0:0:
179,209,197674,1,2,3:2:0:0:
127,77,197889,1,14,3:2:0:0:
269,28,198104,1,2,3:2:0:0:
418,227,198319,5,6,3:2:0:0:
431,189,198426,1,2,2:0:0:0:
444,149,198534,1,2,2:0:0:0:
306,326,198749,2,0,L|192:293,1,107.999996704102,10|2,2:0|2:0,0:0:0:0:
121,10,199179,2,0,P|158:68|164:112,1,107.999996704102,2|2,3:2|2:0,0:0:0:0:
98,142,199502,2,0,P|30:163|7:202,1,107.999996704102,2|0,2:0|2:0,0:0:0:0:
11,192,199824,1,2,2:0:0:0:
305,103,200039,5,2,3:2:0:0:
318,153,200146,1,2,2:0:0:0:
332,202,200254,1,2,2:0:0:0:
194,175,200470,2,0,L|257:196,1,53.9999983520508,10|0,2:0|2:0,0:0:0:0:
442,236,200685,1,2,2:0:0:0:
201,280,200900,1,10,2:0:0:0:
393,54,201115,1,2,2:0:0:0:
393,54,201222,2,0,L|420:169,1,107.999996704102,10|0,2:0|2:0,0:0:0:0:
442,236,201545,2,0,P|412:259|403:289,1,53.9999983520508,2|2,3:2|3:2,0:0:0:0:
332,202,201760,6,0,P|325:283|345:362,1,161.999995056153,6|0,3:2|2:0,0:0:0:0:
344,360,202190,1,10,2:0:0:0:
443,343,202405,1,0,0:0:0:0:
243,234,202620,1,6,3:2:0:0:
193,250,202728,1,2,2:0:0:0:
145,269,202835,1,2,2:0:0:0:
323,93,203050,2,0,L|438:143,1,107.999996704102,10|2,2:0|2:0,0:0:0:0:
149,16,203480,5,6,3:2:0:0:
168,52,203588,1,2,2:0:0:0:
187,91,203695,1,2,2:0:0:0:
17,217,203910,1,8,2:0:0:0:
29,167,204018,1,0,3:0:0:0:
41,116,204125,1,0,3:2:0:0:
271,200,204340,5,10,2:0:0:0:
303,47,204556,1,2,3:2:0:0:
149,16,204771,1,10,2:0:0:0:
116,165,204986,2,0,P|130:200|154:216,1,53.9999983520508,2|0,3:2|2:0,0:0:0:0:
325,287,205201,6,0,P|354:208|336:108,1,161.999995056153,6|0,3:2|2:0,0:0:0:0:
346,132,205631,1,10,2:0:0:0:
251,296,205846,1,2,2:0:0:0:
442,374,206061,2,0,P|424:295|427:231,1,107.999996704102,2|2,3:2|2:0,0:0:0:0:
485,217,206383,2,0,P|497:153|490:102,1,107.999996704102,2|0,2:0|2:0,0:0:0:0:
492,110,206706,1,2,2:0:0:0:
278,52,206921,5,2,3:2:0:0:
317,36,207028,1,2,2:0:0:0:
360,22,207136,1,2,2:0:0:0:
196,170,207351,1,10,2:0:0:0:
149,153,207459,1,2,2:0:0:0:
102,135,207566,1,2,2:0:0:0:
292,349,207781,1,0,3:0:0:0:
292,349,207889,2,0,P|297:278|314:223,1,107.999996704102,8|0,2:0|3:0,0:0:0:0:
306,242,208211,1,8,2:0:0:0:
169,284,208426,1,2,3:2:0:0:
393,324,208642,6,0,L|511:305,1,107.999996704102,2|2,3:2|2:0,0:0:0:0:
499,306,208964,1,2,2:0:0:0:
499,306,209072,1,14,3:2:0:0:
318,143,209287,1,2,2:0:0:0:
439,232,209502,2,0,P|457:160|453:111,1,107.999996704102,6|2,3:2|2:0,0:0:0:0:
455,126,209824,1,2,2:0:0:0:
455,126,209932,1,12,0:0:0:0:
268,61,210147,1,2,2:0:0:0:
194,252,210362,5,6,3:2:0:0:
236,235,210470,1,2,2:0:0:0:
282,218,210577,1,2,2:0:0:0:
77,189,210792,1,8,0:0:0:0:
295,315,211007,1,2,2:0:0:0:
191,82,211222,5,6,3:2:0:0:
375,220,211437,1,2,3:2:0:0:
351,174,211545,1,0,3:2:0:0:
327,123,211652,1,14,3:2:0:0:
196,329,211867,1,2,3:2:0:0:
37,224,212082,5,6,3:2:0:0:
52,183,212190,1,2,2:0:0:0:
65,142,212297,1,2,2:0:0:0:
145,53,212513,2,0,P|190:81|222:86,1,53.9999983520508,10|0,2:0|0:0,0:0:0:0:
290,14,212728,1,2,2:0:0:0:
489,85,212943,2,0,L|471:212,1,107.999996704102,2|2,3:2|2:0,0:0:0:0:
512,261,213265,2,0,L|496:371,1,107.999996704102,2|0,2:0|2:0,0:0:0:0:
496,367,213588,1,2,2:0:0:0:
314,189,213803,5,2,3:2:0:0:
360,210,213910,1,2,2:0:0:0:
408,232,214018,1,2,2:0:0:0:
159,251,214233,1,10,2:0:0:0:
354,115,214448,1,2,2:0:0:0:
266,360,214663,2,0,L|241:230,1,107.999996704102,10|2,2:0|2:0,0:0:0:0:
246,254,214986,1,8,2:0:0:0:
246,254,215093,1,0,3:2:0:0:
36,187,215308,5,2,3:2:0:0:
86,168,215416,1,2,3:2:0:0:
136,147,215523,1,6,3:2:0:0:
53,287,215738,1,0,0:0:0:0:
142,52,215953,2,0,L|256:86,1,107.999996704102,10|0,2:0|0:0,0:0:0:0:
472,121,216383,1,6,3:2:0:0:
418,144,216491,1,2,2:0:0:0:
366,167,216599,1,2,2:0:0:0:
347,29,216814,1,10,2:0:0:0:
478,222,217029,1,2,2:0:0:0:
282,161,217244,6,0,P|241:200|218:261,1,107.999996704102,6|0,3:2|0:0,0:0:0:0:
282,291,217566,2,0,P|323:252|346:191,1,107.999996704102,2|0,2:0|0:0,0:0:0:0:
343,205,217889,1,2,2:0:0:0:
162,175,218104,1,0,3:0:0:0:
162,175,218211,1,0,3:2:0:0:
162,175,218319,1,2,3:2:0:0:
389,302,218534,1,8,2:0:0:0:
404,120,218749,5,2,3:2:0:0:
404,120,218857,1,2,2:0:0:0:
404,120,218964,2,0,P|299:88|201:19,1,215.999993408203,6|10,3:2|2:0,0:0:0:0:
211,29,219824,2,0,P|169:65|112:63,1,107.999996704102,6|0,3:2|2:0,0:0:0:0:
51,26,220147,2,0,P|10:74|13:127,1,107.999996704102,6|0,3:2|2:0,0:0:0:0:
9,116,220470,1,6,3:2:0:0:
118,233,220685,5,6,3:2:0:0:
126,203,220792,1,2,2:0:0:0:
133,171,220900,1,2,2:0:0:0:
2,245,221115,2,0,L|29:352,1,107.999996704102,10|0,2:0|2:0,0:0:0:0:
28,349,221437,1,0,3:0:0:0:
28,349,221545,1,10,2:0:0:0:
115,320,221760,2,0,L|192:302,1,53.9999983520508,2|0,2:0|2:0,0:0:0:0:
246,382,221975,1,10,2:0:0:0:
253,352,222082,1,2,0:0:0:0:
261,321,222190,1,2,2:0:0:0:
268,291,222297,1,2,0:0:0:0:
276,260,222405,6,0,P|317:333|451:339,1,215.999993408203,6|10,3:2|2:0,0:0:0:0:
500,279,223050,1,2,2:0:0:0:
500,279,223158,1,2,2:0:0:0:
500,279,223265,1,2,3:2:0:0:
359,226,223480,1,0,2:0:0:0:
492,169,223695,2,0,P|506:111|489:55,1,107.999996704102,8|2,0:0|2:0,0:0:0:0:
332,8,224125,5,2,3:2:0:0:
326,34,224233,1,2,2:0:0:0:
321,60,224340,1,2,2:0:0:0:
316,86,224448,1,2,2:0:0:0:
311,112,224556,1,10,2:0:0:0:
287,99,224663,1,2,2:0:0:0:
263,85,224771,1,2,2:0:0:0:
239,71,224878,1,2,2:0:0:0:
215,57,224986,6,0,B|154:68|154:68|124:93|124:93|45:117,1,161.999995056153,2|2,3:2|3:2,0:0:0:0:
9,59,225416,1,8,2:0:0:0:
18,191,225631,1,2,3:2:0:0:
189,154,225846,6,0,P|222:174|241:194,1,53.9999983520508,2|2,3:2|2:0,0:0:0:0:
270,285,226061,1,2,2:0:0:0:
270,304,226168,1,2,2:0:0:0:
260,331,226276,1,14,2:0:0:0:
244,353,226383,1,2,2:0:0:0:
216,366,226491,1,2,2:0:0:0:
174,365,226599,1,2,2:0:0:0:
135,348,226706,6,0,L|124:276,1,53.9999983520508,2|2,3:2|2:0,0:0:0:0:
43,332,226921,2,0,L|32:260,1,53.9999983520508,2|2,2:0|2:0,0:0:0:0:
18,191,227136,1,14,2:0:0:0:
18,191,227244,1,2,2:0:0:0:
18,191,227351,1,2,2:0:0:0:
144,79,227566,6,0,L|212:67,1,53.9999983520508,6|2,3:2|2:0,0:0:0:0:
189,154,227781,2,0,L|257:142,1,53.9999983520508,2|2,2:0|2:0,0:0:0:0:
249,230,227996,1,10,2:0:0:0:
249,230,228104,1,2,2:0:0:0:
249,230,228211,1,2,2:0:0:0:
336,166,228426,2,0,L|442:143,1,107.999996704102,2|2,3:2|3:2,0:0:0:0:
343,281,228857,2,0,L|380:403,1,107.999996704102,10|2,2:0|3:2,0:0:0:0:
249,230,229287,6,0,B|139:215|196:161|43:140,1,215.999993408203,6|10,3:2|2:0,0:0:0:0:
124,269,229932,1,2,2:0:0:0:
242,144,230147,2,0,P|254:85|264:27,1,107.999996704102,2|0,3:2|2:0,0:0:0:0:
322,174,230470,2,0,P|334:233|344:291,1,107.999996704102,2|0,2:0|2:0,0:0:0:0:
342,280,230792,1,2,2:0:0:0:
501,248,231007,6,0,P|462:188|455:139,1,107.999996704102,2|2,3:2|2:0,0:0:0:0:
392,111,231330,2,0,P|402:57|400:-2,1,107.999996704102,2|0,2:0|2:0,0:0:0:0:
400,4,231652,1,2,2:0:0:0:
322,174,231867,2,0,P|257:188|157:143,2,161.999995056153,2|2|2,3:2|3:2|3:2,0:0:0:0:
314,159,232620,1,2,2:0:0:0:
306,145,232728,5,6,3:2:0:0:
420,260,232943,1,2,2:0:0:0:
266,290,233158,2,0,L|158:349,1,107.999996704102,10|2,2:0|0:0,0:0:0:0:
141,184,233588,2,0,P|116:270|51:316,2,161.999995056153,6|2|2,3:2|2:0|2:0,0:0:0:0:
0,117,234448,6,0,L|115:88,1,107.999996704102,6|0,3:2|2:0,0:0:0:0:
152,27,234771,2,0,P|215:44|251:80,1,107.999996704102,2|0,2:0|0:0,0:0:0:0:
245,72,235093,1,2,2:0:0:0:
380,22,235308,1,10,0:2:0:0:
380,22,235416,1,10,0:2:0:0:
380,22,235523,1,2,3:2:0:0:
422,151,235738,1,10,2:0:0:0:
434,186,235846,1,8,2:0:0:0:
447,221,235953,1,2,3:2:0:0:
459,256,236061,1,0,3:0:0:0:
467,292,236168,6,0,P|497:223|480:75,1,215.999993408203,6|10,3:2|2:0,0:0:0:0:
486,2,236814,1,2,2:0:0:0:
486,2,236921,1,2,2:0:0:0:
486,2,237029,2,0,L|359:25,1,107.999996704102,2|2,3:2|2:0,0:0:0:0:
314,127,237351,2,0,L|291:0,1,107.999996704102,2|2,2:0|2:0,0:0:0:0:
295,21,237674,1,2,2:0:0:0:
214,130,237889,5,2,3:2:0:0:
197,155,237996,1,2,2:0:0:0:
181,179,238104,1,2,2:0:0:0:
136,69,238319,2,0,L|22:46,1,107.999996704102,10|0,2:0|0:0,0:0:0:0:
52,300,238749,2,0,P|86:237|84:132,1,161.999995056153,2|2,3:2|3:2,0:0:0:0:
89,148,239179,1,10,2:0:0:0:
3,204,239394,1,2,3:2:0:0:
160,299,239609,5,2,3:2:0:0:
197,292,239717,1,2,2:0:0:0:
234,285,239824,1,2,2:0:0:0:
271,279,239932,1,2,2:0:0:0:
308,274,240039,1,14,2:0:0:0:
244,189,240254,1,2,2:0:0:0:
382,338,240470,2,0,P|399:287|392:234,1,107.999996704102,2|2,3:2|2:0,0:0:0:0:
392,234,240792,1,2,2:0:0:0:
392,234,240900,1,14,2:0:0:0:
482,160,241115,1,2,2:0:0:0:
308,274,241330,6,0,P|273:180|274:56,1,215.999993408203,6|10,3:2|2:0,0:0:0:0:
366,121,241975,1,2,2:0:0:0:
384,136,242082,1,2,3:2:0:0:
399,152,242190,1,2,3:2:0:0:
401,0,242405,1,2,3:2:0:0:
272,65,242620,2,0,L|156:94,1,107.999996704102,10|2,2:0|3:2,0:0:0:0:
36,83,243050,5,6,3:2:0:0:
21,44,243158,1,2,0:0:0:0:
5,0,243265,1,2,0:0:0:0:
167,91,243480,2,0,P|173:151|155:202,1,107.999996704102,10|2,2:0|2:0,0:0:0:0:
159,196,243803,1,2,2:0:0:0:
159,196,243910,1,2,3:2:0:0:
38,173,244125,2,0,P|58:209|67:249,1,53.9999983520508,2|2,2:0|2:0,0:0:0:0:
110,283,244340,1,10,2:0:0:0:
100,302,244448,1,2,2:0:0:0:
85,313,244556,1,2,2:0:0:0:
4,317,244771,6,0,P|56:325|120:362,1,107.999996704102,2|2,3:2|2:0,0:0:0:0:
185,351,245093,1,2,2:0:0:0:
185,351,245201,2,0,P|219:316|227:296,1,53.9999983520508,10|2,2:0|2:0,0:0:0:0:
302,317,245416,2,0,P|306:266|300:241,1,53.9999983520508,2|2,2:0|2:0,0:0:0:0:
332,184,245631,6,0,P|354:263|438:327,1,161.999995056153,2|2,3:2|3:2,0:0:0:0:
487,324,246061,1,8,2:0:0:0:
416,153,246276,1,2,3:2:0:0:
512,69,246491,6,0,P|427:38|294:49,1,215.999993408203,6|8,3:2|2:0,0:0:0:0:
216,103,247136,1,2,2:0:0:0:
216,103,247244,1,2,2:0:0:0:
216,103,247351,2,0,P|192:34|184:-5,1,107.999996704102,6|0,3:2|2:0,0:0:0:0:
303,45,247674,2,0,P|327:114|335:153,1,107.999996704102,2|0,2:0|2:0,0:0:0:0:
270,236,247996,2,0,P|252:198|240:153,1,53.9999983520508,2|0,2:0|2:0,0:0:0:0:
206,315,248211,5,6,3:2:0:0:
206,315,248319,1,2,2:0:0:0:
206,315,248426,1,2,2:0:0:0:
206,315,248534,1,2,2:0:0:0:
206,315,248642,2,0,P|124:332|53:208,1,215.999993408203,8|8,2:0|2:0,0:0:0:0:
124,120,249287,1,2,2:0:0:0:
141,153,249394,1,2,2:0:0:0:
156,182,249502,1,2,3:2:0:0:
159,28,249717,1,2,3:2:0:0:
38,157,249932,6,0,P|5:84|5:-9,2,161.999995056153,6|2|0,3:2|0:0|2:0,0:0:0:0:
159,28,250792,2,0,L|270:56,1,107.999996704102,6|0,3:2|2:0,0:0:0:0:
326,2,251115,2,0,L|439:25,1,107.999996704102,6|0,3:2|2:0,0:0:0:0:
432,24,251437,1,6,3:2:0:0:
341,200,251652,6,0,P|334:123|357:69,1,107.999996704102,6|2,3:2|2:0,0:0:0:0:
343,95,251975,1,0,3:2:0:0:
343,95,252082,1,8,2:0:0:0:
280,294,252297,2,0,P|255:243|254:220,1,53.9999983520508,2|0,0:0|2:0,0:0:0:0:
408,353,252513,1,2,3:2:0:0:
444,351,252620,1,0,3:2:0:0:
478,334,252728,1,0,3:2:0:0:
501,131,252943,5,8,2:0:0:0:
505,173,253050,1,8,2:0:0:0:
496,215,253158,1,2,3:2:0:0:
469,249,253265,1,2,3:2:0:0:
428,263,253373,1,6,3:2:0:0:
256,192,253588,12,0,260254,2:0:0:0:
