osu file format v14

[General]
AudioFilename: audio.mp3
AudioLeadIn: 0
PreviewTime: 27029
Countdown: 0
SampleSet: Soft
StackLeniency: 0
Mode: 0
LetterboxInBreaks: 0
WidescreenStoryboard: 1

[Editor]
Bookmarks: 14233,21115,27996,43480,57244,64125,71007,84771,100254,114018,120900,127781,141545,155308,160470,177674,191437,205201,218964,222405,236115,260254
DistanceSpacing: 0.4
BeatDivisor: 8
GridSize: 16
TimelineZoom: 1.5

[Metadata]
Title:LEVEL5 -judgelight-
TitleUnicode:LEVEL5 -judgelight-
Artist:fripSide
ArtistUnicode:fripSide
Creator:iRedi
Version:-extreme-
Source:とある科学の超電磁砲
Tags:agllius -_matha_- matha petal lancien Opening Opening2 Op2 2 Misaka Mikoto Shirai Kuroko 御坂美琴 白井黒子 level sisters japanese anime pop jpop j-pop female vocal full version toaru kagaku no railgun a certain scientific index lv5 lvl 5 八木沼悟志 yaginuma satoshi
BeatmapID:4348854
BeatmapSetID:2074570

[Difficulty]
HPDrainRate:5
CircleSize:4.2
OverallDifficulty:9
ApproachRate:9.4
SliderMultiplier:1.7
SliderTickRate:1

[Events]
//Background and Video events
0,0,"BG.jpg",0,0
//Break Periods
//Storyboard Layer 0 (Background)
//Storyboard Layer 1 (Fail)
//Storyboard Layer 2 (Pass)
//Storyboard Layer 3 (Foreground)
//Storyboard Layer 4 (Overlay)
//Storyboard Sound Samples

[TimingPoints]
470,430.107526881721,4,2,1,40,1,0
14448,-100,4,2,1,45,0,0
17136,-125,4,2,1,45,0,0
17674,-100,4,2,1,45,0,0
20254,-83.3333333333333,4,2,1,45,0,0
20577,-250,4,2,1,45,0,0
21115,-71.4285714285714,4,2,2,50,0,0
21437,-71.4285714285714,4,2,1,50,0,0
21975,-100,4,2,1,50,0,0
22835,-166.666666666667,4,2,1,50,0,0
23695,-100,4,2,1,50,0,0
24018,-125,4,2,1,50,0,0
24340,-166.666666666667,4,2,1,50,0,0
24556,-55.5555555555556,4,2,1,50,0,0
24771,-125,4,2,1,50,0,0
24986,-55.5555555555556,4,2,1,50,0,0
25201,-142.857142857143,4,2,1,50,0,0
25416,-55.5555555555556,4,2,1,50,0,0
25631,-166.666666666667,4,2,1,50,0,0
25846,-55.5555555555556,4,2,1,50,0,0
26061,-200,4,2,1,50,0,0
27996,-50,4,2,2,75,0,1
28104,-50,4,2,1,75,0,1
28319,-55.5555555555556,4,2,1,75,0,1
28803,-55.5555555555556,4,2,1,5,0,1
28857,-55.5555555555556,4,2,1,75,0,1
29878,-55.5555555555556,4,2,1,5,0,1
29932,-55.5555555555556,4,2,1,75,0,1
34878,-50,4,2,1,75,0,1
35201,-55.5555555555556,4,2,1,75,0,1
35685,-55.5555555555556,4,2,1,5,0,1
35738,-55.5555555555556,4,2,1,75,0,1
38319,-62.5,4,2,1,75,0,1
39179,-45.4545454545455,4,2,1,75,0,1
39502,-62.5,4,2,1,75,0,1
39824,-50,4,2,1,75,0,1
40039,-55.5555555555556,4,2,2,75,0,1
40254,-55.5555555555556,4,2,1,75,0,1
41491,-55.5555555555556,4,2,1,5,0,1
41545,-55.5555555555556,4,2,1,75,0,1
41921,-55.5555555555556,4,2,1,5,0,1
41975,-55.5555555555556,4,2,1,75,0,1
42136,-55.5555555555556,4,2,1,5,0,1
42190,-55.5555555555556,4,2,1,75,0,1
43480,-100,4,2,2,40,0,0
43802,-100,4,2,1,40,0,0
49878,-100,4,2,1,5,0,0
49932,-100,4,2,1,40,0,0
50039,-166.666666666667,4,2,1,40,0,0
50362,-71.4285714285714,4,2,1,40,0,0
50792,-100,4,2,1,40,0,0
52513,-71.4285714285714,4,2,1,40,0,0
52943,-100,4,2,1,40,0,0
53803,-71.4285714285714,4,2,1,40,0,0
54233,-100,4,2,1,40,0,0
55523,-71.4285714285714,4,2,1,40,0,0
55846,-100,4,2,1,40,0,0
57244,-71.4285714285714,4,2,1,45,0,0
58104,-100,4,2,1,45,0,0
58964,-166.666666666667,4,2,1,45,0,0
59824,-83.3333333333333,4,2,1,45,0,0
60631,-83.3333333333333,4,2,1,5,0,0
60685,-71.4285714285714,4,2,1,45,0,0
61545,-100,4,2,1,45,0,0
62405,-166.666666666667,4,2,1,45,0,0
63265,-83.3333333333333,4,2,1,45,0,0
63480,-166.666666666667,4,2,1,45,0,0
63695,-83.3333333333333,4,2,1,45,0,0
64125,-71.4285714285714,4,2,1,50,0,0
65416,-142.857142857143,4,2,1,50,0,0
65846,-71.4285714285714,4,2,1,50,0,0
67566,-71.4285714285714,4,2,1,60,0,0
71007,-50,4,2,2,75,0,1
71115,-50,4,2,1,75,0,1
71330,-55.5555555555556,4,2,1,75,0,1
71814,-55.5555555555556,4,2,1,5,0,1
71867,-55.5555555555556,4,2,1,75,0,1
72889,-55.5555555555556,4,2,1,5,0,1
72943,-55.5555555555556,4,2,1,75,0,1
77889,-50,4,2,1,75,0,1
78212,-55.5555555555556,4,2,1,75,0,1
78695,-55.5555555555556,4,2,1,5,0,1
78749,-55.5555555555556,4,2,1,75,0,1
81330,-62.5,4,2,1,75,0,1
82190,-45.4545454545455,4,2,1,75,0,1
82351,-55.5555555555556,4,2,1,5,0,1
82405,-62.5,4,2,1,75,0,1
83050,-43.4782608695652,4,2,1,75,0,1
83211,-55.5555555555556,4,2,1,5,0,1
83265,-55.5555555555556,4,2,1,75,0,1
83373,-83.3333333333333,4,2,1,75,0,1
83910,-55.5555555555556,4,2,1,75,0,0
84771,-45.4545454545455,4,2,1,75,0,1
85094,-52.6315789473684,4,2,1,75,0,1
85362,-52.6315789473684,4,2,1,5,0,1
85416,-52.6315789473684,4,2,1,75,0,1
85577,-55.5555555555556,4,2,1,5,0,1
85631,-52.6315789473684,4,2,1,75,0,1
86652,-55.5555555555556,4,2,1,5,0,1
86706,-52.6315789473684,4,2,1,75,0,1
90953,-55.5555555555556,4,2,1,5,0,1
91007,-52.6315789473684,4,2,1,75,0,1
91652,-47.6190476190476,4,2,1,75,0,1
91976,-52.6315789473684,4,2,1,75,0,1
92459,-55.5555555555556,4,2,1,5,0,1
92513,-52.6315789473684,4,2,1,75,0,1
95093,-58.8235294117647,4,2,1,75,0,1
95953,-43.4782608695652,4,2,1,75,0,1
96115,-55.5555555555556,4,2,1,5,0,1
96168,-58.8235294117647,4,2,1,75,0,1
96812,-41.6666666666667,4,2,1,75,0,1
97135,-76.9230769230769,4,2,1,75,0,1
97672,-52.6315789473684,4,2,1,75,0,1
98695,-55.5555555555556,4,2,1,5,0,1
98749,-52.6315789473684,4,2,1,75,0,1
100254,-100,4,2,2,40,0,0
100576,-100,4,2,1,40,0,0
106652,-100,4,2,1,5,0,0
106706,-100,4,2,1,40,0,0
106813,-166.666666666667,4,2,1,40,0,0
107082,-166.666666666667,4,2,1,5,0,0
107136,-71.4285714285714,4,2,1,40,0,0
107566,-100,4,2,1,40,0,0
109287,-71.4285714285714,4,2,1,40,0,0
109717,-100,4,2,1,40,0,0
110577,-71.4285714285714,4,2,1,40,0,0
111007,-100,4,2,1,40,0,0
112297,-71.4285714285714,4,2,1,40,0,0
112620,-100,4,2,1,40,0,0
114018,-71.4285714285714,4,2,1,45,0,0
114878,-100,4,2,1,45,0,0
115738,-166.666666666667,4,2,1,45,0,0
116598,-83.3333333333333,4,2,1,45,0,0
117405,-83.3333333333333,4,2,1,5,0,0
117459,-71.4285714285714,4,2,1,45,0,0
118319,-100,4,2,1,45,0,0
119179,-166.666666666667,4,2,1,45,0,0
120039,-83.3333333333333,4,2,1,45,0,0
120254,-166.666666666667,4,2,1,45,0,0
120469,-83.3333333333333,4,2,1,45,0,0
120899,-71.4285714285714,4,2,1,45,0,0
122190,-142.857142857143,4,2,1,50,0,0
122620,-71.4285714285714,4,2,1,50,0,0
124340,-71.4285714285714,4,2,1,60,0,0
127781,-50,4,2,2,75,0,1
127889,-50,4,2,1,75,0,1
128103,-55.5555555555556,4,2,1,75,0,1
128372,-55.5555555555556,4,2,1,5,0,1
128426,-55.5555555555556,4,2,1,75,0,1
128588,-55.5555555555556,4,2,1,5,0,1
128642,-55.5555555555556,4,2,1,75,0,1
129663,-55.5555555555556,4,2,1,5,0,1
129717,-55.5555555555556,4,2,1,75,0,1
134662,-50,4,2,1,75,0,1
134985,-55.5555555555556,4,2,1,75,0,1
135254,-55.5555555555556,4,2,1,5,0,1
135308,-55.5555555555556,4,2,1,75,0,1
135470,-55.5555555555556,4,2,1,5,0,1
135523,-55.5555555555556,4,2,1,75,0,1
138103,-62.5,4,2,1,75,0,1
138963,-45.4545454545455,4,2,1,75,0,1
139125,-55.5555555555556,4,2,1,5,0,1
139178,-62.5,4,2,1,75,0,1
139823,-43.4782608695652,4,2,1,75,0,1
139986,-55.5555555555556,4,2,1,5,0,1
140038,-55.5555555555556,4,2,1,75,0,1
140146,-83.3333333333333,4,2,1,75,0,1
140685,-55.5555555555556,4,2,1,75,0,0
141545,-45.4545454545455,4,2,1,75,0,1
141867,-52.6315789473684,4,2,1,75,0,1
142351,-55.5555555555556,4,2,1,5,0,1
142405,-52.6315789473684,4,2,1,75,0,1
143426,-55.5555555555556,4,2,1,5,0,1
143480,-52.6315789473684,4,2,1,75,0,1
147728,-55.5555555555556,4,2,1,5,0,1
147781,-52.6315789473684,4,2,1,75,0,1
148426,-47.6190476190476,4,2,1,75,0,1
148749,-52.6315789473684,4,2,1,75,0,1
149018,-52.6315789473684,4,2,1,5,0,1
149072,-52.6315789473684,4,2,1,75,0,1
149233,-55.5555555555556,4,2,1,5,0,1
149287,-52.6315789473684,4,2,1,75,0,1
151867,-58.8235294117647,4,2,1,75,0,1
152726,-43.4782608695652,4,2,1,75,0,1
152889,-55.5555555555556,4,2,1,5,0,1
152941,-58.8235294117647,4,2,1,75,0,1
153585,-41.6666666666667,4,2,1,75,0,1
153908,-76.9230769230769,4,2,1,75,0,1
154445,-52.6315789473684,4,2,1,75,0,1
155308,-58.8235294117647,4,2,1,75,0,0
156168,-43.4782608695652,4,2,1,75,0,0
156491,-52.6315789473684,4,2,1,75,0,0
156814,-62.5,4,2,1,75,0,0
157029,-50,4,2,1,75,0,1
158749,-200,4,2,1,75,0,1
158964,-200,4,2,1,75,0,0
159072,-111.111111111111,4,2,1,75,0,1
159287,-200,4,2,1,75,0,0
159394,-76.9230769230769,4,2,1,75,0,1
159609,-200,4,2,1,75,0,0
159717,-58.8235294117647,4,2,1,75,0,1
159932,-200,4,2,1,75,0,0
160039,-58.8235294117647,4,2,1,75,0,1
160147,-200,4,2,1,75,0,0
160254,-47.6190476190476,4,2,1,75,0,1
160362,-200,4,2,1,75,0,0
160470,-55.5555555555556,4,2,1,60,0,1
161330,-55.5555555555556,4,2,1,65,0,1
161760,-55.5555555555556,4,2,1,70,0,1
162190,-55.5555555555556,4,2,1,75,0,1
166061,-43.4782608695652,4,2,1,75,0,1
166276,-55.5555555555556,4,2,1,75,0,1
166921,-43.4782608695652,4,2,1,75,0,1
167082,-43.4782608695652,4,2,1,5,0,1
167136,-55.5555555555556,4,2,1,75,0,1
173319,-55.5555555555556,4,2,1,5,0,1
173373,-55.5555555555556,4,2,1,75,0,1
175254,-55.5555555555556,4,2,1,5,0,1
175308,-55.5555555555556,4,2,1,75,0,1
176814,-500,4,2,1,75,0,0
177029,-500,4,2,1,55,0,0
177674,-200,4,2,1,60,0,0
184556,-100,4,2,1,60,0,0
189717,-100,4,2,1,70,0,0
191437,-50,4,2,2,85,0,1
191545,-50,4,2,1,85,0,1
191758,-55.5555555555556,4,2,1,85,0,1
192243,-55.5555555555556,4,2,1,5,0,1
192297,-55.5555555555556,4,2,1,85,0,1
193319,-55.5555555555556,4,2,1,5,0,1
193373,-55.5555555555556,4,2,1,85,0,1
198317,-50,4,2,1,85,0,1
198640,-55.5555555555556,4,2,1,85,0,1
198910,-55.5555555555556,4,2,1,5,0,1
198964,-55.5555555555556,4,2,1,85,0,1
199125,-55.5555555555556,4,2,1,5,0,1
199179,-55.5555555555556,4,2,1,85,0,1
201758,-62.5,4,2,1,85,0,1
202618,-45.4545454545455,4,2,1,85,0,1
202781,-45.4545454545455,4,2,1,5,0,1
202833,-62.5,4,2,1,85,0,1
203478,-43.4782608695652,4,2,1,85,0,1
203642,-43.4782608695652,4,2,1,5,0,1
203693,-55.5555555555556,4,2,1,85,0,1
203801,-83.3333333333333,4,2,1,85,0,1
204340,-55.5555555555556,4,2,1,85,0,0
205201,-45.4545454545455,4,2,1,85,0,1
205522,-52.6315789473684,4,2,1,85,0,1
206007,-52.6315789473684,4,2,1,5,0,1
206061,-52.6315789473684,4,2,1,85,0,1
207082,-52.6315789473684,4,2,1,5,0,1
207136,-52.6315789473684,4,2,1,85,0,1
211383,-52.6315789473684,4,2,1,5,0,1
211437,-52.6315789473684,4,2,1,85,0,1
212081,-47.6190476190476,4,2,1,85,0,1
212404,-52.6315789473684,4,2,1,85,0,1
212674,-52.6315789473684,4,2,1,5,0,1
212728,-52.6315789473684,4,2,1,85,0,1
212889,-52.6315789473684,4,2,1,5,0,1
212943,-52.6315789473684,4,2,1,85,0,1
215522,-58.8235294117647,4,2,1,85,0,1
216381,-43.4782608695652,4,2,1,85,0,1
216545,-43.4782608695652,4,2,1,5,0,1
216596,-58.8235294117647,4,2,1,85,0,1
217240,-41.6666666666667,4,2,1,85,0,1
217563,-76.9230769230769,4,2,1,85,0,1
218100,-52.6315789473684,4,2,1,85,0,1
218964,-58.8235294117647,4,2,1,85,0,0
219824,-43.4782608695652,4,2,1,85,0,0
220147,-52.6315789473684,4,2,1,85,0,0
220470,-62.5,4,2,1,85,0,0
220685,-50,4,2,1,85,0,1
221706,-50,4,2,1,5,0,1
221760,-50,4,2,1,85,0,1
221921,-50,4,2,1,5,0,1
221975,-50,4,2,1,85,0,1
222405,-50,4,2,2,85,0,1
222781,-50,4,2,2,5,0,1
222835,-50,4,2,1,85,0,1
229448,-50,4,2,1,5,0,1
229502,-50,4,2,1,85,0,1
230093,-50,4,2,1,5,0,1
230147,-50,4,2,1,85,0,1
231813,-50,4,2,1,5,0,1
231867,-50,4,2,1,85,0,1
234448,-43.4782608695652,4,2,1,85,0,1
235093,-50,4,2,1,85,0,1
242351,-50,4,2,1,5,0,1
242405,-50,4,2,1,85,0,1
242781,-50,4,2,1,5,0,1
242835,-50,4,2,1,85,0,1
249932,-62.5,4,2,1,85,0,0
250792,-43.4782608695652,4,2,1,85,0,0
251115,-52.6315789473684,4,2,1,85,0,0
251438,-62.5,4,2,1,85,0,0
251652,-50,4,2,1,85,0,1
253373,-213.333333333333,4,2,2,85,0,0
253480,-213.333333333333,4,2,1,75,0,0
253803,-213.333333333333,4,2,1,65,0,0
254233,-213.333333333333,4,2,1,55,0,0
254663,-213.333333333333,4,2,1,45,0,0
255093,-213.333333333333,4,2,1,35,0,0
255523,-213.333333333333,4,2,1,25,0,0
255953,-213.333333333333,4,2,1,15,0,0
260254,-213.333333333333,4,2,1,5,0,0

[Colours]
Combo1 : 255,128,64
Combo2 : 155,206,206
Combo3 : 198,147,170
Combo4 : 163,183,220

[HitObjects]
134,77,470,5,2,2:0:0:0:
139,86,577,1,2,2:0:0:0:
144,94,685,6,0,L|51:69,1,85,2|0,2:0|2:0,2:0:0:0:
8,7,1007,2,0,L|32:99,1,85,2|0,2:0|2:0,2:0:0:0:
0,168,1330,2,0,L|67:100,1,85,2|0,2:0|2:0,2:0:0:0:
49,93,1652,5,2,2:0:0:0:
256,160,1975,5,2,2:0:0:0:
378,77,2190,5,2,2:0:0:0:
373,86,2297,1,2,2:0:0:0:
368,94,2405,6,0,L|460:69,1,85,2|0,2:0|2:0,2:0:0:0:
504,7,2728,2,0,L|479:99,1,85,2|0,2:0|2:0,2:0:0:0:
512,168,3050,2,0,L|444:100,1,85,2|0,2:0|2:0,2:0:0:0:
463,93,3373,5,2,2:0:0:0:
256,160,3695,5,2,2:0:0:0:
134,77,3910,5,2,2:0:0:0:
139,86,4018,1,2,2:0:0:0:
144,94,4125,6,0,P|133:141|87:166,1,85,2|0,2:0|2:0,2:0:0:0:
41,108,4448,2,0,P|76:141|75:193,1,85,2|0,2:0|2:0,2:0:0:0:
1,204,4771,2,0,P|47:189|92:217,1,85,2|0,2:0|2:0,2:0:0:0:
84,224,5093,5,2,2:0:0:0:
256,160,5416,5,2,2:0:0:0:
378,77,5631,5,2,2:0:0:0:
373,86,5738,1,2,2:0:0:0:
368,94,5846,6,0,P|378:141|424:166,1,85,2|0,2:0|2:0,2:0:0:0:
471,108,6168,2,0,P|435:141|436:193,1,85,2|0,2:0|2:0,2:0:0:0:
511,204,6491,2,0,P|464:189|419:217,1,85,2|0,2:0|2:0,2:0:0:0:
428,224,6814,5,2,2:0:0:0:
256,160,7136,5,2,2:0:0:0:
134,307,7351,5,2,2:0:0:0:
139,298,7459,1,2,2:0:0:0:
144,290,7566,6,0,L|119:197,1,85,2|0,2:0|2:0,2:0:0:0:
49,280,7889,2,0,L|27:197,1,85,2|0,2:0|2:0,2:0:0:0:
219,234,8211,2,0,L|197:151,1,85,2|0,2:0|2:0,2:0:0:0:
256,311,8534,5,2,2:0:0:0:
256,311,8857,5,2,2:0:0:0:
378,307,9072,5,2,2:0:0:0:
373,298,9179,1,2,2:0:0:0:
368,290,9287,6,0,L|392:197,1,85,2|0,2:0|2:0,2:0:0:0:
463,280,9609,2,0,L|484:197,1,85,2|0,2:0|2:0,2:0:0:0:
293,234,9932,2,0,L|314:151,1,85,2|0,2:0|2:0,2:0:0:0:
256,311,10254,5,2,2:0:0:0:
256,311,10577,5,2,2:0:0:0:
134,307,10792,5,2,2:0:0:0:
139,298,10900,1,2,2:0:0:0:
144,290,11007,6,0,P|132:241|85:220,1,85,2|0,2:0|2:0,2:0:0:0:
92,127,11330,2,0,P|130:142|169:127,1,85,2|0,2:0|2:0,2:0:0:0:
220,230,11652,2,0,P|226:188|259:163,1,85,2|0,2:0|2:0,2:0:0:0:
256,311,11975,5,2,2:0:0:0:
256,311,12297,5,2,2:0:0:0:
378,307,12513,5,2,2:0:0:0:
373,298,12620,1,2,2:0:0:0:
368,290,12728,6,0,P|379:241|426:220,1,85,2|0,2:0|2:0,2:0:0:0:
420,127,13050,2,0,P|381:142|342:127,1,85,2|0,2:0|2:0,2:0:0:0:
292,230,13373,2,0,P|285:188|252:163,1,85,2|0,2:0|2:0,2:0:0:0:
256,311,13695,6,0,L|163:335,1,85,2|0,2:0|2:0,2:0:0:0:
168,343,14018,5,2,2:0:0:0:
10,376,14233,5,2,2:0:0:0:
5,367,14340,1,2,2:0:0:0:
0,359,14448,6,0,P|11:310|58:289,1,85,2|0,2:0|2:0,2:0:0:0:
118,262,14771,2,0,L|142:169,1,85,2|0,2:0|2:0,2:0:0:0:
0,123,15093,2,0,P|11:172|58:193,1,85,2|0,2:0|2:0,2:0:0:0:
47,208,15416,5,2,2:0:0:0:
208,127,15738,5,2,2:0:0:0:
330,157,15953,5,2,2:0:0:0:
335,166,16061,1,2,2:0:0:0:
340,174,16168,6,0,P|329:223|282:244,1,85,2|0,2:0|2:0,2:0:0:0:
215,227,16491,2,0,L|236:309,1,85,2|0,2:0|2:0,2:0:0:0:
407,384,16814,2,0,P|396:335|349:314,1,85,2|0,2:0|2:0,2:0:0:0:
358,314,17136,6,0,L|296:330,2,34,2|0|0,2:0|0:0|2:0,2:0:0:0:
416,247,17459,2,0,L|477:230,1,34,2|0,2:0|0:0,0:0:0:0:
430,58,17674,5,2,2:0:0:0:
435,67,17781,1,2,2:0:0:0:
440,75,17889,6,0,L|419:157,1,85,2|0,2:0|2:0,2:0:0:0:
339,177,18211,2,0,P|295:156|277:117,1,85,2|0,2:0|2:0,2:0:0:0:
368,0,18534,2,0,L|347:82,1,85,2|0,2:0|2:0,2:0:0:0:
351,93,18857,5,2,2:0:0:0:
308,258,19179,5,2,2:0:0:0:
218,312,19394,5,2,2:0:0:0:
213,303,19502,1,2,2:0:0:0:
208,295,19609,6,0,L|229:213,1,85,2|0,2:0|2:0,2:0:0:0:
159,161,19932,2,0,P|115:182|97:221,1,85,2|0,2:0|2:0,2:0:0:0:
0,375,20254,6,0,B|-21:353|-21:353|60:375,1,101.999996887207,2|0,2:0|2:0,2:0:0:0:
126,292,20577,2,0,L|79:304,1,34,2|0,2:0|2:0,2:0:0:0:
82,296,20900,1,2,2:0:0:0:
191,384,21115,6,0,L|248:167,2,178.499994552612,6|2|2,3:2|2:0|2:0,2:0:0:0:
60,117,21975,6,0,L|176:233,2,127.5,2|2|2,3:2|2:0|2:0,2:0:0:0:
273,114,22835,6,0,L|193:135,2,76.4999976654053,2|2|2,3:2|2:0|2:0,2:0:0:0:
387,265,23695,6,0,L|374:310,2,42.5,2|0|0,3:2|0:0|0:0,2:0:0:0:
338,194,24018,2,0,L|347:162,2,34,2|0|0,2:0|0:0|0:0,0:0:0:0:
305,89,24340,2,0,L|313:58,1,25.4999992218018,2|0,2:0|0:0,0:0:0:0:
414,14,24556,6,0,L|389:106,1,76.4999976654053,2|2,3:2|2:0,2:0:0:0:
347,162,24771,2,0,L|336:203,1,34,2|0,3:2|2:0,2:0:0:0:
250,34,24986,6,0,L|317:101,1,76.4999976654053,0|2,3:0|2:0,2:0:0:0:
347,162,25201,2,0,L|336:203,1,29.7499990921021,2|0,3:2|2:0,2:0:0:0:
181,191,25416,6,0,L|273:166,1,76.4999976654053,2|0,3:2|2:0,2:0:0:0:
347,162,25631,2,0,L|336:203,1,25.4999992218018,0|2,3:0|2:0,2:0:0:0:
282,329,25846,6,0,L|301:255,1,76.4999976654053,0|0,3:0|2:0,2:0:0:0:
347,162,26061,2,0,L|341:182,1,21.25,2|0,3:2|2:0,2:0:0:0:
207,273,26276,5,2,3:2:0:0:
154,279,26383,1,2,3:2:0:0:
107,252,26491,1,2,3:2:0:0:
93,201,26599,1,2,3:2:0:0:
187,94,26706,5,0,3:0:0:0:
41,64,26814,1,2,3:2:0:0:
106,124,26921,1,2,3:2:0:0:
125,34,27029,1,2,3:2:0:0:
23,150,27136,5,6,3:2:0:0:
125,34,27351,5,2,0:0:0:0:
285,48,27566,5,2,0:0:0:0:
385,209,27781,5,2,0:0:0:0:
187,362,27996,6,0,B|115:343|115:343|92:305|92:305|8:284|8:284|48:318,1,255,14|0,3:2|2:0,2:0:0:0:
175,261,28426,6,0,L|150:168,1,76.4999976654053,10|0,2:0|2:0,2:0:0:0:
17,57,28642,2,0,P|76:47|125:92,1,114.749996498108,2|0,2:0|2:0,2:0:0:0:
125,91,28857,6,0,P|160:109|214:83,1,76.4999976654053,2|0,3:2|2:0,2:0:0:0:
413,43,29072,1,2,2:0:0:0:
332,9,29179,2,0,B|315:70|315:70|295:82|295:82|275:159,1,152.999995330811,2|0,2:0|2:0,2:0:0:0:
258,232,29502,2,0,P|292:271|333:278,1,76.4999976654053,2|0,2:0|2:0,2:0:0:0:
455,135,29717,6,0,B|477:111|477:111|384:136,1,114.749996498108,2|0,3:2|0:0,2:0:0:0:
380,137,29932,2,0,P|363:185|377:224,1,76.4999976654053,2|0,2:0|2:0,2:0:0:0:
443,359,30147,5,8,2:0:0:0:
473,264,30254,2,0,L|316:305,1,152.999995330811,0|2,3:2|2:0,0:0:0:0:
75,285,30577,5,0,3:0:0:0:
180,185,30685,2,0,L|155:277,1,76.4999976654053,8|0,2:0|2:0,2:0:0:0:
227,320,30900,5,0,3:0:0:0:
88,198,31007,2,0,L|-4:173,1,76.4999976654053,8|0,2:0|2:0,2:0:0:0:
237,104,31222,2,0,L|329:79,1,76.4999976654053,2|0,3:2|2:0,2:0:0:0:
73,20,31437,6,0,L|0:0,1,76.4999976654053,2|0,3:2|2:0,0:0:0:0:
178,4,31652,1,2,2:0:0:0:
99,109,31760,2,0,P|155:134|169:224,1,152.999995330811,2|0,2:0|0:0,0:0:0:0:
92,285,32082,2,0,P|53:318|49:361,1,76.4999976654053,2|0,2:0|2:0,2:0:0:0:
238,360,32297,6,0,L|313:341,1,76.4999976654053,6|0,3:2|2:0,2:0:0:0:
394,180,32513,1,2,2:0:0:0:
490,306,32620,2,0,B|375:274|375:274|410:264,1,152.999995330811,2|0,2:0|2:0,2:0:0:0:
495,183,32943,2,0,P|490:146|447:106,1,76.4999976654053,2|0,2:0|2:0,2:0:0:0:
218,24,33158,6,0,L|295:3,1,76.4999976654053,6|0,3:2|2:0,2:0:0:0:
403,188,33373,1,2,2:0:0:0:
325,84,33480,2,0,B|339:134|308:166|308:148|276:179|288:225,1,152.999995330811,2|0,2:0|2:0,2:0:0:0:
367,371,33803,5,2,2:0:0:0:
374,363,33910,1,0,3:0:0:0:
298,313,34018,2,0,L|189:341,1,76.4999976654053,6|0,3:2|2:0,2:0:0:0:
38,226,34233,5,2,3:2:0:0:
0,151,34340,1,0,2:0:0:0:
111,104,34448,2,0,P|170:137|175:164,1,76.4999976654053,6|0,3:2|2:0,2:0:0:0:
141,293,34663,6,0,L|120:215,1,76.4999976654053,2|0,3:2|2:0,2:0:0:0:
337,89,34878,2,0,B|296:20|296:20|248:201,1,255,6|0,3:2|2:0,2:0:0:0:
380,260,35308,6,0,P|366:218|320:194,1,76.4999976654053,10|0,2:0|2:0,2:0:0:0:
236,355,35523,2,0,P|176:349|140:293,1,114.749996498108,2|0,2:0|2:0,2:0:0:0:
141,293,35738,6,0,L|162:215,1,76.4999976654053,2|0,3:2|2:0,2:0:0:0:
101,26,35953,1,2,2:0:0:0:
0,82,36061,2,0,B|51:76|77:112|60:109|85:146|132:142,1,152.999995330811,2|0,2:0|2:0,2:0:0:0:
181,69,36383,2,0,P|215:30|256:23,1,76.4999976654053,2|0,2:0|2:0,2:0:0:0:
414,176,36599,6,0,L|438:83,1,76.4999976654053,2|0,3:2|2:0,2:0:0:0:
323,19,36814,2,0,L|342:92,1,76.4999976654053,2|0,2:0|2:0,2:0:0:0:
512,292,37029,5,10,2:0:0:0:
433,260,37136,1,0,2:0:0:0:
374,323,37244,2,0,L|300:303,1,76.4999976654053,2|0,2:0|2:0,2:0:0:0:
115,156,37459,6,0,P|92:193|94:233,1,76.4999976654053,10|0,2:0|2:0,2:0:0:0:
261,380,37674,1,2,2:0:0:0:
224,263,37781,2,0,B|163:280|163:280|151:300|151:300|74:320,1,152.999995330811,10|0,2:0|2:0,2:0:0:0:
69,328,38104,5,2,3:2:0:0:
102,149,38211,1,2,3:2:0:0:
209,175,38319,6,0,B|228:128|283:106|283:106|227:123|174:95,1,204,6|0,3:2|2:0,2:0:0:0:
75,7,38749,2,0,P|15:32|19:161,1,204,10|0,2:0|2:0,2:0:0:0:
165,367,39179,6,0,L|113:174,1,187.000005706787,6|0,3:2|2:0,2:0:0:0:
244,334,39502,6,0,L|206:196,1,136,6|0,3:2|2:0,2:0:0:0:
320,295,39824,6,0,L|296:208,1,85,6|0,3:2|2:0,2:0:0:0:
96,103,40039,5,6,3:2:0:0:
129,123,40147,1,0,2:0:0:0:
103,130,40254,1,2,2:0:0:0:
122,96,40362,1,0,2:0:0:0:
193,54,40470,5,10,2:0:0:0:
238,122,40577,1,2,2:0:0:0:
312,85,40685,2,0,L|389:105,1,76.4999976654053,0|2,2:0|2:0,0:0:0:0:
512,263,40900,6,0,P|482:200|404:190,1,152.999995330811,2|0,3:2|2:0,2:0:0:0:
252,275,41222,1,2,2:0:0:0:
332,238,41330,6,0,L|351:313,1,76.4999976654053,10|0,2:0|0:0,2:0:0:0:
445,350,41545,2,0,L|426:276,1,76.4999976654053,2|0,2:0|2:0,2:0:0:0:
252,384,41760,6,0,P|195:346|135:361,1,114.749996498108,6|0,3:2|0:0,2:0:0:0:
140,357,41975,2,0,P|88:336|75:306,1,76.4999976654053,2|0,2:0|0:0,2:0:0:0:
100,140,42190,5,10,2:0:0:0:
186,121,42297,2,0,L|144:275,1,152.999995330811,2|0,2:0|2:0,2:0:0:0:
0,199,42620,6,0,P|26:127|120:144,1,152.999995330811,2|0,3:2|2:0,2:0:0:0:
218,206,42943,1,0,3:0:0:0:
357,137,43050,5,8,2:0:0:0:
237,50,43158,1,0,3:0:0:0:
327,54,43265,5,0,3:0:0:0:
320,62,43373,1,0,0:0:0:0:
271,130,43480,6,0,P|305:176|298:250,2,127.5,6|2|2,3:2|2:0|2:0,2:0:0:0:
144,58,44340,1,0,3:0:0:0:
83,214,44556,6,0,L|144:197,1,42.5,2|0,2:0|2:0,2:0:0:0:
74,309,44771,1,10,2:0:0:0:
82,299,44878,2,0,L|-26:327,1,85,2|0,2:0|2:0,0:0:0:0:
150,368,45201,6,0,B|174:278|174:278|203:256,2,127.5,2|2|2,3:2|2:0|2:0,2:0:0:0:
0,194,46061,5,2,3:2:0:0:
8,162,46168,1,2,2:0:0:0:
38,144,46276,1,2,2:0:0:0:
202,169,46491,5,10,2:0:0:0:
245,139,46599,2,0,L|162:117,1,85,2|0,2:0|2:0,2:0:0:0:
268,15,46921,6,0,P|287:61|328:84,1,85,2|0,3:2|0:0,2:0:0:0:
327,163,47244,2,0,P|376:169|416:145,1,85,2|0,2:0|0:0,0:0:0:0:
484,184,47566,1,2,2:0:0:0:
409,22,47781,5,2,3:0:0:0:
384,2,47889,1,2,2:0:0:0:
354,1,47996,1,2,2:0:0:0:
492,52,48211,2,0,L|475:113,1,42.5,10|0,2:0|2:0,2:0:0:0:
409,144,48426,1,2,2:0:0:0:
512,299,48642,6,0,L|403:327,1,85,2|0,3:2|0:0,2:0:0:0:
373,384,48964,2,0,L|290:362,1,85,2|0,2:0|0:0,0:0:0:0:
281,346,49287,2,0,L|322:356,1,42.5,2|8,2:0|2:0,0:0:0:0:
401,205,49502,6,0,P|366:261|297:256,1,127.5,2|0,3:2|0:0,2:0:0:0:
294,248,49932,5,10,2:0:0:0:
214,291,50039,2,0,L|142:310,1,50.9999984436036,2|0,2:0|2:0,2:0:0:0:
31,341,50362,6,0,B|-29:312|-11:241|-11:241|2:279|52:292,1,178.499994552612,6|0,3:2|2:0,2:0:0:0:
134,226,50792,2,0,P|104:198|59:208,1,85,10|0,2:0|0:0,2:0:0:0:
186,384,51222,6,0,L|219:260,1,127.5,2|0,3:2|2:0,2:0:0:0:
230,250,51652,1,10,2:0:0:0:
83,118,51867,1,2,2:0:0:0:
222,0,52082,6,0,P|206:64|143:57,1,127.5,2|0,3:2|2:0,2:0:0:0:
147,55,52513,2,0,L|347:108,1,178.499994552612,6|0,3:2|2:0,2:0:0:0:
388,160,52943,5,2,3:2:0:0:
422,148,53050,1,2,2:0:0:0:
439,114,53158,1,2,2:0:0:0:
292,329,53373,5,14,2:0:0:0:
258,317,53480,1,2,2:0:0:0:
241,283,53588,2,0,L|253:236,1,42.5,2|0,2:0|2:0,2:0:0:0:
353,182,53803,6,0,L|303:367,1,178.499994552612,6|0,3:2|2:0,2:0:0:0:
308,368,54233,5,8,2:0:0:0:
199,292,54448,2,0,L|241:282,1,42.5,2|0,2:0|2:0,2:0:0:0:
96,384,54663,6,0,P|27:370|0:293,1,127.5,2|0,3:2|2:0,2:0:0:0:
2,311,55093,5,8,2:0:0:0:
117,240,55308,2,0,L|133:178,1,42.5,2|0,2:0|2:0,2:0:0:0:
19,20,55523,6,0,B|-3:-2|-3:-2|21:89,1,118.999996368408,6|0,3:2|0:0,2:0:0:0:
52,158,55846,2,0,L|23:266,1,85,2|0,2:0|0:0,0:0:0:0:
17,251,56168,2,0,L|29:204,1,42.5,2|0,2:0|0:0,0:0:0:0:
111,92,56383,5,2,3:2:0:0:
116,101,56491,1,2,2:0:0:0:
203,83,56599,5,2,2:0:0:0:
194,108,56706,1,2,2:0:0:0:
280,131,56814,5,10,2:0:0:0:
251,166,56921,1,2,2:0:0:0:
319,224,57029,5,2,2:0:0:0:
249,246,57136,1,2,2:0:0:0:
337,351,57244,6,0,P|414:326|449:239,2,178.499994552612,6|2|2,3:2|2:0|2:0,2:0:0:0:
349,92,58104,6,0,P|336:152|380:208,2,127.5,2|2|2,3:2|2:0|2:0,2:0:0:0:
512,179,58964,6,0,P|484:154|441:160,2,76.4999976654053,2|2|2,3:2|2:0|2:0,2:0:0:0:
308,268,59824,6,0,L|246:251,1,50.9999984436036,2|0,3:2|2:0,2:0:0:0:
346,347,60039,5,0,3:0:0:0:
352,356,60147,1,0,3:0:0:0:
484,277,60254,5,8,2:0:0:0:
443,353,60362,1,0,3:0:0:0:
398,281,60470,1,0,3:0:0:0:
271,82,60685,6,0,L|54:25,2,178.499994552612,6|2|2,3:2|2:0|2:0,2:0:0:0:
4,213,61545,6,0,L|120:97,2,127.5,2|2|2,3:2|2:0|2:0,2:0:0:0:
1,0,62405,6,0,L|22:80,2,76.4999976654053,2|2|2,3:2|2:0|2:0,2:0:0:0:
190,195,63265,6,0,L|173:133,1,50.9999984436036,2|0,3:2|2:0,2:0:0:0:
111,96,63480,2,0,L|102:65,1,25.4999992218018,2|0,3:2|2:0,2:0:0:0:
28,227,63695,5,10,2:0:0:0:
101,174,63803,1,0,3:0:0:0:
186,207,63910,1,2,3:2:0:0:
0,314,64125,6,0,P|85:314|136:384,2,178.499994552612,6|2|2,3:2|2:0|2:0,2:0:0:0:
178,168,64986,6,0,B|233:145|276:191|243:193|293:240|351:211,1,178.499994552612,2|0,3:2|2:0,2:0:0:0:
323,95,65416,2,0,B|304:75|304:75|324:152,1,89.2499972763062,8|0,2:0|2:0,2:0:0:0:
512,248,65846,6,0,P|426:248|376:318,2,178.499994552612,6|2|2,3:2|2:0|2:0,2:0:0:0:
262,201,66706,6,0,B|215:213|215:213|196:202|196:202|149:214,1,118.999996368408,2|0,3:2|2:0,2:0:0:0:
142,224,67029,1,2,3:2:0:0:
136,233,67136,1,0,3:0:0:0:
230,123,67351,2,0,L|213:61,1,59.4999981842042,2|0,3:2|2:0,2:0:0:0:
21,28,67566,6,0,B|-1:6|-1:6|90:30,1,118.999996368408,6|0,3:2|2:0,2:0:0:0:
147,130,67889,1,2,2:0:0:0:
117,107,67996,2,0,L|55:124,1,59.4999981842042,0|0,3:2|2:0,2:0:0:0:
57,207,68211,2,0,L|0:222,1,59.4999981842042,2|0,2:0|2:0,2:0:0:0:
152,382,68426,6,0,P|180:309|220:299,1,118.999996368408,2|0,3:2|2:0,2:0:0:0:
271,223,68749,1,2,2:0:0:0:
311,244,68857,2,0,P|300:309|273:328,1,59.4999981842042,0|0,0:0|2:0,0:0:0:0:
410,350,69072,2,0,P|348:374|318:360,1,59.4999981842042,2|0,2:0|2:0,2:0:0:0:
508,253,69287,5,6,3:2:0:0:
428,139,69394,1,2,2:0:0:0:
511,170,69502,1,2,3:2:0:0:
342,92,69609,5,2,2:0:0:0:
416,56,69717,1,2,3:2:0:0:
335,106,69824,1,2,2:0:0:0:
420,221,69932,5,10,3:2:0:0:
275,165,70039,1,2,2:0:0:0:
331,238,70147,5,6,3:2:0:0:
323,255,70362,5,2,0:0:0:0:
318,242,70577,5,2,0:0:0:0:
335,250,70792,5,2,0:0:0:0:
497,11,71007,6,0,P|395:27|332:156,1,255,14|0,3:2|2:0,0:0:0:0:
240,259,71437,6,0,P|201:257|177:213,1,76.4999976654053,10|0,2:0|2:0,2:0:0:0:
33,37,71652,2,0,P|92:27|141:72,1,114.749996498108,2|0,2:0|2:0,2:0:0:0:
143,73,71867,6,0,L|118:165,1,76.4999976654053,2|0,3:2|2:0,2:0:0:0:
255,278,72082,1,2,2:0:0:0:
170,221,72190,2,0,B|105:237|105:237|93:257|93:257|32:274,1,152.999995330811,2|0,2:0|2:0,2:0:0:0:
21,189,72513,2,0,B|21:171|8:153|8:153|23:170|39:174,1,76.4999976654053,2|0,2:0|2:0,2:0:0:0:
228,374,72728,6,0,P|276:316|261:249,1,114.749996498108,2|0,3:2|0:0,2:0:0:0:
267,263,72943,2,0,P|250:215|264:176,1,76.4999976654053,2|0,2:0|2:0,2:0:0:0:
410,320,73158,5,10,2:0:0:0:
492,256,73265,2,0,L|343:217,1,152.999995330811,0|2,3:2|2:0,0:0:0:0:
223,107,73588,5,0,3:0:0:0:
318,14,73695,2,0,P|320:51|282:98,1,76.4999976654053,8|0,2:0|2:0,2:0:0:0:
212,86,73910,5,0,3:0:0:0:
375,138,74018,2,0,P|412:137|444:117,1,76.4999976654053,8|0,2:0|2:0,2:0:0:0:
166,199,74233,2,0,P|128:199|96:219,1,76.4999976654053,2|0,3:2|2:0,2:0:0:0:
4,49,74448,6,0,P|22:15|55:0,1,76.4999976654053,2|0,3:2|2:0,0:0:0:0:
73,212,74663,1,2,2:0:0:0:
0,140,74771,2,0,L|155:98,1,152.999995330811,2|0,2:0|0:0,0:0:0:0:
233,75,75093,2,0,P|220:39|189:18,1,76.4999976654053,2|0,2:0|2:0,2:0:0:0:
68,224,75308,6,0,L|143:243,1,76.4999976654053,6|0,3:2|2:0,2:0:0:0:
278,361,75523,1,2,2:0:0:0:
351,274,75631,2,0,B|290:291|290:291|278:311|278:311|201:331,1,152.999995330811,2|0,2:0|2:0,2:0:0:0:
95,325,75953,2,0,B|95:343|82:361|82:361|97:344|113:340,1,76.4999976654053,2|0,2:0|2:0,2:0:0:0:
299,200,76168,6,0,L|376:179,1,76.4999976654053,6|0,3:2|2:0,2:0:0:0:
167,138,76383,1,2,2:0:0:0:
294,47,76491,2,0,B|284:14|284:14|252:129,1,152.999995330811,2|0,2:0|2:0,2:0:0:0:
344,282,76814,5,2,2:0:0:0:
351,274,76921,1,0,3:0:0:0:
292,208,77029,2,0,L|183:236,1,76.4999976654053,6|0,3:2|2:0,2:0:0:0:
51,144,77244,5,2,3:2:0:0:
0,209,77351,1,0,2:0:0:0:
127,252,77459,2,0,P|127:184|107:166,1,76.4999976654053,6|0,3:2|2:0,2:0:0:0:
1,11,77674,6,0,P|-12:46|0:81,1,76.4999976654053,2|0,3:2|2:0,2:0:0:0:
202,145,77889,6,0,B|259:64|215:0|215:0|274:27|262:91,1,255,6|0,3:2|2:0,0:0:0:0:
343,128,78319,6,0,L|420:107,1,76.4999976654053,10|0,2:0|2:0,2:0:0:0:
512,313,78534,2,0,P|490:256|427:236,1,114.749996498108,2|0,2:0|2:0,2:0:0:0:
430,241,78749,6,0,L|410:314,1,76.4999976654053,2|0,3:2|2:0,2:0:0:0:
244,384,78964,1,2,2:0:0:0:
326,338,79072,2,0,B|340:288|309:256|309:274|277:243|289:197,1,152.999995330811,2|0,2:0|2:0,2:0:0:0:
408,149,79394,2,0,L|500:173,1,76.4999976654053,2|0,2:0|2:0,2:0:0:0:
392,0,79609,6,0,P|332:27|324:57,1,76.4999976654053,2|0,3:2|2:0,2:0:0:0:
512,91,79824,2,0,P|458:53|428:61,1,76.4999976654053,2|0,2:0|2:0,2:0:0:0:
284,112,80039,5,10,2:0:0:0:
205,136,80147,1,0,2:0:0:0:
148,71,80254,2,0,L|74:91,1,76.4999976654053,2|0,2:0|2:0,2:0:0:0:
170,288,80470,6,0,P|193:251|191:211,1,76.4999976654053,10|0,2:0|2:0,2:0:0:0:
57,325,80685,1,2,2:0:0:0:
107,226,80792,2,0,L|152:396,1,152.999995330811,10|0,2:0|2:0,2:0:0:0:
158,384,81115,5,2,3:2:0:0:
20,245,81222,1,2,3:2:0:0:
74,126,81330,6,0,B|73:82|98:58|98:58|26:95|41:177,1,204,6|0,3:2|2:0,2:0:0:0:
165,120,81760,2,0,B|303:82|303:82|261:126,1,204,10|0,2:0|2:0,2:0:0:0:
199,267,82190,6,0,P|250:310|317:297,1,140.25000428009,6|0,3:2|0:0,2:0:0:0:
327,293,82405,6,0,P|357:306|374:335,1,68,2|0,2:0|2:0,2:0:0:0:
499,285,82620,2,0,P|495:252|511:223,1,68,10|0,2:0|2:0,2:0:0:0:
408,138,82835,2,0,P|380:157|346:158,1,68,2|0,2:0|2:0,2:0:0:0:
413,238,83050,6,0,L|454:83,1,146.62500279665,6|0,3:2|0:0,2:0:0:0:
458,72,83265,1,2,2:0:0:0:
382,20,83373,2,0,L|340:174,1,152.999995330811,2|0,2:0|0:0,0:0:0:0:
191,175,83803,5,0,3:0:0:0:
100,132,83910,2,0,L|192:156,1,76.4999976654053,10|0,2:0|2:0,2:0:0:0:
280,58,84125,2,0,L|187:82,1,76.4999976654053,2|0,3:2|2:0,2:0:0:0:
122,221,84340,5,10,2:0:0:0:
113,228,84448,1,0,2:0:0:0:
200,338,84556,1,2,3:2:0:0:
107,321,84663,1,0,3:2:0:0:
251,237,84771,6,0,P|255:349|329:270,1,280.500008560181,6|0,3:2|2:0,2:0:0:0:
345,264,85201,6,0,L|315:158,1,80.7499978437424,10|0,2:0|0:0,2:0:0:0:
133,28,85416,2,0,P|208:22|240:56,1,121.124996765614,2|0,2:0|0:0,2:0:0:0:
239,70,85631,6,0,P|227:130|252:174,1,80.7499978437424,2|0,3:2|2:0,2:0:0:0:
377,46,85846,1,2,2:0:0:0:
468,151,85953,2,0,B|406:134|406:134|389:103|389:103|329:87,1,161.499995687485,2|0,2:0|2:0,2:0:0:0:
202,137,86276,2,0,P|214:94|246:65,1,80.7499978437424,2|0,2:0|2:0,2:0:0:0:
337,188,86491,6,0,L|374:327,1,121.124996765614,2|0,3:2|0:0,2:0:0:0:
365,324,86706,2,0,P|418:355|463:337,1,80.7499978437424,2|0,2:0|2:0,2:0:0:0:
260,240,86921,5,10,2:0:0:0:
155,337,87029,2,0,B|32:303|32:303|80:289,1,161.499995687485,0|2,3:2|2:0,0:0:0:0:
266,158,87351,5,0,3:0:0:0:
138,245,87459,2,0,B|146:215|146:215|123:152,1,80.7499978437424,8|0,2:0|2:0,2:0:0:0:
251,179,87674,5,0,3:0:0:0:
43,139,87781,2,0,B|35:169|35:169|58:232,1,80.7499978437424,8|0,2:0|2:0,2:0:0:0:
242,364,87996,2,0,L|219:277,1,80.7499978437424,2|0,3:2|2:0,2:0:0:0:
373,145,88211,6,0,L|352:222,1,80.7499978437424,2|0,3:2|2:0,0:0:0:0:
465,376,88426,1,2,2:0:0:0:
512,270,88534,2,0,L|352:314,1,161.499995687485,2|0,2:0|0:0,0:0:0:0:
250,265,88857,2,0,L|229:187,1,80.7499978437424,2|0,2:0|2:0,2:0:0:0:
170,384,89072,6,0,L|84:362,1,80.7499978437424,6|0,3:2|2:0,2:0:0:0:
4,204,89287,1,2,2:0:0:0:
146,214,89394,2,0,B|90:213|66:252|84:248|61:289|12:290,1,161.499995687485,2|0,2:0|2:0,2:0:0:0:
183,371,89717,2,0,P|176:331|149:302,1,80.7499978437424,2|0,2:0|2:0,2:0:0:0:
100,72,89932,6,0,B|81:83|81:83|66:143,1,80.7499978437424,6|0,3:2|2:0,2:0:0:0:
226,261,90147,1,2,2:0:0:0:
341,196,90254,2,0,B|279:178|279:178|261:148|261:148|200:132,1,161.499995687485,2|0,2:0|2:0,2:0:0:0:
364,0,90577,5,2,2:0:0:0:
303,67,90685,1,0,3:0:0:0:
379,118,90792,2,0,L|496:87,1,121.124996765614,6|0,3:2|0:0,2:0:0:0:
505,74,91007,5,2,3:2:0:0:
459,145,91115,1,0,2:0:0:0:
512,224,91222,5,6,3:2:0:0:
504,229,91330,1,0,2:0:0:0:
349,204,91437,5,2,3:2:0:0:
341,210,91545,1,0,2:0:0:0:
325,364,91652,6,0,P|213:268|246:166,1,267.749991828919,6|0,3:2|2:0,0:0:0:0:
296,47,92082,6,0,P|269:11|218:0,1,80.7499978437424,10|0,2:0|2:0,2:0:0:0:
30,176,92297,2,0,L|153:142,1,121.124996765614,2|0,2:0|2:0,2:0:0:0:
164,129,92513,6,0,P|183:89|166:38,1,80.7499978437424,2|0,3:2|2:0,2:0:0:0:
18,168,92728,1,2,2:0:0:0:
125,242,92835,2,0,B|131:295|93:323|96:305|57:331|61:381,1,161.499995687485,2|0,2:0|2:0,2:0:0:0:
140,329,93158,2,0,L|47:304,1,80.7499978437424,2|0,2:0|2:0,2:0:0:0:
290,369,93373,6,0,P|321:330|319:276,1,80.7499978437424,2|0,3:2|2:0,2:0:0:0:
211,215,93588,2,0,L|231:293,1,80.7499978437424,2|0,2:0|2:0,2:0:0:0:
402,384,93803,5,10,2:0:0:0:
477,336,93910,1,0,2:0:0:0:
409,265,94018,2,0,L|387:187,1,80.7499978437424,2|0,2:0|2:0,2:0:0:0:
505,34,94233,6,0,B|510:10|520:-2|520:-2|508:10|481:16,1,80.7499978437424,10|0,2:0|2:0,2:0:0:0:
296,163,94448,1,2,2:0:0:0:
312,25,94556,2,0,P|398:44|428:137,1,161.499995687485,8|0,2:0|2:0,2:0:0:0:
446,123,94878,5,2,3:2:0:0:
251,84,94986,1,2,3:2:0:0:
179,132,95093,6,0,B|34:93|34:93|76:106|90:159,1,216.750004134178,6|0,3:2|2:0,2:0:0:0:
250,296,95523,2,0,B|269:258|253:221|253:221|229:312|128:313,1,216.750004134178,10|0,2:0|2:0,2:0:0:0:
27,384,95953,6,0,L|66:238,1,146.62500279665,6|0,3:2|0:0,2:0:0:0:
52,241,96168,6,0,L|146:215,1,72.2500013780594,2|0,2:0|2:0,2:0:0:0:
254,301,96383,2,0,L|184:231,1,72.2500013780594,10|0,2:0|2:0,2:0:0:0:
204,96,96599,2,0,L|178:190,1,72.2500013780594,2|0,2:0|2:0,2:0:0:0:
146,373,96814,6,0,P|203:300|322:284,1,203.999993774414,6|2,3:2|2:0,0:0:0:0:
379,339,97136,1,0,2:0:0:0:
459,358,97244,5,8,2:0:0:0:
512,289,97351,1,2,2:0:0:0:
433,274,97459,2,0,L|449:212,1,55.2499974708558,0|0,0:0|2:0,0:0:0:0:
276,188,97674,6,0,P|321:134|407:149,1,161.499995687485,2|0,3:2|2:0,2:0:0:0:
451,79,97996,1,2,2:0:0:0:
434,0,98104,6,0,B|425:15|425:15|441:78,1,80.7499978437424,10|0,2:0|2:0,2:0:0:0:
512,130,98319,2,0,B|520:145|520:145|505:208,1,80.7499978437424,2|0,3:2|2:0,2:0:0:0:
359,311,98534,6,0,P|302:273|242:290,1,121.124996765614,6|0,3:2|0:0,0:0:0:0:
243,288,98749,2,0,P|191:267|176:234,1,80.7499978437424,2|0,2:0|2:0,2:0:0:0:
47,177,98964,5,8,2:0:0:0:
130,118,99072,2,0,B|99:229|99:229|81:166,1,161.499995687485,2|0,2:0|2:0,2:0:0:0:
252,181,99394,6,0,L|206:15,1,161.499995687485,2|0,3:2|2:0,2:0:0:0:
243,190,99717,1,2,3:2:0:0:
418,151,99824,5,8,2:0:0:0:
318,255,99932,1,0,3:0:0:0:
330,167,100039,5,2,3:2:0:0:
339,173,100147,1,0,0:0:0:0:
269,106,100254,6,0,P|314:60|389:63,2,127.5,6|2|2,3:2|2:0|2:0,2:0:0:0:
125,37,101115,1,0,3:0:0:0:
11,169,101330,6,0,L|-6:230,1,42.5,2|0,2:0|2:0,2:0:0:0:
81,260,101545,1,10,2:0:0:0:
75,252,101652,2,0,L|103:143,1,85,2|0,2:0|2:0,0:0:0:0:
229,288,101975,6,0,B|139:312|139:312|184:338,2,127.5,2|2|2,3:2|2:0|2:0,2:0:0:0:
382,384,102835,5,2,3:2:0:0:
412,366,102943,1,2,2:0:0:0:
420,334,103050,1,2,2:0:0:0:
310,236,103265,5,8,2:0:0:0:
360,219,103373,2,0,L|337:301,1,85,2|0,2:0|2:0,2:0:0:0:
512,371,103695,6,0,L|487:278,1,85,2|0,3:2|0:0,2:0:0:0:
436,224,104018,2,0,L|460:131,1,85,2|0,2:0|0:0,0:0:0:0:
512,81,104340,1,2,2:0:0:0:
369,140,104556,5,2,3:0:0:0:
340,131,104663,1,2,2:0:0:0:
321,105,104771,1,2,2:0:0:0:
503,0,104986,2,0,L|442:17,1,42.5,10|0,2:0|2:0,2:0:0:0:
390,59,105201,1,2,2:0:0:0:
220,0,105416,6,0,P|218:47|253:89,1,85,2|0,3:2|0:0,2:0:0:0:
261,160,105738,2,0,P|263:207|228:249,1,85,2|0,2:0|0:0,0:0:0:0:
228,241,106061,2,0,L|181:228,1,42.5,2|8,2:0|2:0,0:0:0:0:
253,334,106276,6,0,L|129:300,1,127.5,2|0,3:2|0:0,2:0:0:0:
119,291,106706,5,8,2:0:0:0:
73,217,106814,2,0,L|24:231,1,50.9999984436036,2|0,2:0|0:0,2:0:0:0:
149,146,107136,6,0,B|139:78|73:55|73:55|50:122,1,178.499994552612,6|0,3:2|2:0,2:0:0:0:
170,225,107566,2,0,P|208:207|228:171,1,85,10|0,2:0|0:0,2:0:0:0:
355,4,107996,6,0,P|438:26|477:86,1,127.5,2|0,3:2|2:0,2:0:0:0:
477,58,108426,1,10,2:0:0:0:
320,152,108642,1,2,2:0:0:0:
410,308,108857,6,0,P|391:244|449:219,1,127.5,2|0,3:2|2:0,2:0:0:0:
447,222,109287,2,0,L|247:276,1,178.499994552612,6|0,3:2|2:0,2:0:0:0:
223,342,109717,5,2,3:2:0:0:
189,330,109824,1,2,2:0:0:0:
172,296,109932,1,2,2:0:0:0:
84,168,110147,5,14,2:0:0:0:
111,144,110254,1,2,2:0:0:0:
149,146,110362,2,0,L|165:207,1,42.5,2|0,2:0|2:0,2:0:0:0:
234,122,110577,6,0,B|173:121|147:165|167:160|142:205|87:205,1,178.499994552612,6|0,3:2|2:0,2:0:0:0:
75,198,111007,5,8,2:0:0:0:
46,103,111222,2,0,L|88:113,1,42.5,2|0,2:0|2:0,2:0:0:0:
234,213,111437,6,0,L|373:175,1,127.5,2|0,3:2|2:0,2:0:0:0:
364,167,111867,5,8,2:0:0:0:
324,57,112082,2,0,L|314:99,1,42.5,2|0,2:0|2:0,2:0:0:0:
166,275,112297,6,0,B|189:359|189:359|229:392,1,118.999996368408,6|0,3:2|0:0,2:0:0:0:
265,299,112620,2,0,P|307:301|356:358,1,85,2|0,2:0|0:0,0:0:0:0:
346,342,112943,2,0,L|335:383,1,42.5,2|0,2:0|0:0,0:0:0:0:
477,294,113158,5,2,3:2:0:0:
477,283,113265,1,2,2:0:0:0:
392,255,113373,5,2,2:0:0:0:
413,238,113480,1,2,2:0:0:0:
350,175,113588,5,10,2:0:0:0:
392,159,113695,1,2,2:0:0:0:
362,75,113803,5,2,2:0:0:0:
434,91,113910,1,2,2:0:0:0:
270,169,114018,6,0,B|250:96|250:96|227:82|227:82|207:9,2,178.499994552612,6|2|2,3:2|2:0|2:0,2:0:0:0:
75,159,114878,6,0,B|113:197|113:197|132:197|132:197|171:236,2,127.5,2|2|2,3:2|2:0|2:0,2:0:0:0:
165,343,115738,6,0,B|133:351|133:351|128:361|128:361|97:369,2,76.4999976654053,2|2|2,3:2|2:0|2:0,2:0:0:0:
306,270,116599,6,0,L|244:253,1,50.9999984436036,2|0,3:2|2:0,2:0:0:0:
378,216,116814,5,0,3:0:0:0:
372,207,116921,1,0,3:0:0:0:
337,355,117029,5,10,2:0:0:0:
397,292,117136,1,0,3:0:0:0:
423,375,117244,1,0,3:0:0:0:
242,169,117459,6,0,P|307:103|309:7,2,178.499994552612,6|2|2,3:2|2:0|2:0,2:0:0:0:
433,165,118319,6,0,P|400:219|341:236,2,127.5,2|2|2,3:2|2:0|2:0,2:0:0:0:
347,343,119179,6,0,P|382:352|415:333,2,76.4999976654053,2|2|2,3:2|2:0|2:0,2:0:0:0:
154,209,120039,6,0,L|216:226,1,50.9999984436036,2|0,3:2|2:0,2:0:0:0:
253,288,120254,2,0,L|284:297,1,25.4999992218018,2|0,3:2|2:0,2:0:0:0:
131,375,120470,5,10,2:0:0:0:
53,340,120577,1,0,3:0:0:0:
85,259,120685,1,2,3:2:0:0:
0,0,120900,6,0,B|19:72|19:72|42:86|42:86|62:159,2,178.499994552612,6|2|2,3:2|2:0|2:0,2:0:0:0:
173,131,121760,6,0,B|228:154|271:108|238:106|288:59|346:88,1,178.499994552612,2|0,3:2|2:0,2:0:0:0:
348,231,122190,2,0,P|313:210|319:164,1,89.2499972763062,8|0,2:0|2:0,2:0:0:0:
512,103,122620,6,0,B|492:175|492:175|469:189|469:189|449:262,2,178.499994552612,6|2|2,3:2|2:0|2:0,2:0:0:0:
275,208,123480,6,0,P|201:240|191:289,1,118.999996368408,2|0,3:2|2:0,2:0:0:0:
193,286,123803,1,2,3:2:0:0:
200,298,123910,1,0,3:0:0:0:
89,159,124125,2,0,L|104:216,1,59.4999981842042,2|0,3:2|2:0,2:0:0:0:
19,365,124340,6,0,B|-2:343|-2:343|88:367,1,118.999996368408,6|0,3:2|2:0,2:0:0:0:
230,308,124663,1,2,2:0:0:0:
200,285,124771,2,0,L|138:302,1,59.4999981842042,0|0,3:0|2:0,2:0:0:0:
262,380,124986,2,0,L|319:365,1,59.4999981842042,2|0,2:0|2:0,2:0:0:0:
468,256,125201,6,0,P|440:183|400:173,1,118.999996368408,2|0,3:2|2:0,2:0:0:0:
304,246,125523,1,2,2:0:0:0:
264,225,125631,2,0,P|275:160|302:141,1,59.4999981842042,0|0,3:0|2:0,2:0:0:0:
382,84,125846,2,0,P|320:106|290:93,1,59.4999981842042,2|0,2:0|2:0,2:0:0:0:
29,102,126061,5,6,3:2:0:0:
141,11,126168,1,2,2:0:0:0:
52,17,126276,1,2,3:2:0:0:
205,111,126383,5,2,2:0:0:0:
115,84,126491,1,2,3:2:0:0:
190,120,126599,1,2,2:0:0:0:
51,185,126706,5,10,3:2:0:0:
176,250,126814,1,2,2:0:0:0:
81,266,126921,5,14,3:2:0:0:
86,279,127136,5,2,0:0:0:0:
78,275,127351,5,2,0:0:0:0:
91,270,127566,5,2,0:0:0:0:
406,332,127781,2,0,B|319:365|276:293|305:295|262:221|186:252,1,255,14|0,3:2|2:0,0:0:0:0:
302,150,128211,6,0,P|332:179|337:218,1,76.4999976654053,10|0,2:0|0:0,2:0:0:0:
178,334,128426,2,0,L|54:300,1,114.749996498108,2|0,2:0|0:0,2:0:0:0:
47,313,128642,6,0,P|16:283|11:244,1,76.4999976654053,2|0,3:2|2:0,2:0:0:0:
211,169,128857,1,2,2:0:0:0:
122,108,128964,2,0,B|91:222|91:222|128:190,1,152.999995330811,2|0,2:0|2:0,2:0:0:0:
22,129,129287,2,0,P|2:113|24:128,1,76.4999976654053,2|0,2:0|2:0,2:0:0:0:
229,180,129502,6,0,L|195:56,1,114.749996498108,2|0,3:2|0:0,2:0:0:0:
189,52,129717,2,0,P|216:19|254:11,1,76.4999976654053,2|0,2:0|2:0,2:0:0:0:
314,194,129932,5,10,2:0:0:0:
436,146,130039,2,0,B|371:130|371:130|359:110|359:110|298:93,1,152.999995330811,0|0,3:2|2:0,0:0:0:0:
107,28,130362,5,0,3:0:0:0:
186,139,130470,2,0,P|178:175|151:202,1,76.4999976654053,8|0,2:0|2:0,2:0:0:0:
239,241,130685,5,0,2:0:0:0:
45,95,130792,2,0,P|72:120|83:156,1,76.4999976654053,8|0,2:0|2:0,2:0:0:0:
26,221,131007,2,0,P|0:232|17:210,1,76.4999976654053,2|0,3:2|2:0,2:0:0:0:
220,364,131222,6,0,L|297:385,1,76.4999976654053,2|0,3:2|2:0,0:0:0:0:
115,311,131437,1,2,2:0:0:0:
176,216,131545,2,0,L|219:381,1,152.999995330811,2|0,2:0|0:0,0:0:0:0:
327,304,131867,2,0,P|358:282|371:247,1,76.4999976654053,2|0,2:0|2:0,2:0:0:0:
512,384,132082,6,0,L|437:365,1,76.4999976654053,6|0,3:2|2:0,2:0:0:0:
260,247,132297,1,2,2:0:0:0:
359,158,132405,2,0,B|478:187|478:187|439:204,1,152.999995330811,2|0,2:0|2:0,2:0:0:0:
363,319,132728,2,0,P|356:281|372:247,1,76.4999976654053,2|0,2:0|2:0,2:0:0:0:
512,106,132943,6,0,L|491:29,1,76.4999976654053,6|0,3:2|2:0,2:0:0:0:
308,6,133158,1,2,2:0:0:0:
415,88,133265,2,0,L|244:42,1,152.999995330811,2|0,2:0|2:0,2:0:0:0:
93,163,133588,5,2,2:0:0:0:
86,155,133695,1,0,3:0:0:0:
145,89,133803,2,0,P|185:98|220:154,1,76.4999976654053,6|0,3:2|2:0,2:0:0:0:
140,234,134018,5,2,3:2:0:0:
89,299,134125,1,0,2:0:0:0:
181,335,134233,2,0,L|156:242,1,76.4999976654053,14|0,3:2|2:0,2:0:0:0:
1,165,134448,6,0,L|21:92,1,76.4999976654053,2|0,3:2|2:0,2:0:0:0:
241,84,134663,6,0,B|328:79|388:14|388:14|419:45|407:102,1,255,6|0,3:2|2:0,0:0:0:0:
322,237,135093,6,0,L|346:144,1,76.4999976654053,10|0,2:0|0:0,2:0:0:0:
512,378,135308,2,0,P|490:321|427:301,1,114.749996498108,2|0,2:0|0:0,2:0:0:0:
438,289,135523,6,0,L|365:309,1,76.4999976654053,2|0,3:2|2:0,2:0:0:0:
180,340,135738,1,2,2:0:0:0:
288,381,135846,2,0,B|272:316|272:316|252:304|252:304|235:243,1,152.999995330811,2|0,2:0|2:0,2:0:0:0:
147,157,136168,2,0,P|126:135|149:155,1,76.4999976654053,2|0,2:0|2:0,2:0:0:0:
322,237,136383,6,0,P|372:195|379:160,1,76.4999976654053,2|0,3:2|2:0,2:0:0:0:
274,78,136599,2,0,L|298:170,1,76.4999976654053,2|0,2:0|2:0,2:0:0:0:
497,129,136814,5,10,2:0:0:0:
494,41,136921,1,0,2:0:0:0:
411,8,137029,2,0,P|360:49|354:85,1,76.4999976654053,2|0,2:0|2:0,2:0:0:0:
512,230,137244,6,0,L|419:254,1,76.4999976654053,10|0,2:0|2:0,2:0:0:0:
272,345,137459,1,2,2:0:0:0:
373,378,137566,2,0,B|387:328|356:296|356:314|324:283|336:237,1,152.999995330811,10|0,2:0|2:0,2:0:0:0:
347,226,137889,5,2,3:2:0:0:
193,365,137996,1,2,3:2:0:0:
153,268,138104,6,0,P|84:246|146:288,1,204,6|0,3:2|2:0,2:0:0:0:
230,218,138534,6,0,B|290:182|295:97|295:97|237:45,1,204,10|0,2:0|2:0,2:0:0:0:
50,82,138964,6,0,L|204:123,1,140.25000428009,6|0,3:2|0:0,2:0:0:0:
198,131,139179,6,0,L|105:155,1,68,2|0,2:0|2:0,2:0:0:0:
359,188,139394,2,0,L|383:95,1,68,10|0,2:0|2:0,2:0:0:0:
229,298,139609,2,0,L|296:365,1,68,2|0,2:0|2:0,2:0:0:0:
302,51,139824,6,0,L|261:206,1,146.62500279665,6|0,3:2|0:0,2:0:0:0:
262,206,140039,1,2,2:0:0:0:
318,272,140147,2,0,P|264:214|177:224,1,152.999995330811,2|0,2:0|0:0,0:0:0:0:
120,172,140577,5,0,3:0:0:0:
141,88,140685,2,0,P|191:116|199:146,1,76.4999976654053,10|0,2:0|2:0,2:0:0:0:
98,258,140900,2,0,P|47:229|39:199,1,76.4999976654053,2|0,3:2|2:0,2:0:0:0:
269,292,141115,5,10,2:0:0:0:
276,302,141222,1,0,2:0:0:0:
147,375,141330,1,2,3:2:0:0:
180,294,141437,1,0,3:2:0:0:
41,215,141545,6,0,B|11:138|71:74|132:85|132:85|118:145|167:178,1,280.500008560181,6|0,3:2|2:0,2:0:0:0:
154,186,141975,6,0,P|208:202|246:181,1,80.7499978437424,10|0,2:0|2:0,2:0:0:0:
395,0,142190,2,0,P|313:8|286:69,1,121.124996765614,2|0,2:0|2:0,2:0:0:0:
279,57,142405,6,0,L|303:149,1,80.7499978437424,2|0,3:2|2:0,2:0:0:0:
369,311,142620,1,2,2:0:0:0:
492,299,142728,2,0,B|420:320|377:255|377:255|389:201,1,161.499995687485,2|0,2:0|2:0,2:0:0:0:
504,165,143050,2,0,L|480:74,1,80.7499978437424,2|0,2:0|2:0,2:0:0:0:
291,242,143265,6,0,P|224:242|182:303,1,121.124996765614,2|0,3:2|0:0,2:0:0:0:
179,299,143480,2,0,P|136:307|98:286,1,80.7499978437424,2|0,2:0|2:0,2:0:0:0:
197,160,143695,5,10,2:0:0:0:
64,130,143803,2,0,B|33:139|26:161|26:161|96:165|137:222,1,161.499995687485,0|2,3:2|2:0,0:0:0:0:
262,340,144125,5,0,3:0:0:0:
107,322,144233,2,0,P|150:321|183:292,1,80.7499978437424,8|0,2:0|2:0,2:0:0:0:
209,151,144448,5,0,3:0:0:0:
358,293,144556,2,0,P|335:255|294:241,1,80.7499978437424,8|0,2:0|2:0,2:0:0:0:
196,159,144771,2,0,P|187:117|209:79,1,80.7499978437424,2|0,3:2|2:0,2:0:0:0:
312,160,144986,6,0,L|404:135,1,80.7499978437424,2|0,3:2|2:0,0:0:0:0:
246,8,145201,1,2,2:0:0:0:
344,0,145308,2,0,L|300:158,1,161.499995687485,2|0,2:0|0:0,0:0:0:0:
206,257,145631,2,0,L|230:349,1,80.7499978437424,2|0,2:0|2:0,2:0:0:0:
444,367,145846,6,0,P|489:335|496:296,1,80.7499978437424,6|0,3:2|2:0,2:0:0:0:
314,331,146061,1,2,2:0:0:0:
212,245,146168,2,0,B|156:244|132:283|150:279|127:320|78:321,1,161.499995687485,2|0,2:0|2:0,2:0:0:0:
17,174,146491,2,0,P|50:195|67:231,1,80.7499978437424,2|0,2:0|2:0,2:0:0:0:
229,70,146706,6,0,P|190:46|153:51,1,80.7499978437424,6|0,3:2|2:0,2:0:0:0:
300,124,146921,1,2,2:0:0:0:
166,159,147029,2,0,L|215:-26,1,161.499995687485,2|0,2:0|2:0,2:0:0:0:
310,114,147351,5,2,2:0:0:0:
391,55,147459,1,0,3:0:0:0:
308,29,147566,6,0,P|308:89|381:145,1,121.124996765614,6|0,3:2|0:0,2:0:0:0:
374,155,147781,5,2,3:2:0:0:
316,216,147889,1,0,2:0:0:0:
409,283,147996,5,14,3:2:0:0:
401,288,148104,1,0,2:0:0:0:
261,331,148211,5,2,3:2:0:0:
253,337,148319,1,0,2:0:0:0:
235,179,148426,6,0,B|145:154|145:154|130:127|130:127|37:100|37:100|74:141,1,267.749991828919,6|0,3:2|2:0,0:0:0:0:
0,26,148857,6,0,B|-10:-16|-10:-16|26:20,1,80.7499978437424,10|0,2:0|0:0,2:0:0:0:
224,81,149072,2,0,L|347:47,1,121.124996765614,2|0,2:0|0:0,2:0:0:0:
354,40,149287,6,0,L|276:19,1,80.7499978437424,2|0,3:2|2:0,2:0:0:0:
433,161,149502,1,2,2:0:0:0:
512,84,149609,2,0,B|440:63|397:128|397:128|389:191,1,161.499995687485,2|0,2:0|2:0,2:0:0:0:
306,237,149932,2,0,L|325:315,1,80.7499978437424,2|0,2:0|2:0,2:0:0:0:
512,262,150147,6,0,P|473:231|419:233,1,80.7499978437424,2|0,3:2|2:0,2:0:0:0:
399,375,150362,2,0,P|438:367|467:340,1,80.7499978437424,2|0,2:0|2:0,2:0:0:0:
307,149,150577,5,10,2:0:0:0:
234,193,150685,1,0,2:0:0:0:
168,108,150792,2,0,L|187:29,1,80.7499978437424,2|0,2:0|2:0,2:0:0:0:
354,231,151007,6,0,B|364:273|364:273|328:237,1,80.7499978437424,10|0,2:0|2:0,2:0:0:0:
145,189,151222,1,2,2:0:0:0:
93,52,151330,2,0,B|69:107|10:120|10:120|22:139|54:140,1,161.499995687485,10|0,2:0|2:0,2:0:0:0:
76,145,151652,5,2,3:2:0:0:
0,306,151760,1,2,3:2:0:0:
72,233,151867,6,0,P|56:332|150:367,1,216.750004134178,6|0,3:2|2:0,2:0:0:0:
330,330,152297,2,0,B|286:288|292:229|292:229|273:299|189:317,1,216.750004134178,10|0,2:0|2:0,2:0:0:0:
96,122,152728,6,0,P|170:137|201:210,1,146.62500279665,6|0,3:2|0:0,2:0:0:0:
199,212,152943,6,0,P|190:174|225:125,1,72.2500013780594,2|0,2:0|2:0,2:0:0:0:
249,0,153158,2,0,P|286:11|311:66,1,72.2500013780594,10|0,2:0|2:0,2:0:0:0:
407,149,153373,2,0,P|378:175|318:169,1,72.2500013780594,2|0,2:0|2:0,2:0:0:0:
448,23,153588,6,0,P|349:38|285:115,1,203.999993774414,6|0,3:2|0:0,0:0:0:0:
326,195,153910,1,0,2:0:0:0:
273,264,154018,5,8,2:0:0:0:
300,349,154125,1,2,2:0:0:0:
357,282,154233,2,0,L|303:268,1,55.2499974708558,0|8,2:0|2:0,0:0:0:0:
136,380,154448,6,0,B|80:381|56:342|74:346|51:305|2:304,1,161.499995687485,0|2,3:0|2:0,2:0:0:0:
67,230,154771,1,0,2:0:0:0:
134,286,154878,6,0,L|114:209,1,80.7499978437424,10|0,2:0|2:0,2:0:0:0:
20,113,155093,5,10,2:0:0:0:
171,22,155201,1,2,3:2:0:0:
74,37,155308,6,0,B|163:60|163:60|179:89|179:89|268:112,1,216.750004134178,6|0,3:2|2:0,2:0:0:0:
483,159,155738,2,0,P|436:56|344:65,1,216.750004134178,10|0,2:0|2:0,2:0:0:0:
343,334,156168,6,0,L|396:133,1,195.500003728867,6|0,3:2|2:0,2:0:0:0:
198,316,156491,6,0,L|155:160,1,161.499995687485,6|0,3:2|2:0,2:0:0:0:
271,261,156814,6,0,L|292:180,1,68,6|0,3:2|2:0,2:0:0:0:
102,95,157029,6,0,L|14:71,1,85,6|2,3:2|2:0,0:0:0:0:
163,34,157244,2,0,L|246:13,1,85,2|2,2:0|2:0,2:0:0:0:
29,161,157459,5,8,2:0:0:0:
26,248,157566,1,2,2:0:0:0:
104,208,157674,2,0,P|159:230|169:269,1,85,0|0,0:0|2:0,0:0:0:0:
212,374,157889,6,0,P|116:358|93:291,1,170,2|0,3:2|2:0,2:0:0:0:
239,296,158211,1,2,2:0:0:0:
315,259,158319,6,0,P|333:222|320:183,1,85,8|0,2:0|2:0,2:0:0:0:
200,85,158534,2,0,L|221:167,1,85,2|0,2:0|3:0,2:0:0:0:
369,56,158749,6,0,P|332:31|315:30,1,42.5,6|0,3:2|2:0,2:0:0:0:
459,108,159072,6,0,P|461:57|436:14,1,76.4999976654053,6|0,3:2|2:0,2:0:0:0:
441,256,159394,6,0,P|499:215|506:150,1,110.499994941712,6|0,3:2|2:0,2:0:0:0:
282,315,159717,6,0,P|353:354|444:306,1,144.500002756119,6|0,3:2|2:0,2:0:0:0:
174,139,160039,5,14,3:2:0:0:
208,270,160147,1,0,2:0:0:0:
162,120,160254,6,0,P|144:168|169:229,1,89.2499972763062,14|0,3:2|2:0,2:0:0:0:
353,263,160470,5,2,3:2:0:0:
366,250,160577,1,2,2:0:0:0:
349,245,160685,2,0,B|323:216|278:221,1,76.4999976654053,2|2,2:0|2:0,2:0:0:0:
434,121,160900,6,0,P|455:109|506:106,2,50.9999984436036,10|2|2,2:0|2:0|2:0,2:0:0:0:
352,142,161115,1,2,2:0:0:0:
326,107,161222,1,2,2:0:0:0:
244,142,161330,5,2,3:2:0:0:
203,124,161437,1,2,2:0:0:0:
183,83,161545,1,2,2:0:0:0:
191,39,161652,1,2,2:0:0:0:
40,130,161760,5,10,2:0:0:0:
107,46,161867,1,2,2:0:0:0:
0,7,161975,1,2,2:0:0:0:
86,58,162082,1,2,2:0:0:0:
7,163,162190,6,0,P|0:238|109:270,1,152.999995330811,6|0,3:2|2:0,2:0:0:0:
244,281,162513,2,0,P|227:350|143:368,1,152.999995330811,2|0,2:0|2:0,0:0:0:0:
94,192,162835,5,2,2:0:0:0:
169,234,162943,1,2,2:0:0:0:
237,173,163050,5,2,3:2:0:0:
143,70,163158,2,0,P|138:111|159:141,1,76.4999976654053,10|0,2:0|0:0,2:0:0:0:
255,193,163373,5,0,3:0:0:0:
381,51,163480,2,0,P|387:90|365:122,1,76.4999976654053,10|0,2:0|2:0,2:0:0:0:
225,88,163695,2,0,P|264:80|317:63,1,76.4999976654053,2|2,3:2|2:0,0:0:0:0:
491,144,163910,5,2,3:2:0:0:
504,157,164018,1,2,2:0:0:0:
487,162,164125,2,0,P|455:186|416:186,1,76.4999976654053,2|2,2:0|2:0,2:0:0:0:
299,289,164340,5,10,2:0:0:0:
306,260,164448,1,2,2:0:0:0:
418,334,164556,5,2,2:0:0:0:
411,305,164663,1,2,2:0:0:0:
233,378,164771,6,0,B|223:329|258:299|260:320|295:292|296:245,1,152.999995330811,2|0,3:2|0:0,2:0:0:0:
151,214,165093,1,0,2:0:0:0:
224,160,165201,6,0,P|205:196|199:252,1,76.4999976654053,10|0,2:0|2:0,2:0:0:0:
132,379,165416,2,0,P|127:336|112:305,1,76.4999976654053,2|0,2:0|2:0,2:0:0:0:
3,128,165631,5,2,3:2:0:0:
16,115,165738,1,2,2:0:0:0:
20,133,165846,2,0,P|50:156|91:157,1,76.4999976654053,2|2,2:0|2:0,2:0:0:0:
261,14,166061,6,0,P|161:0|84:80,1,195.500003728867,10|2,2:0|2:0,2:0:0:0:
87,68,166383,1,2,3:2:0:0:
235,158,166491,5,2,3:2:0:0:
195,86,166599,1,2,2:0:0:0:
305,104,166706,1,2,3:2:0:0:
189,97,166814,1,2,2:0:0:0:
219,233,166921,6,0,P|258:149|331:124,1,146.62500279665,14|0,2:0|0:0,2:0:0:0:
314,118,167136,5,10,0:0:0:0:
404,132,167244,1,0,2:0:0:0:
419,0,167351,5,6,3:2:0:0:
481,40,167459,1,2,2:0:0:0:
447,106,167566,1,2,2:0:0:0:
510,146,167674,1,2,2:0:0:0:
476,212,167781,1,10,2:0:0:0:
104,2,167996,5,2,2:0:0:0:
32,47,168104,1,2,2:0:0:0:
71,122,168211,1,2,3:2:0:0:
0,168,168319,1,2,2:0:0:0:
38,242,168426,1,2,2:0:0:0:
277,65,168642,5,10,2:0:0:0:
204,165,168749,1,2,2:0:0:0:
321,127,168857,1,2,2:0:0:0:
204,89,168964,1,2,2:0:0:0:
276,189,169072,6,0,P|296:258|247:316,1,152.999995330811,6|2,3:2|2:0,2:0:0:0:
231,323,169394,1,2,2:0:0:0:
371,384,169502,5,8,2:0:0:0:
363,329,169609,1,2,2:0:0:0:
389,282,169717,1,2,2:0:0:0:
439,266,169824,1,2,2:0:0:0:
367,183,169932,5,0,3:0:0:0:
496,135,170039,2,0,P|463:113|427:120,1,76.4999976654053,8|0,2:0|2:0,2:0:0:0:
378,196,170254,5,0,3:0:0:0:
416,4,170362,2,0,P|380:19|368:56,1,76.4999976654053,8|0,2:0|2:0,2:0:0:0:
264,185,170577,2,0,P|228:165|216:132,1,76.4999976654053,0|0,3:0|2:0,2:0:0:0:
0,35,170792,5,6,3:2:0:0:
99,0,170900,2,0,P|69:75|86:151,1,152.999995330811,2|2,0:0|2:0,0:0:0:0:
280,309,171222,5,8,2:0:0:0:
267,296,171330,1,0,2:0:0:0:
263,314,171437,2,0,P|231:338|192:338,1,76.4999976654053,2|0,2:0|2:0,2:0:0:0:
30,366,171652,6,0,P|6:308|45:228,1,152.999995330811,0|0,3:0|2:0,2:0:0:0:
167,218,171975,1,2,2:0:0:0:
202,252,172082,6,0,P|158:245|129:208,1,76.4999976654053,8|0,2:0|2:0,2:0:0:0:
266,165,172297,2,0,P|298:137|307:91,1,76.4999976654053,2|0,2:0|2:0,2:0:0:0:
129,34,172513,5,6,3:2:0:0:
154,5,172620,1,2,2:0:0:0:
189,15,172728,2,0,P|212:57|212:111,1,76.4999976654053,2|0,2:0|2:0,2:0:0:0:
310,244,172943,5,10,2:0:0:0:
355,322,173050,1,2,2:0:0:0:
425,263,173158,2,0,P|455:227|456:171,1,76.4999976654053,2|0,2:0|0:0,2:0:0:0:
315,22,173373,6,0,P|316:101|254:183,1,152.999995330811,6|2,3:2|2:0,2:0:0:0:
264,175,173695,1,2,2:0:0:0:
191,99,173803,2,0,P|148:101|119:123,1,76.4999976654053,8|0,2:0|2:0,2:0:0:0:
74,269,174018,5,0,3:0:0:0:
0,235,174125,1,0,3:0:0:0:
92,352,174233,5,6,3:2:0:0:
167,336,174340,1,2,2:0:0:0:
205,269,174448,1,2,2:0:0:0:
174,196,174556,1,2,2:0:0:0:
96,103,174663,5,10,2:0:0:0:
115,59,174771,1,2,2:0:0:0:
156,37,174878,1,2,2:0:0:0:
203,45,174986,1,2,2:0:0:0:
278,141,175093,6,0,P|337:149|396:178,1,114.749996498108,2|0,3:2|0:0,0:0:0:0:
397,177,175308,2,0,P|419:175|454:149,2,38.2499988327027,2|2|2,2:0|0:0|0:0,0:0:0:0:
272,289,175523,5,10,2:0:0:0:
357,255,175631,2,0,P|383:319|321:369,1,152.999995330811,2|2,2:0|2:0,0:0:0:0:
222,216,175953,5,6,3:2:0:0:
124,356,176061,1,2,2:0:0:0:
136,228,176168,5,2,3:2:0:0:
193,300,176276,1,2,2:0:0:0:
58,196,176383,5,10,2:0:0:0:
165,150,176491,1,2,2:0:0:0:
87,114,176599,5,2,3:2:0:0:
173,139,176706,1,2,2:0:0:0:
71,21,176814,6,0,L|75:4,3,17,6|2|2|2,3:2|2:0|2:0|2:0,0:0:0:0:
16,96,177674,5,6,2:0:0:0:
16,96,177781,1,0,0:0:0:0:
16,96,177889,1,0,0:0:0:0:
96,128,178211,5,0,0:0:0:0:
176,96,178534,5,2,2:0:0:0:
256,128,178857,5,2,2:0:0:0:
336,96,179179,5,2,2:0:0:0:
384,160,179394,5,2,2:0:0:0:
384,160,179502,1,2,2:0:0:0:
384,160,179609,1,2,2:0:0:0:
336,224,179824,5,2,2:0:0:0:
336,224,179932,1,2,2:0:0:0:
256,192,180254,5,2,2:0:0:0:
176,224,180577,5,2,2:0:0:0:
96,192,180900,5,2,2:0:0:0:
48,256,181115,5,2,2:0:0:0:
48,256,181222,1,2,2:0:0:0:
48,256,181330,1,2,2:0:0:0:
96,320,181545,5,2,2:0:0:0:
96,320,181652,1,2,2:0:0:0:
176,288,181975,5,2,2:0:0:0:
256,320,182297,5,2,2:0:0:0:
336,288,182620,5,2,2:0:0:0:
384,224,182835,5,2,2:0:0:0:
384,224,182943,1,2,2:0:0:0:
384,224,183050,1,2,2:0:0:0:
336,160,183265,5,2,2:0:0:0:
336,160,183373,1,2,2:0:0:0:
256,192,183695,5,2,2:0:0:0:
208,128,183910,1,2,2:0:0:0:
208,128,184018,1,2,0:0:0:0:
208,128,184125,1,2,2:0:0:0:
256,64,184340,1,2,2:0:0:0:
88,15,184556,6,0,L|46:169,1,127.5,6|0,2:0|2:0,2:0:0:0:
0,206,184986,1,2,2:0:0:0:
134,168,185201,1,2,2:0:0:0:
62,319,185416,6,0,L|49:272,1,42.5,2|0,2:0|2:0,2:0:0:0:
167,243,185631,1,2,2:0:0:0:
136,256,185738,2,0,P|183:302|222:296,1,85,2|0,2:0|2:0,2:0:0:0:
265,254,186061,1,2,2:0:0:0:
194,104,186276,5,2,2:0:0:0:
338,62,186491,1,2,2:0:0:0:
263,169,186706,1,2,2:0:0:0:
407,127,186921,1,2,2:0:0:0:
493,293,187136,6,0,L|506:246,1,42.5,2|0,2:0|2:0,2:0:0:0:
405,233,187351,1,2,2:0:0:0:
431,208,187459,2,0,P|391:219|368:254,1,85,2|0,2:0|2:0,2:0:0:0:
332,353,187781,5,2,2:0:0:0:
364,374,187889,1,2,2:0:0:0:
400,352,187996,2,0,L|260:389,1,127.5,6|0,2:0|2:0,0:0:0:0:
244,284,188426,2,0,L|120:251,1,127.5,2|0,2:0|2:0,2:0:0:0:
51,325,188857,5,6,2:0:0:0:
92,92,189072,1,2,2:0:0:0:
6,197,189287,1,2,2:0:0:0:
220,115,189502,1,2,2:0:0:0:
455,171,189717,6,0,P|372:89|396:214,1,297.5,6|0,2:0|2:3,2:3:0:0:
446,266,190577,5,2,2:0:0:0:
449,279,190792,5,2,2:0:0:0:
453,293,191007,5,2,2:0:0:0:
456,307,191222,5,2,2:0:0:0:
208,369,191437,6,0,B|104:389|51:292|51:292|92:305|122:267,1,255,14|0,3:2|2:0,0:0:0:0:
124,163,191867,6,0,P|99:134|62:133,1,76.4999976654053,10|0,2:0|2:0,2:0:0:0:
253,293,192082,2,0,L|363:263,1,114.749996498108,2|0,2:0|2:0,2:0:0:0:
381,268,192297,6,0,P|393:232|375:200,1,76.4999976654053,2|0,3:2|2:0,2:0:0:0:
205,130,192513,1,2,2:0:0:0:
334,55,192620,2,0,B|317:116|317:116|297:128|297:128|281:193,1,152.999995330811,2|0,2:0|2:0,2:0:0:0:
184,211,192943,2,0,B|170:208|156:197|156:197|171:227|200:224,1,76.4999976654053,2|0,2:0|2:0,2:0:0:0:
262,0,193158,6,0,P|204:48|137:33,1,114.749996498108,2|0,3:2|0:0,2:0:0:0:
155,35,193373,2,0,P|119:48|96:78,1,76.4999976654053,2|0,2:0|2:0,2:0:0:0:
69,258,193588,5,10,2:0:0:0:
180,199,193695,2,0,B|66:169|66:169|136:149,1,152.999995330811,0|2,3:2|2:0,0:0:0:0:
279,111,194018,5,0,3:0:0:0:
368,248,194125,2,0,P|386:215|384:177,1,76.4999976654053,8|0,2:0|2:0,2:0:0:0:
266,122,194340,5,0,3:0:0:0:
464,141,194448,2,0,P|444:108|411:91,1,76.4999976654053,10|0,2:0|2:0,2:0:0:0:
280,266,194663,2,0,P|242:266|210:286,1,76.4999976654053,2|0,3:2|2:0,2:0:0:0:
87,167,194878,6,0,L|10:146,1,76.4999976654053,2|0,3:2|2:0,0:0:0:0:
200,187,195093,1,2,2:0:0:0:
87,87,195201,2,0,L|128:241,1,152.999995330811,2|0,2:0|0:0,0:0:0:0:
18,351,195523,2,0,P|40:321|75:308,1,76.4999976654053,2|0,2:0|2:0,2:0:0:0:
278,351,195738,6,0,L|353:332,1,76.4999976654053,6|0,3:2|2:0,2:0:0:0:
218,201,195953,1,2,2:0:0:0:
337,121,196061,2,0,B|351:171|320:203|320:185|288:216|300:262,1,152.999995330811,2|0,2:0|2:0,2:0:0:0:
408,260,196383,2,0,B|422:263|436:274|436:274|421:244|392:247,1,76.4999976654053,2|0,2:0|2:0,2:0:0:0:
249,119,196599,6,0,L|172:98,1,76.4999976654053,6|0,3:2|2:0,2:0:0:0:
373,33,196814,1,2,2:0:0:0:
430,166,196921,2,0,B|495:166|515:98|515:98|473:79,1,152.999995330811,2|0,2:0|2:0,2:0:0:0:
286,46,197244,5,2,2:0:0:0:
279,38,197351,1,0,3:0:0:0:
346,115,197459,2,0,L|318:224,1,76.4999976654053,6|0,3:2|2:0,2:0:0:0:
163,274,197674,5,2,3:2:0:0:
212,203,197781,1,0,2:0:0:0:
114,154,197889,2,0,P|65:191|58:220,1,76.4999976654053,14|0,3:2|2:0,2:0:0:0:
270,356,198104,6,0,L|245:263,1,76.4999976654053,2|0,3:2|2:0,2:0:0:0:
280,3,198319,6,0,P|191:78|249:191,1,255,6|0,3:2|2:0,0:0:0:0:
332,273,198749,6,0,L|440:244,1,76.4999976654053,10|0,2:0|0:0,2:0:0:0:
486,48,198964,2,0,P|430:51|387:14,1,114.749996498108,2|0,2:0|0:0,2:0:0:0:
370,20,199179,6,0,P|345:57|349:97,1,76.4999976654053,2|0,3:2|2:0,2:0:0:0:
419,259,199394,1,2,2:0:0:0:
313,184,199502,2,0,L|461:145,1,152.999995330811,2|0,2:0|2:0,2:0:0:0:
506,247,199824,2,0,B|520:250|534:261|534:261|519:231|490:234,1,76.4999976654053,2|0,2:0|2:0,2:0:0:0:
265,113,200039,6,0,L|187:92,1,76.4999976654053,2|0,3:2|2:0,2:0:0:0:
358,2,200254,2,0,L|284:21,1,76.4999976654053,2|0,2:0|2:0,2:0:0:0:
122,164,200470,5,10,2:0:0:0:
45,121,200577,1,0,2:0:0:0:
70,34,200685,2,0,P|115:12|142:14,1,76.4999976654053,2|0,2:0|2:0,2:0:0:0:
228,261,200900,6,0,P|229:223|210:190,1,76.4999976654053,10|0,2:0|2:0,2:0:0:0:
16,287,201115,1,2,2:0:0:0:
135,239,201222,2,0,B|118:300|118:300|98:312|98:312|82:377,1,152.999995330811,10|0,2:0|2:0,2:0:0:0:
65,384,201545,5,2,3:2:0:0:
273,334,201652,1,2,3:2:0:0:
353,384,201760,6,0,B|358:305|444:265|444:265|436:302|458:327,1,204,6|0,3:2|2:0,2:0:0:0:
273,243,202190,2,0,P|220:211|216:79,1,204,10|0,2:0|2:0,2:0:0:0:
407,173,202620,6,0,L|444:33,1,140.25000428009,6|0,3:2|0:0,2:0:0:0:
444,23,202835,6,0,P|411:26|382:10,1,68,2|0,2:0|2:0,2:0:0:0:
454,197,203050,2,0,P|467:166|496:149,1,68,10|0,2:0|2:0,2:0:0:0:
299,113,203265,2,0,P|317:141|319:175,1,68,2|0,2:0|2:0,2:0:0:0:
400,114,203480,6,0,L|245:155,1,146.62500279665,6|0,3:2|0:0,2:0:0:0:
226,151,203695,1,2,2:0:0:0:
195,236,203803,2,0,P|213:323|279:343,1,152.999995330811,2|0,2:0|0:0,0:0:0:0:
369,360,204233,5,0,3:0:0:0:
381,252,204340,2,0,P|328:274|318:299,1,76.4999976654053,10|0,2:0|2:0,2:0:0:0:
511,237,204556,2,0,P|465:202|438:205,1,76.4999976654053,2|0,3:2|2:0,2:0:0:0:
258,351,204771,5,10,2:0:0:0:
263,363,204878,1,0,2:0:0:0:
144,278,204986,1,2,3:2:0:0:
237,270,205093,1,0,3:2:0:0:
125,366,205201,6,0,B|116:283|26:281|26:281|-12:258|-11:214|-11:214|5:248|52:265,1,280.500008560181,6|0,3:2|2:0,2:0:0:0:
31,322,205631,6,0,L|52:244,1,80.7499978437424,10|0,2:0|2:0,2:0:0:0:
274,256,205846,2,0,L|119:214,1,121.124996765614,2|0,2:0|2:0,2:0:0:0:
142,230,206061,6,0,P|125:193|128:153,1,80.7499978437424,2|0,3:2|2:0,2:0:0:0:
262,6,206276,1,2,2:0:0:0:
115,36,206383,2,0,B|175:52|175:52|192:83|192:83|254:100,1,161.499995687485,2|0,2:0|2:0,2:0:0:0:
397,79,206706,2,0,B|407:69|414:52|414:52|416:86|389:98,1,80.7499978437424,2|0,2:0|2:0,2:0:0:0:
223,189,206921,6,0,L|260:328,1,121.124996765614,2|0,3:2|0:0,2:0:0:0:
247,326,207136,2,0,P|300:357|345:339,1,80.7499978437424,2|0,2:0|2:0,2:0:0:0:
366,197,207351,5,10,2:0:0:0:
494,222,207459,2,0,B|526:212|526:212|403:178,1,161.499995687485,0|2,3:2|2:0,0:0:0:0:
160,293,207781,5,0,3:0:0:0:
8,192,207889,2,0,L|29:115,1,80.7499978437424,8|0,2:0|2:0,2:0:0:0:
76,251,208104,5,0,3:0:0:0:
134,37,208211,2,0,L|113:114,1,80.7499978437424,8|0,2:0|2:0,2:0:0:0:
233,324,208426,2,0,L|212:245,1,80.7499978437424,2|0,3:2|2:0,2:0:0:0:
300,181,208642,6,0,P|344:212|353:262,1,80.7499978437424,2|0,3:2|2:0,0:0:0:0:
411,369,208857,1,2,2:0:0:0:
505,291,208964,2,0,L|334:245,1,161.499995687485,2|0,2:0|0:0,0:0:0:0:
219,158,209287,2,0,P|228:119|258:92,1,80.7499978437424,2|0,2:0|2:0,2:0:0:0:
512,0,209502,6,0,L|491:78,1,80.7499978437424,6|0,3:2|2:0,2:0:0:0:
277,88,209717,1,2,2:0:0:0:
434,185,209824,2,0,B|435:129|396:105|400:123|359:100|358:51,1,161.499995687485,2|0,2:0|2:0,2:0:0:0:
455,30,210147,2,0,B|469:27|482:16|482:16|468:46|439:42,1,80.7499978437424,2|0,2:0|2:0,2:0:0:0:
238,0,210362,6,0,P|194:27|184:60,1,80.7499978437424,6|0,3:2|2:0,2:0:0:0:
266,215,210577,1,2,2:0:0:0:
137,255,210685,2,0,B|79:217|93:143|93:143|133:101,1,161.499995687485,2|0,2:0|2:0,2:0:0:0:
282,76,211007,5,2,2:0:0:0:
208,139,211115,1,0,3:0:0:0:
255,227,211222,2,0,L|372:258,1,121.124996765614,6|0,3:2|0:0,2:0:0:0:
384,246,211437,5,2,3:2:0:0:
340,167,211545,1,0,2:0:0:0:
389,92,211652,5,14,3:2:0:0:
397,97,211760,1,0,2:0:0:0:
477,237,211867,5,2,3:2:0:0:
469,231,211975,1,0,2:0:0:0:
318,308,212082,6,0,B|107:362|107:362|149:319,1,267.749991828919,6|0,3:2|2:0,0:0:0:0:
16,356,212513,6,0,B|18:370|29:383|29:383|0:369|3:340,1,80.7499978437424,10|0,2:0|0:0,2:0:0:0:
21,144,212728,2,0,P|84:167|104:232,1,121.124996765614,2|0,2:0|0:0,2:0:0:0:
96,226,212943,6,0,L|173:246,1,80.7499978437424,2|0,3:2|2:0,2:0:0:0:
368,126,213158,1,2,2:0:0:0:
264,41,213265,2,0,P|198:77|189:162,1,161.499995687485,2|0,2:0|2:0,2:0:0:0:
296,263,213588,2,0,L|271:170,1,80.7499978437424,2|0,2:0|2:0,2:0:0:0:
415,28,213803,6,0,P|375:35|346:62,1,80.7499978437424,2|0,3:2|2:0,2:0:0:0:
386,143,214018,2,0,P|425:135|454:108,1,80.7499978437424,2|0,2:0|2:0,2:0:0:0:
309,254,214233,5,10,2:0:0:0:
361,334,214340,1,0,2:0:0:0:
447,300,214448,2,0,L|425:222,1,80.7499978437424,2|0,2:0|2:0,2:0:0:0:
243,327,214663,6,0,B|257:329|270:340|270:340|256:310|227:314,1,80.7499978437424,10|0,2:0|2:0,2:0:0:0:
39,243,214878,1,2,2:0:0:0:
168,369,214986,6,0,L|126:213,1,161.499995687485,8|0,2:0|2:0,2:0:0:0:
113,197,215308,5,2,3:2:0:0:
0,43,215416,1,2,3:2:0:0:
135,100,215523,6,0,B|92:98|35:139|35:139|86:94|97:51,1,216.750004134178,6|0,3:2|2:0,2:0:0:0:
244,5,215953,2,0,B|222:86|222:86|246:128|246:128|224:210,1,216.750004134178,10|0,2:0|2:0,0:0:0:0:
33,322,216383,6,0,P|85:380|169:377,1,146.62500279665,6|0,3:2|0:0,2:0:0:0:
168,369,216599,6,0,P|142:329|147:295,1,72.2500013780594,2|0,2:0|2:0,2:0:0:0:
256,143,216814,2,0,P|224:128|189:134,1,72.2500013780594,10|0,2:0|2:0,2:0:0:0:
339,323,217029,2,0,P|369:303|382:270,1,72.2500013780594,2|0,2:0|2:0,2:0:0:0:
239,232,217244,6,0,B|237:337|237:337|277:218,1,203.999993774414,6|0,3:2|0:0,0:0:0:0:
245,151,217566,1,0,2:0:0:0:
324,185,217674,5,8,2:0:0:0:
394,137,217781,1,0,3:0:0:0:
379,53,217889,2,0,L|363:-9,1,55.2499974708558,0|2,2:0|2:0,0:0:0:0:
512,139,218104,6,0,L|466:309,1,161.499995687485,0|2,3:0|3:2,2:0:0:0:
400,356,218426,1,2,2:0:0:0:
381,270,218534,6,0,P|344:295|303:290,1,80.7499978437424,8|2,2:0|2:0,0:0:0:0:
113,168,218749,5,2,3:2:0:0:
276,86,218857,1,2,2:0:0:0:
152,51,218964,6,0,B|147:115|208:141|203:117|264:146|253:224,1,216.750004134178,6|0,3:2|2:0,2:0:0:0:
106,313,219394,2,0,B|84:325|59:318|59:318|57:204|186:213,1,216.750004134178,10|0,2:0|2:0,2:0:0:0:
370,370,219824,6,0,P|454:323|517:228,1,195.500003728867,6|0,3:2|2:0,2:0:0:0:
339,285,220147,6,0,P|379:216|385:122,1,161.499995687485,6|0,3:2|2:0,2:0:0:0:
261,233,220470,6,0,P|261:192|240:149,1,68,6|0,3:2|2:0,2:0:0:0:
54,134,220685,6,0,P|24:111|12:55,1,85,6|2,3:2|2:0,0:0:0:0:
85,20,220900,2,0,P|115:43|127:99,1,85,2|2,2:0|2:0,2:0:0:0:
6,207,221115,5,10,2:0:0:0:
6,295,221222,1,0,3:0:0:0:
90,322,221330,2,0,L|198:293,1,85,2|0,2:0|3:0,0:0:0:0:
328,142,221545,6,0,P|281:111|233:115,1,85,10|0,2:0|0:0,2:0:0:0:
130,174,221760,2,0,L|254:208,1,127.5,2|0,2:0|0:0,2:0:0:0:
272,220,221975,6,0,P|272:254|286:274,2,56.6666666666667,10|2|2,2:0|2:0|2:0,0:0:0:0:
280,354,222190,6,0,P|310:371|334:368,2,56.6666666666667,2|2|2,2:0|2:0|2:0,0:0:0:0:
421,384,222405,6,0,B|386:287|482:247|471:286|519:252|518:187|518:187|505:221|470:231,1,297.5,6|0,3:2|2:0,2:0:0:0:
462,252,222835,6,0,P|412:237|393:212,1,85,10|0,2:0|2:0,2:0:0:0:
290,38,223050,5,2,2:0:0:0:
316,120,223158,1,2,2:0:0:0:
414,118,223265,6,0,P|329:134|299:204,1,170,2|0,3:2|2:0,2:0:0:0:
147,285,223588,1,2,2:0:0:0:
255,284,223695,6,0,P|223:255|215:214,1,85,8|0,2:0|2:0,0:0:0:0:
90,182,223910,2,0,P|81:222|49:250,1,85,2|0,2:0|2:0,2:0:0:0:
8,92,224125,5,2,3:2:0:0:
47,20,224233,1,2,2:0:0:0:
130,5,224340,1,2,2:0:0:0:
193,60,224448,1,2,2:0:0:0:
287,165,224556,5,10,2:0:0:0:
311,151,224663,1,2,2:0:0:0:
325,127,224771,1,2,2:0:0:0:
326,99,224878,1,2,2:0:0:0:
196,145,224986,6,0,P|162:187|168:302,1,170,2|0,3:2|2:0,2:0:0:0:
19,384,225309,1,2,3:2:0:0:
1,297,225416,6,0,P|46:297|88:331,1,85,8|0,2:0|2:0,2:0:0:0:
153,380,225631,2,0,P|198:379|240:345,1,85,2|0,3:2|2:0,2:0:0:0:
328,249,225846,5,2,3:2:0:0:
353,261,225953,1,2,2:0:0:0:
370,283,226061,1,2,2:0:0:0:
377,310,226168,1,2,2:0:0:0:
475,207,226276,5,14,2:0:0:0:
419,199,226383,1,2,2:0:0:0:
371,169,226491,1,2,2:0:0:0:
341,121,226598,1,2,2:0:0:0:
177,137,226706,5,2,3:2:0:0:
184,109,226813,1,2,2:0:0:0:
201,87,226921,1,2,2:0:0:0:
226,73,227028,1,2,2:0:0:0:
307,1,227136,5,14,2:0:0:0:
269,61,227243,1,2,2:0:0:0:
250,128,227351,1,2,2:0:0:0:
250,199,227458,1,2,2:0:0:0:
401,311,227566,5,6,3:2:0:0:
307,278,227674,1,2,2:0:0:0:
374,233,227781,5,2,2:0:0:0:
333,355,227889,1,2,2:0:0:0:
202,291,227996,5,10,2:0:0:0:
250,360,228104,1,2,2:0:0:0:
125,317,228211,5,2,2:0:0:0:
108,347,228319,1,2,3:2:0:0:
11,264,228426,5,2,3:2:0:0:
0,183,228533,1,2,2:0:0:0:
117,108,228641,5,2,3:2:0:0:
84,216,228748,1,2,2:0:0:0:
202,251,228857,6,0,P|219:229|228:202,5,56.6666666666667,10|0|0|2|0|0,2:0|0:0|0:0|3:2|0:0|0:0,2:0:0:0:
316,182,229287,6,0,P|300:111|246:74,1,127.5,6|0,3:2|0:0,2:0:0:0:
269,64,229502,2,0,P|226:52|178:63,1,85,0|0,0:0|2:0,0:0:0:0:
76,200,229717,5,10,2:0:0:0:
11,144,229824,1,0,2:0:0:0:
57,71,229932,2,0,P|93:82|117:131,1,85,2|0,2:0|0:0,2:0:0:0:
40,346,230147,6,0,P|152:267|203:290,1,170,2|0,3:2|2:0,2:0:0:0:
333,353,230470,1,2,2:0:0:0:
243,384,230577,6,0,P|260:343|251:286,1,85,10|0,2:0|2:0,2:0:0:0:
317,238,230792,2,0,P|289:202|236:182,1,85,2|0,2:0|2:0,2:0:0:0:
28,78,231007,6,0,P|97:2|166:3,1,170,2|0,3:2|2:0,0:0:0:0:
191,128,231330,1,2,2:0:0:0:
243,36,231437,6,0,P|205:84|162:91,1,85,10|0,2:0|2:0,2:0:0:0:
124,186,231652,2,0,P|63:177|35:143,1,85,2|0,2:0|0:0,2:0:0:0:
0,384,231867,6,0,P|39:302|127:279,1,170,2|0,3:2|2:0,2:0:0:0:
268,181,232190,1,2,3:2:0:0:
209,263,232297,6,0,P|236:306|280:322,1,85,8|2,2:0|2:0,0:0:0:0:
337,378,232513,2,0,P|387:376|423:346,1,85,2|0,3:2|2:0,2:0:0:0:
512,127,232728,5,6,3:2:0:0:
469,53,232835,1,2,2:0:0:0:
398,99,232943,2,0,P|412:147|451:174,1,85,2|0,2:0|2:0,2:0:0:0:
512,339,233158,5,10,2:0:0:0:
469,255,233265,1,2,2:0:0:0:
369,262,233373,1,2,0:0:0:0:
302,199,233480,1,2,2:0:0:0:
296,182,233588,6,0,P|261:262|171:292,1,170,6|0,3:2|0:0,2:0:0:0:
0,303,233910,1,2,2:0:0:0:
49,375,234018,6,0,P|103:332|112:286,1,85,10|0,2:0|2:0,2:0:0:0:
177,212,234233,2,0,P|166:143|131:112,1,85,2|0,2:0|2:0,2:0:0:0:
16,19,234448,6,0,P|63:145|234:169,2,293.2500055933,6|2|0,3:2|2:0|2:0,2:0:0:0:
109,57,235201,1,2,2:0:0:0:
118,37,235308,6,0,P|157:4|203:2,1,85,2|0,3:2|2:0,2:0:0:0:
244,99,235523,2,0,P|292:116|316:155,1,85,2|0,3:2|2:0,2:0:0:0:
455,110,235738,5,10,2:0:0:0:
417,31,235846,1,0,2:0:0:0:
497,8,235953,5,2,3:2:0:0:
394,161,236061,1,0,3:2:0:0:
478,203,236168,6,0,P|416:211|352:384,1,255,6|0,3:2|2:0,2:0:0:0:
474,302,236599,6,0,P|400:264|304:282,1,170,10|2,2:0|2:0,0:0:0:0:
258,351,236921,1,2,2:0:0:0:
129,242,237029,5,2,3:2:0:0:
170,279,237136,1,2,2:0:0:0:
179,334,237244,1,2,2:0:0:0:
153,383,237351,1,2,2:0:0:0:
24,287,237459,5,10,2:0:0:0:
90,319,237566,1,2,2:0:0:0:
40,381,237674,2,0,P|5:329|8:279,1,85,2|2,2:0|2:0,0:0:0:0:
171,172,237889,5,2,3:2:0:0:
150,103,237996,1,2,2:0:0:0:
77,100,238104,2,0,P|36:132|38:183,1,85,2|2,2:0|2:0,2:0:0:0:
252,200,238319,5,10,2:0:0:0:
260,113,238426,2,0,P|204:176|112:177,1,170,2|0,2:0|2:0,2:0:0:0:
352,271,238749,5,2,3:2:0:0:
347,182,238857,1,2,0:0:0:0:
451,129,238964,5,2,2:0:0:0:
335,173,239072,1,2,3:2:0:0:
358,89,239179,6,0,P|419:130|436:309,1,255,10|0,2:0|2:0,0:0:0:0:
355,368,239609,5,2,3:2:0:0:
367,347,239717,1,2,2:0:0:0:
350,351,239824,1,2,2:0:0:0:
371,363,239932,1,2,2:0:0:0:
236,285,240039,5,14,2:0:0:0:
211,335,240146,1,2,2:0:0:0:
162,361,240254,1,2,2:0:0:0:
106,353,240361,1,2,2:0:0:0:
37,236,240470,6,0,P|93:194|117:90,1,170,2|2,3:2|2:0,0:0:0:0:
0,0,240792,1,2,2:0:0:0:
75,30,240900,6,0,P|112:9|157:8,1,85,14|2,2:0|2:0,0:0:0:0:
242,168,241115,5,2,2:0:0:0:
287,95,241222,1,2,2:0:0:0:
253,16,241330,5,6,3:2:0:0:
306,85,241437,1,2,2:0:0:0:
386,105,241545,6,0,P|316:103|257:193,1,170,2|10,2:0|2:0,0:0:0:0:
299,276,241867,1,2,2:0:0:0:
213,278,241975,5,2,2:0:0:0:
174,352,242082,1,2,3:2:0:0:
175,372,242190,6,0,P|137:331|62:320,1,127.5,2|0,3:2|0:0,2:0:0:0:
59,301,242405,2,0,P|21:323|4:370,1,85,2|0,3:2|2:0,2:0:0:0:
137,143,242620,6,0,P|82:155|35:214,1,127.5,10|0,2:0|0:0,2:0:0:0:
17,207,242835,2,0,P|17:250|49:289,1,85,2|0,3:2|2:0,2:0:0:0:
236,298,243050,6,0,P|217:203|332:87,1,255,6|0,3:2|2:0,2:0:0:0:
444,56,243480,5,10,2:0:0:0:
443,83,243587,1,2,2:0:0:0:
426,105,243695,1,2,2:0:0:0:
399,113,243802,1,2,2:0:0:0:
288,7,243910,5,2,3:2:0:0:
245,42,244017,1,2,2:0:0:0:
232,97,244125,1,2,2:0:0:0:
255,147,244232,1,2,2:0:0:0:
359,239,244340,5,10,2:0:0:0:
349,308,244447,1,2,2:0:0:0:
304,361,244555,1,2,2:0:0:0:
237,381,244662,1,2,2:0:0:0:
191,282,244771,5,2,3:2:0:0:
220,293,244878,1,2,2:0:0:0:
105,296,244986,5,2,2:0:0:0:
138,341,245093,1,2,2:0:0:0:
15,256,245201,5,10,2:0:0:0:
69,384,245308,1,2,2:0:0:0:
0,335,245416,5,2,2:0:0:0:
138,217,245523,1,2,2:0:0:0:
72,164,245631,6,0,P|109:90|204:77,1,170,2|0,3:2|2:0,2:0:0:0:
281,201,245953,1,2,3:2:0:0:
333,100,246061,6,0,P|360:133|365:175,1,85,8|0,2:0|2:0,2:0:0:0:
247,0,246276,2,0,P|288:-6|327:11,1,85,2|0,3:2|2:0,2:0:0:0:
149,224,246491,6,0,P|30:164|21:47,1,255,6|0,3:2|2:0,0:0:0:0:
131,21,246921,5,10,2:0:0:0:
112,0,247029,1,2,0:0:0:0:
104,29,247136,2,0,P|129:65|141:115,1,85,2|2,2:0|2:0,0:0:0:0:
27,307,247351,6,0,P|102:210|168:196,1,170,6|0,3:2|2:0,2:0:0:0:
310,211,247674,1,2,2:0:0:0:
239,144,247781,6,0,P|250:203|280:225,1,85,8|0,2:0|2:0,2:0:0:0:
180,292,247996,2,0,P|236:311|270:296,1,85,2|0,2:0|2:0,2:0:0:0:
402,377,248211,5,6,3:2:0:0:
386,291,248319,1,2,2:0:0:0:
481,273,248426,5,2,2:0:0:0:
491,231,248534,1,2,2:0:0:0:
439,166,248642,6,0,P|362:143|295:-17,1,255,8|0,2:0|3:0,0:0:0:0:
411,88,249072,6,0,P|336:92|257:35,1,170,8|0,2:0|2:0,2:0:0:0:
87,82,249394,1,2,2:0:0:0:
147,12,249502,6,0,P|176:73|170:113,1,85,2|0,3:2|2:0,2:0:0:0:
59,158,249717,2,0,P|20:213|-16:228,1,85,2|0,3:2|2:0,2:0:0:0:
237,344,249932,6,0,P|207:230|138:171,2,204,6|2|2,3:2|0:0|2:0,2:0:0:0:
511,140,250792,6,0,P|454:61|370:14,1,195.500003728867,6|0,3:2|2:0,2:0:0:0:
387,248,251115,6,0,P|379:168|339:99,1,161.499995687485,6|0,3:2|2:0,2:0:0:0:
251,217,251438,6,0,P|262:184|261:151,1,68,6|0,3:2|2:0,2:0:0:0:
43,157,251652,6,0,P|13:134|1:78,1,85,6|0,3:2|2:0,0:0:0:0:
110,0,251867,2,0,L|85:92,1,85,2|0,2:0|2:0,2:0:0:0:
0,254,252082,5,8,2:0:0:0:
86,240,252189,1,2,2:0:0:0:
120,321,252297,2,0,P|153:356|228:350,1,85,2|0,0:0|2:0,0:0:0:0:
287,247,252513,6,0,L|194:271,1,85,2|0,3:2|0:0,2:0:0:0:
343,318,252728,2,0,L|435:342,1,85,2|0,2:0|2:0,0:0:0:0:
460,227,252943,5,8,2:0:0:0:
470,219,253050,1,2,2:0:0:0:
482,132,253158,1,2,3:2:0:0:
377,247,253265,1,2,3:2:0:0:
304,176,253373,6,0,B|512:32|512:32|336:0|336:0|176:384|176:384|0:352|0:352|208:208,1,1275,14|0,3:2|2:0,2:0:0:0:
