osu file format v14

[General]
AudioFilename: audio.mp3
AudioLeadIn: 0
PreviewTime: 13310
Countdown: 0
SampleSet: Soft
StackLeniency: 0.7
Mode: 0
LetterboxInBreaks: 0
WidescreenStoryboard: 1

[Editor]
Bookmarks: 407,14170,29654,43417,57181,70944,73095,87288,87503
DistanceSpacing: 0.5
BeatDivisor: 4
GridSize: 16
TimelineZoom: 2.3

[Metadata]
Title:LEVEL5 -judgelight- (TV Size)
TitleUnicode:LEVEL5 -judgelight- (TV Size)
Artist:fripSide
ArtistUnicode:fripSide
Creator:Toumei Dragon
Version:Insane
Source:
Tags:
BeatmapID:1225151
BeatmapSetID:578657

[Difficulty]
HPDrainRate:5
CircleSize:3.8
OverallDifficulty:8.2
ApproachRate:8.8
SliderMultiplier:1.9
SliderTickRate:1

[Events]
//Background and Video events
0,0,"misaka.png",0,0
//Break Periods
//Storyboard Layer 0 (Background)
//Storyboard Layer 1 (Fail)
//Storyboard Layer 2 (Pass)
//Storyboard Layer 3 (Foreground)
//Storyboard Layer 4 (Overlay)
//Storyboard Sound Samples

[TimingPoints]
407,430.10752688172,4,2,1,100,1,0
407,-100,4,2,22,100,0,0
837,-100,4,2,1,100,0,0
944,-100,4,2,22,100,0,0
1052,-100,4,2,1,100,0,0
1267,-100,4,2,20,100,0,0
1589,-100,4,2,14,100,0,0
2127,-100,4,2,22,100,0,0
2557,-100,4,2,1,100,0,0
2665,-100,4,2,22,100,0,0
2772,-100,4,2,1,100,0,0
2987,-100,4,2,6,100,0,0
3310,-100,4,2,20,100,0,0
3847,-100,4,2,22,100,0,0
4277,-100,4,2,1,100,0,0
4385,-100,4,2,22,100,0,0
4493,-100,4,2,1,100,0,0
4708,-100,4,2,20,100,0,0
5030,-100,4,2,14,100,0,0
5568,-100,4,2,22,100,0,0
5998,-100,4,2,1,100,0,0
6105,-100,4,2,22,100,0,0
6213,-100,4,2,1,100,0,0
6428,-100,4,2,6,100,0,0
6751,-100,4,2,20,100,0,0
7288,-100,4,2,22,100,0,0
7611,-100,4,2,20,100,0,0
7933,-100,4,2,14,100,0,0
8148,-100,4,2,8,100,0,0
8471,-100,4,2,4,100,0,0
8794,-100,4,2,14,100,0,0
9009,-100,4,2,8,100,0,0
9331,-100,4,2,4,100,0,0
9654,-100,4,2,21,100,0,0
9869,-100,4,2,18,100,0,0
10191,-100,4,2,21,100,0,0
10514,-100,4,2,23,60,0,0
10729,-100,4,2,15,100,0,0
10944,-100,4,2,1,100,0,0
11589,-100,4,2,8,100,0,0
11804,-100,4,2,1,100,0,0
12450,-100,4,2,4,100,0,0
12557,-100,4,2,1,100,0,0
12772,-100,4,2,8,100,0,0
12880,-100,4,2,1,100,0,0
13095,-100,4,2,14,100,0,0
13202,-100,4,2,1,100,0,0
13310,-83.3333333333333,4,2,21,100,0,0
13417,-83.3333333333333,4,2,1,100,0,0
13525,-83.3333333333333,4,2,18,100,0,0
13740,-83.3333333333333,4,2,21,100,0,0
13955,-83.3333333333333,4,2,4,100,0,0
14170,-83.3333333333333,4,2,8,100,0,1
14815,-83.3333333333333,4,2,22,100,0,1
15030,-83.3333333333333,4,2,20,100,0,1
15245,-83.3333333333333,4,2,17,100,0,1
15353,-83.3333333333333,4,2,14,100,0,1
15460,-83.3333333333333,4,2,1,100,0,1
15675,-83.3333333333333,4,2,8,100,0,1
15890,-83.3333333333333,4,2,14,100,0,1
16105,-83.3333333333333,4,2,8,100,0,1
16320,-83.3333333333333,4,2,14,100,0,1
16536,-83.3333333333333,4,2,17,100,0,1
16643,-83.3333333333333,4,2,8,100,0,1
16751,-83.3333333333333,4,2,1,100,0,1
17396,-83.3333333333333,4,2,8,100,0,1
17611,-83.3333333333333,4,2,11,100,0,1
17826,-83.3333333333333,4,2,14,100,0,1
17933,-83.3333333333333,4,2,17,100,0,1
18041,-83.3333333333333,4,2,1,100,0,1
18256,-83.3333333333333,4,2,22,100,0,1
18471,-83.3333333333333,4,2,20,100,0,1
18686,-83.3333333333333,4,2,17,100,0,1
18794,-83.3333333333333,4,2,14,100,0,1
18901,-83.3333333333333,4,2,1,100,0,1
19116,-83.3333333333333,4,2,4,100,0,1
19331,-83.3333333333333,4,2,8,100,0,1
19546,-83.3333333333333,4,2,11,100,0,1
19654,-83.3333333333333,4,2,8,100,0,1
19761,-83.3333333333333,4,2,1,100,0,1
20191,-83.3333333333333,4,2,21,50,0,1
20406,-83.3333333333333,4,2,18,65,0,1
20622,-83.3333333333333,4,2,21,80,0,1
20837,-83.3333333333333,4,2,4,100,0,1
21052,-83.3333333333333,4,2,8,100,0,1
21697,-83.3333333333333,4,2,22,100,0,1
21912,-83.3333333333333,4,2,20,100,0,1
22127,-83.3333333333333,4,2,17,100,0,1
22234,-83.3333333333333,4,2,14,100,0,1
22342,-83.3333333333333,4,2,1,100,0,1
22557,-83.3333333333333,4,2,8,100,0,1
22772,-83.3333333333333,4,2,16,100,0,1
22987,-83.3333333333333,4,2,20,100,0,1
23417,-83.3333333333333,4,2,6,100,0,1
23847,-83.3333333333333,4,2,10,100,0,1
23955,-83.3333333333333,4,2,22,100,0,1
24062,-83.3333333333333,4,2,1,100,0,1
24277,-83.3333333333333,4,2,22,100,0,1
24385,-83.3333333333333,4,2,20,100,0,1
24493,-83.3333333333333,4,2,17,100,0,1
24923,-83.3333333333333,4,2,22,100,0,1
25138,-83.3333333333333,4,2,1,100,0,1
25353,-83.3333333333333,4,2,6,100,0,1
25568,-83.3333333333333,4,2,22,100,0,1
25675,-83.3333333333333,4,2,1,100,0,1
25783,-83.3333333333333,4,2,20,100,0,1
25998,-83.3333333333333,4,2,14,100,0,1
26213,-83.3333333333333,4,2,20,100,0,1
26428,-83.3333333333333,4,2,22,100,0,1
26536,-83.3333333333333,4,2,17,100,0,1
26643,-83.3333333333333,4,2,1,100,0,1
29654,-100,4,2,1,100,0,0
38686,-66.6666666666667,4,2,1,100,0,0
38901,-100,4,2,1,100,0,0
39546,-66.6666666666667,4,2,1,100,0,0
39761,-100,4,2,1,100,0,0
49439,-100,4,2,1,50,0,0
49654,-100,4,2,1,65,0,0
49869,-100,4,2,1,80,0,0
50084,-100,4,2,1,100,0,0
50299,-100,4,2,1,100,0,0
55460,-100,4,2,10,100,0,0
55568,-100,4,2,20,100,0,0
55783,-100,4,2,16,100,0,0
55890,-100,4,2,1,100,0,0
55998,-100,4,2,20,100,0,0
56105,-100,4,2,16,100,0,0
56320,-133.333333333333,4,2,21,100,0,0
56536,-133.333333333333,4,2,18,100,0,0
56751,-133.333333333333,4,2,21,100,0,0
56966,-133.333333333333,4,2,4,100,0,0
57181,-76.9230769230769,4,2,8,100,0,1
57396,-76.9230769230769,4,2,1,100,0,1
57611,-76.9230769230769,4,2,8,100,0,1
57826,-76.9230769230769,4,2,22,100,0,1
58041,-76.9230769230769,4,2,20,100,0,1
58256,-76.9230769230769,4,2,17,100,0,1
58363,-76.9230769230769,4,2,14,100,0,1
58471,-76.9230769230769,4,2,1,100,0,1
58686,-76.9230769230769,4,2,8,100,0,1
58901,-76.9230769230769,4,2,14,100,0,1
59116,-76.9230769230769,4,2,8,100,0,1
59331,-76.9230769230769,4,2,14,100,0,1
59546,-76.9230769230769,4,2,17,100,0,1
59654,-76.9230769230769,4,2,8,100,0,1
59761,-76.9230769230769,4,2,1,100,0,1
60406,-76.9230769230769,4,2,8,100,0,1
60622,-76.9230769230769,4,2,11,100,0,1
60837,-76.9230769230769,4,2,14,100,0,1
60944,-76.9230769230769,4,2,17,100,0,1
61052,-76.9230769230769,4,2,1,100,0,1
61267,-76.9230769230769,4,2,22,100,0,1
61482,-76.9230769230769,4,2,20,100,0,1
61697,-76.9230769230769,4,2,17,100,0,1
61804,-76.9230769230769,4,2,14,100,0,1
61912,-76.9230769230769,4,2,1,100,0,1
62127,-76.9230769230769,4,2,4,100,0,1
62342,-76.9230769230769,4,2,8,100,0,1
62557,-76.9230769230769,4,2,11,100,0,1
62665,-76.9230769230769,4,2,8,100,0,1
62772,-76.9230769230769,4,2,1,100,0,1
63202,-76.9230769230769,4,2,21,50,0,1
63417,-76.9230769230769,4,2,18,65,0,1
63632,-76.9230769230769,4,2,21,80,0,1
63847,-76.9230769230769,4,2,4,100,0,1
64062,-76.9230769230769,4,2,8,100,0,1
64277,-76.9230769230769,4,2,1,100,0,1
64493,-76.9230769230769,4,2,8,100,0,1
64708,-76.9230769230769,4,2,22,100,0,1
64923,-76.9230769230769,4,2,20,100,0,1
65138,-76.9230769230769,4,2,17,100,0,1
65245,-76.9230769230769,4,2,14,100,0,1
65353,-76.9230769230769,4,2,1,100,0,1
65568,-76.9230769230769,4,2,8,100,0,1
65783,-76.9230769230769,4,2,16,100,0,1
65998,-76.9230769230769,4,2,20,100,0,1
66428,-76.9230769230769,4,2,6,100,0,1
66858,-76.9230769230769,4,2,10,100,0,1
66966,-76.9230769230769,4,2,22,100,0,1
67073,-76.9230769230769,4,2,1,100,0,1
67288,-76.9230769230769,4,2,22,100,0,1
67396,-76.9230769230769,4,2,20,100,0,1
67503,-76.9230769230769,4,2,17,100,0,1
67933,-76.9230769230769,4,2,22,100,0,1
68148,-76.9230769230769,4,2,1,100,0,1
68363,-76.9230769230769,4,2,6,100,0,1
68579,-76.9230769230769,4,2,22,100,0,1
68794,-76.9230769230769,4,2,20,100,0,1
69009,-76.9230769230769,4,2,14,100,0,1
69224,-76.9230769230769,4,2,20,100,0,1
69439,-76.9230769230769,4,2,22,100,0,1
69546,-76.9230769230769,4,2,17,100,0,1
69654,-76.9230769230769,4,2,1,100,0,1
70084,-76.9230769230769,4,2,3,100,0,1
70299,-76.9230769230769,4,2,21,100,0,1
70514,-76.9230769230769,4,2,3,100,0,1
70729,-76.9230769230769,4,2,7,100,0,1
70837,-76.9230769230769,4,2,1,100,0,0
70944,-71.4285714285714,4,2,11,100,0,1
71267,-71.4285714285714,4,2,1,100,0,1
71374,-71.4285714285714,4,2,11,100,0,1
71589,-71.4285714285714,4,2,5,100,0,1
71804,-71.4285714285714,4,2,22,100,0,1
72019,-71.4285714285714,4,2,16,100,0,1
72127,-71.4285714285714,4,2,16,100,0,1
72234,-71.4285714285714,4,2,1,100,0,1
72450,-71.4285714285714,4,2,11,100,0,1
72665,-71.4285714285714,4,2,16,100,0,1
72880,-71.4285714285714,4,2,11,100,0,1
73095,-71.4285714285714,4,2,16,100,0,1
73310,-71.4285714285714,4,2,19,100,0,1
73417,-71.4285714285714,4,2,11,100,0,1
73525,-71.4285714285714,4,2,1,100,0,1
73632,-71.4285714285714,4,2,1,100,0,1
74170,-71.4285714285714,4,2,11,100,0,1
74385,-71.4285714285714,4,2,13,100,0,1
74600,-71.4285714285714,4,2,16,100,0,1
74708,-71.4285714285714,4,2,19,100,0,1
74815,-71.4285714285714,4,2,1,100,0,1
75030,-71.4285714285714,4,2,5,100,0,1
75245,-71.4285714285714,4,2,22,100,0,1
75460,-71.4285714285714,4,2,19,100,0,1
75568,-71.4285714285714,4,2,16,100,0,1
75675,-71.4285714285714,4,2,1,100,0,1
75890,-71.4285714285714,4,2,7,100,0,1
76105,-71.4285714285714,4,2,11,100,0,1
76320,-71.4285714285714,4,2,13,100,0,1
76428,-71.4285714285714,4,2,11,100,0,1
76536,-71.4285714285714,4,2,1,100,0,1
76966,-71.4285714285714,4,2,3,100,0,1
77181,-71.4285714285714,4,2,21,100,0,1
77396,-71.4285714285714,4,2,3,100,0,1
77611,-71.4285714285714,4,2,7,100,0,1
77826,-71.4285714285714,4,2,11,100,0,1
78041,-71.4285714285714,4,2,1,5,0,1
78256,-71.4285714285714,4,2,11,100,0,1
78471,-71.4285714285714,4,2,5,100,0,1
78686,-71.4285714285714,4,2,22,100,0,1
78901,-71.4285714285714,4,2,19,100,0,1
79009,-71.4285714285714,4,2,16,100,0,1
79116,-71.4285714285714,4,2,1,100,0,1
79331,-71.4285714285714,4,2,11,100,0,1
79546,-71.4285714285714,4,2,17,100,0,1
79761,-71.4285714285714,4,2,22,100,0,1
80191,-71.4285714285714,4,2,9,100,0,1
80406,-71.4285714285714,4,2,9,100,0,1
80622,-71.4285714285714,4,2,12,100,0,1
80729,-71.4285714285714,4,2,5,100,0,1
80837,-71.4285714285714,4,2,1,100,0,1
81052,-71.4285714285714,4,2,5,100,0,1
81159,-71.4285714285714,4,2,1,100,0,1
81267,-90.9090909090909,4,2,19,100,0,1
81697,-90.9090909090909,4,2,5,100,0,1
81912,-90.9090909090909,4,2,1,100,0,1
82127,-90.9090909090909,4,2,9,100,0,1
82342,-90.9090909090909,4,2,5,100,0,1
82450,-90.9090909090909,4,2,2,5,0,1
82557,-90.9090909090909,4,2,22,100,0,1
82772,-90.9090909090909,4,2,16,100,0,1
82987,-90.9090909090909,4,2,22,100,0,1
83202,-90.9090909090909,4,2,5,100,0,1
83310,-90.9090909090909,4,2,19,100,0,1
83417,-90.9090909090909,4,2,1,100,0,1
84493,-90.9090909090909,4,2,5,100,0,1
84600,-90.9090909090909,4,2,22,100,0,1
84708,-90.9090909090909,4,2,19,100,0,1
85030,-90.9090909090909,4,2,1,100,0,1
85138,-90.9090909090909,4,2,12,100,0,1
85353,-90.9090909090909,4,2,1,100,0,1
85460,-90.9090909090909,4,2,1,100,0,1
85568,-90.9090909090909,4,2,9,100,0,1
85783,-90.9090909090909,4,2,5,100,0,1
85890,-90.9090909090909,4,2,1,100,0,1
85998,-90.9090909090909,4,2,22,100,0,1
86213,-90.9090909090909,4,2,16,100,0,1
86428,-90.9090909090909,4,2,22,100,0,1
86643,-90.9090909090909,4,2,5,100,0,1
86751,-90.9090909090909,4,2,19,100,0,1
86858,-90.9090909090909,4,2,1,100,0,1
88148,-90.9090909090909,4,2,1,100,0,0

[Colours]
Combo1 : 207,175,80
Combo2 : 9,145,94
Combo3 : 75,196,241
Combo4 : 255,236,245
SliderBorder : 250,255,253
SliderTrackOverride : 0,0,15

[HitObjects]
87,107,407,5,0,0:0:0:0:
92,114,514,1,0,0:0:0:0:
100,118,622,2,0,P|156:134|204:109,1,95,8|0,1:1|0:0,0:0:0:0:
256,62,944,2,0,P|301:49|344:66,1,95,8|0,1:1|3:0,0:0:0:0:
377,239,1267,2,0,P|311:200|299:129,2,142.5,2|2|2,3:1|3:1|3:1,0:0:0:0:
110,293,2127,5,0,0:0:0:0:
115,300,2234,1,0,0:0:0:0:
122,306,2342,2,0,L|233:296,1,95,8|0,1:1|0:0,0:0:0:0:
282,230,2665,2,0,L|393:240,1,95,8|0,1:1|0:0,0:0:0:0:
456,325,2987,2,0,L|469:168,2,142.5,2|2|2,3:1|3:1|3:1,0:0:0:0:
364,352,3847,5,0,0:0:0:0:
355,347,3955,1,0,0:0:0:0:
346,342,4062,2,0,L|237:338,1,95,8|0,1:1|0:0,0:0:0:0:
141,334,4385,2,0,L|198:241,1,95,8|0,0:1|0:0,0:0:0:0:
222,127,4708,2,0,L|301:276,2,142.5,2|2|2,3:1|3:1|3:1,0:0:0:0:
455,167,5568,5,0,0:0:0:0:
448,174,5675,1,0,0:0:0:0:
441,180,5783,2,0,P|393:191|349:171,1,95,8|0,1:1|0:0,0:0:0:0:
280,109,6105,2,0,P|232:98|188:118,1,95,8|0,1:1|0:0,0:0:0:0:
189,252,6428,2,0,P|208:178|172:87,2,142.5,2|2|2,3:1|3:1|3:1,0:0:0:0:
167,271,7288,6,0,L|328:297,2,142.5,8|8|2,0:0|0:0|3:3,0:0:0:0:
139,183,8148,2,0,L|-22:209,2,142.5,8|8|2,0:0|0:0|3:3,0:0:0:0:
234,170,9009,6,0,L|374:147,2,142.5,8|8|2,0:0|0:0|3:3,0:0:0:0:
207,85,9869,2,0,L|46:111,2,142.5,8|8|2,0:0|0:0|3:3,0:0:0:0:
255,9,10729,2,0,L|358:24,1,95,8|2,0:0|3:3,0:0:0:0:
234,170,11159,2,0,L|131:185,1,95,8|2,0:0|3:3,0:0:0:0:
349,22,11589,2,0,L|452:37,1,95,8|2,0:0|3:3,0:0:0:0:
139,183,12019,2,0,L|36:198,1,95,8|10,0:0|3:3,0:0:0:0:
255,9,12450,5,10,0:2:0:0:
247,15,12557,1,0,0:0:0:0:
240,21,12665,2,0,L|252:92,1,47.5,0|10,0:0|0:2,0:0:0:0:
356,174,12880,5,0,0:0:0:0:
364,180,12987,1,0,0:0:0:0:
371,186,13095,2,0,L|359:257,1,47.5,10|0,0:2|0:0,0:0:0:0:
286,354,13310,5,14,0:0:0:0:
198,342,13525,1,0,0:0:0:0:
110,330,13740,1,0,0:0:0:0:
286,354,13955,1,0,0:0:0:0:
40,263,14170,6,0,P|145:247|197:341,1,227.999993041992,12|10,0:0|0:0,0:0:0:0:
110,330,14815,1,2,3:3:0:0:
221,175,15030,6,0,P|239:118|226:43,1,113.999996520996,8|2,0:0|3:3,0:0:0:0:
218,40,15353,1,0,0:0:0:0:
211,30,15460,1,10,0:0:0:0:
334,163,15675,1,2,3:3:0:0:
131,80,15890,2,0,L|10:90,1,113.999996520996,8|2,0:0|3:3,0:0:0:0:
281,250,16320,2,0,L|402:260,1,113.999996520996,10|2,0:0|3:3,0:0:0:0:
420,236,16643,1,0,0:0:0:0:
430,232,16751,1,8,0:0:0:0:
221,175,16966,5,0,0:0:0:0:
221,175,17073,1,0,0:0:0:0:
221,175,17181,1,10,0:0:0:0:
322,376,17396,1,2,3:3:0:0:
268,98,17611,6,0,P|238:86|156:110,1,113.999996520996,8|2,0:0|3:3,0:0:0:0:
140,131,17933,1,0,0:0:0:0:
129,135,18041,1,14,0:0:0:0:
334,163,18256,1,2,3:3:0:0:
212,351,18471,6,0,L|226:226,1,113.999996520996,8|2,0:0|3:3,0:0:0:0:
226,209,18794,1,0,0:0:0:0:
227,197,18901,1,14,0:0:0:0:
423,324,19116,1,2,3:3:0:0:
355,63,19331,6,0,B|341:190,1,113.999996520996,12|2,3:3|3:3,0:0:0:0:
357,207,19654,1,0,0:0:0:0:
362,216,19761,2,0,P|299:206|221:233,1,113.999996520996,10|2,0:0|3:3,0:0:0:0:
178,271,20191,5,8,0:0:0:0:
263,303,20406,1,8,0:0:0:0:
93,238,20622,5,8,0:0:0:0:
235,124,20837,1,8,0:0:0:0:
38,326,21052,6,0,B|-2:256|-2:256|42:77,1,227.999993041992,12|10,0:0|0:0,0:0:0:0:
58,25,21697,1,2,3:3:0:0:
235,124,21912,6,0,P|291:148|361:121,1,113.999996520996,8|2,0:0|3:3,0:0:0:0:
365,121,22234,1,0,0:0:0:0:
374,114,22342,1,10,0:0:0:0:
268,276,22557,1,2,3:3:0:0:
158,65,22772,5,8,0:0:0:0:
108,269,22987,1,2,3:3:0:0:
235,124,23202,5,10,0:0:0:0:
265,360,23417,1,2,3:3:0:0:
195,209,23632,6,0,P|137:227|67:222,1,113.999996520996,10|2,0:0|3:3,0:0:0:0:
61,208,23955,1,0,0:0:0:0:
50,203,24062,1,10,0:0:0:0:
352,188,24277,5,2,3:3:0:0:
352,188,24385,1,0,0:0:0:0:
352,188,24493,2,0,L|99:145,1,227.999993041992,12|10,0:0|0:0,0:0:0:0:
50,203,25138,1,0,0:0:0:0:
199,368,25353,6,0,P|236:314|231:265,1,113.999996520996,10|0,0:0|0:0,0:0:0:0:
160,235,25675,1,10,0:0:0:0:
149,239,25783,2,0,P|112:293|117:342,1,113.999996520996,10|0,0:0|0:0,0:0:0:0:
214,182,26213,5,14,0:0:0:0:
21,345,26429,1,0,0:0:0:0:
21,345,26536,1,0,0:0:0:0:
21,345,26643,1,0,0:0:0:0:
131,152,26859,1,0,0:0:0:0:
281,341,27073,5,0,0:0:0:0:
281,341,27181,1,0,0:0:0:0:
281,341,27289,1,0,0:0:0:0:
281,341,27396,1,0,0:0:0:0:
281,341,27503,1,0,0:0:0:0:
64,264,27719,1,0,0:0:0:0:
405,202,27933,5,2,3:3:0:0:
424,230,28040,1,0,0:0:0:0:
432,264,28149,1,0,0:0:0:0:
427,300,28255,1,0,0:0:0:0:
409,329,28363,1,0,0:0:0:0:
381,351,28470,1,0,0:0:0:0:
347,361,28579,1,0,0:0:0:0:
313,358,28685,1,0,0:0:0:0:
281,341,28794,2,0,B|238:317|195:331|211:342|162:359|116:339,2,170.999994781494,0|0|0,0:0|0:0|0:0,0:0:0:0:
351,76,29654,6,0,P|341:170|335:265,1,190,12|10,0:0|0:0,0:0:0:0:
429,179,30299,1,2,3:3:0:0:
235,109,30514,2,0,P|188:107|140:131,1,95,8|2,0:0|3:3,0:0:0:0:
404,264,30944,2,0,P|451:266|499:242,1,95,10|2,0:0|3:3,0:0:0:0:
430,48,31374,6,0,P|405:107|432:182,2,142.5,8|0|2,0:0|0:0|3:3,0:0:0:0:
493,246,32234,1,8,0:0:0:0:
493,246,32342,1,0,0:0:0:0:
493,246,32450,1,2,3:3:0:0:
313,330,32665,5,10,0:0:0:0:
284,351,32772,1,0,0:0:0:0:
250,359,32880,1,2,3:3:0:0:
215,352,32987,1,0,0:0:0:0:
187,331,33095,6,0,B|160:282|175:234|188:252|207:197|184:145,1,190,8|10,0:0|0:0,0:0:0:0:
76,285,33740,1,2,3:3:0:0:
263,280,33955,2,0,P|316:271|367:230,1,95,8|2,0:0|3:3,0:0:0:0:
107,194,34385,2,0,P|53:192|-4:225,1,95,10|2,0:0|3:3,0:0:0:0:
286,190,34815,6,0,P|299:114|304:47,2,142.5,8|0|2,0:0|0:0|3:3,0:0:0:0:
164,305,35675,1,8,0:0:0:0:
286,190,35890,1,0,0:0:0:0:
254,338,36105,1,10,0:0:0:0:
196,157,36320,1,2,3:3:0:0:
344,371,36536,6,0,B|370:368|398:383|398:383|448:365|490:306|478:239,2,190,12|10|8,0:0|0:0|0:0,0:0:0:0:
164,305,37611,1,2,3:3:0:0:
386,291,37826,2,0,P|396:237|380:196,1,95,10|2,0:0|3:3,0:0:0:0:
279,83,38256,6,0,L|303:223,1,142.5,8|0,0:0|0:0,0:0:0:0:
309,248,38686,2,0,P|249:228|176:275,1,142.500005435944,14|0,0:0|0:0,0:0:0:0:
17,233,39116,6,0,L|157:255,1,142.5,8|0,0:0|0:0,0:0:0:0:
182,263,39546,2,0,P|162:203|209:130,1,142.500005435944,14|0,0:0|0:0,0:0:0:0:
322,58,39976,6,0,P|313:172|307:285,1,190,12|10,3:3|0:0,0:0:0:0:
417,155,40622,1,2,3:3:0:0:
251,319,40837,2,0,B|144:308|186:374|71:366,1,190,8|10,0:0|0:0,0:0:0:0:
17,233,41482,1,2,3:3:0:0:
205,214,41697,6,0,P|223:170|227:123,1,95,12|2,0:0|3:3,0:0:0:0:
219,101,42019,1,0,0:0:0:0:
217,96,42127,1,10,0:0:0:0:
145,294,42342,1,2,3:3:0:0:
319,84,42557,5,8,0:0:0:0:
309,58,42664,1,0,0:0:0:0:
291,36,42772,1,2,3:3:0:0:
269,19,42879,1,0,0:0:0:0:
242,8,42987,1,10,0:0:0:0:
214,5,43094,1,0,0:0:0:0:
186,10,43202,1,2,3:3:0:0:
160,21,43309,1,0,0:0:0:0:
138,40,43417,6,0,L|148:199,1,142.5,12|0,0:0|0:0,0:0:0:0:
142,205,43847,1,10,0:0:0:0:
319,84,44062,1,2,3:3:0:0:
204,279,44277,6,0,P|148:301|73:269,1,142.5,8|0,0:0|0:0,0:0:0:0:
69,247,44708,1,10,0:0:0:0:
252,360,44923,1,2,3:3:0:0:
12,328,45138,6,0,L|44:149,2,142.5,8|0|2,0:0|0:0|3:3,0:0:0:0:
204,279,45998,5,8,0:0:0:0:
227,292,46105,1,0,0:0:0:0:
255,300,46213,1,2,3:3:0:0:
283,297,46320,1,0,0:0:0:0:
309,288,46428,1,10,0:0:0:0:
332,269,46535,1,0,0:0:0:0:
348,246,46643,1,2,3:3:0:0:
357,220,46750,1,0,0:0:0:0:
357,191,46858,6,0,L|196:169,1,142.5,12|0,0:0|0:0,0:0:0:0:
193,179,47288,1,10,0:0:0:0:
405,110,47503,1,2,3:3:0:0:
225,272,47718,2,0,L|122:257,1,95,8|2,0:0|3:3,0:0:0:0:
115,241,48041,1,0,0:0:0:0:
106,236,48148,2,0,L|11:248,1,95,10|2,0:0|3:3,0:0:0:0:
215,38,48579,6,0,L|190:192,2,142.5,8|0|2,0:0|0:0|3:3,0:0:0:0:
305,0,49439,5,8,0:0:0:0:
291,84,49654,1,2,3:3:0:0:
143,0,49869,1,10,0:0:0:0:
377,58,50084,1,0,0:0:0:0:
193,179,50299,6,0,L|79:170,1,104.500003189087,12|0,0:0|0:0,0:0:0:0:
68,154,50622,1,0,0:0:0:0:
60,146,50729,1,0,0:0:0:0:
143,0,50944,1,2,3:3:0:0:
286,172,51159,6,0,L|294:343,1,156.750004783631,8|0,0:0|0:0,0:0:0:0:
306,351,51589,1,10,0:0:0:0:
193,179,51804,1,2,3:3:0:0:
386,279,52019,6,0,P|440:297|500:266,1,104.500003189087,12|0,0:0|0:0,0:0:0:0:
507,255,52342,1,0,0:0:0:0:
501,263,52450,1,0,0:0:0:0:
454,92,52665,1,2,3:3:0:0:
286,172,52880,6,0,L|181:164,1,104.500003189087,8|0,0:0|0:0,0:0:0:0:
130,238,53202,2,0,L|25:245,1,104.500003189087,0|0,0:0|0:0,0:0:0:0:
0,169,53525,1,2,3:3:0:0:
223,256,53740,5,12,0:0:0:0:
145,15,53955,1,2,3:3:0:0:
145,15,54062,1,0,0:0:0:0:
145,15,54170,1,0,0:0:0:0:
130,238,54385,1,2,3:3:0:0:
344,65,54600,5,8,0:0:0:0:
316,274,54815,1,2,3:3:0:0:
316,274,54923,1,0,0:0:0:0:
316,274,55030,1,0,0:0:0:0:
86,87,55245,1,0,3:3:0:0:
235,288,55460,5,14,0:0:0:0:
227,282,55567,1,0,0:0:0:0:
220,276,55675,2,0,L|232:205,1,47.5,0|14,3:3|0:0,0:0:0:0:
336,123,55890,5,0,0:0:0:0:
344,117,55997,1,0,0:0:0:0:
351,111,56105,2,0,L|339:40,1,47.5,14|0,0:0|0:0,0:0:0:0:
163,153,56320,5,14,0:0:0:0:
227,229,56536,1,0,0:0:0:0:
321,215,56751,2,0,L|400:197,1,71.2500027179719,0|0,0:0|0:0,0:0:0:0:
464,59,57181,6,0,B|388:22|388:22|217:51,1,246.999988693238,12|10,0:0|0:0,0:0:0:0:
124,200,57826,1,2,3:3:0:0:
395,232,58041,6,0,P|392:171|370:114,1,123.499994346619,8|2,0:0|3:3,0:0:0:0:
352,87,58363,1,0,0:0:0:0:
343,77,58471,1,10,0:0:0:0:
148,189,58686,1,2,3:3:0:0:
337,302,58901,6,0,P|389:325|461:300,1,123.499994346619,8|2,0:0|3:3,0:0:0:0:
212,255,59331,2,0,P|163:277|86:256,1,123.499994346619,10|2,0:0|3:3,0:0:0:0:
72,245,59654,1,0,0:0:0:0:
67,234,59761,1,8,0:0:0:0:
225,61,59976,5,0,0:0:0:0:
225,61,60084,1,0,0:0:0:0:
225,61,60191,1,10,0:0:0:0:
327,283,60406,1,2,3:3:0:0:
87,355,60622,6,0,L|65:223,1,123.499994346619,8|2,0:0|3:3,0:0:0:0:
59,200,60944,1,0,0:0:0:0:
57,189,61052,1,14,0:0:0:0:
267,347,61267,1,2,3:3:0:0:
116,111,61482,6,0,L|250:95,1,123.499994346619,8|2,0:0|3:3,0:0:0:0:
269,91,61804,1,0,0:0:0:0:
280,91,61912,1,14,0:0:0:0:
57,189,62127,1,2,3:3:0:0:
327,283,62342,6,0,P|380:295|464:269,1,123.499994346619,12|2,3:3|3:3,0:0:0:0:
473,265,62665,1,0,0:0:0:0:
482,257,62772,1,10,0:0:0:0:
267,347,62987,1,2,3:3:0:0:
427,184,63202,5,8,0:0:0:0:
370,95,63417,1,8,0:0:0:0:
246,261,63632,5,8,0:0:0:0:
475,90,63847,1,8,0:0:0:0:
185,196,64062,6,0,P|155:245|179:329,1,123.499994346619,12|2,0:0|3:3,0:0:0:0:
427,184,64493,1,10,0:0:0:0:
246,261,64708,1,2,3:3:0:0:
499,249,64923,6,0,P|520:184|500:125,1,123.499994346619,8|2,0:0|3:3,0:0:0:0:
483,111,65245,1,0,0:0:0:0:
474,103,65353,1,10,0:0:0:0:
389,314,65568,1,2,3:3:0:0:
265,85,65783,5,8,0:0:0:0:
173,312,65998,1,2,3:3:0:0:
379,136,66213,5,10,0:0:0:0:
452,368,66428,1,2,3:3:0:0:
273,205,66643,6,0,P|194:191|138:212,1,123.499994346619,8|2,0:0|3:3,0:0:0:0:
126,217,66966,1,0,0:0:0:0:
117,226,67073,1,10,0:0:0:0:
352,267,67288,1,2,3:3:0:0:
352,267,67396,1,0,0:0:0:0:
352,267,67503,2,0,B|387:203|366:140|350:164|325:92|354:24,1,246.999988693238,12|10,0:0|0:0,0:0:0:0:
460,145,68148,1,2,3:3:0:0:
273,205,68363,6,0,L|143:191,1,123.499994346619,12|2,0:0|3:3,0:0:0:0:
353,28,68794,2,0,L|483:42,1,123.499994346619,10|2,0:0|3:3,0:0:0:0:
416,225,69224,5,12,0:0:0:0:
242,62,69439,1,2,3:3:0:0:
242,62,69546,1,0,0:0:0:0:
242,62,69654,2,0,L|119:75,1,123.499994346619,10|2,0:0|3:3,0:0:0:0:
74,293,70084,5,10,0:0:0:0:
289,151,70299,1,8,0:0:0:0:
30,54,70514,5,10,0:0:0:0:
198,303,70729,1,10,0:0:0:0:
371,49,70944,6,0,P|378:152|392:264,1,199.499993911743,12|0,0:0|0:0,0:0:0:0:
401,278,71374,1,10,0:0:0:0:
269,139,71589,1,2,3:3:0:0:
113,375,71804,6,0,L|122:237,1,132.999995941162,8|2,0:0|3:3,0:0:0:0:
115,209,72127,1,0,0:0:0:0:
113,197,72234,1,10,0:0:0:0:
297,337,72450,1,2,3:3:0:0:
326,70,72665,6,0,P|269:48|195:90,1,132.999995941162,8|2,0:0|3:3,0:0:0:0:
169,337,73095,2,0,P|224:352|307:329,1,132.999995941162,10|2,0:0|3:3,0:0:0:0:
326,320,73417,1,0,0:0:0:0:
336,312,73525,1,8,0:0:0:0:
121,242,73740,1,0,0:0:0:0:
121,242,73847,1,0,0:0:0:0:
121,242,73955,1,10,0:0:0:0:
326,70,74170,1,2,3:3:0:0:
86,24,74385,6,0,L|106:171,1,132.999995941162,8|2,0:0|3:3,0:0:0:0:
132,173,74708,1,0,0:0:0:0:
132,173,74815,1,14,0:0:0:0:
352,53,75030,1,2,3:3:0:0:
410,287,75245,6,0,L|271:259,1,132.999995941162,8|2,0:0|3:3,0:0:0:0:
254,238,75568,1,0,0:0:0:0:
242,235,75675,1,14,0:0:0:0:
495,171,75890,1,2,3:3:0:0:
159,316,76105,6,0,L|143:183,1,132.999995941162,12|2,3:3|3:3,0:0:0:0:
154,152,76428,1,0,0:0:0:0:
160,140,76536,1,10,0:0:0:0:
302,374,76751,1,2,3:3:0:0:
69,139,76966,5,12,0:0:0:0:
351,201,77181,1,8,0:0:0:0:
50,252,77396,5,12,3:3:0:0:
363,92,77611,1,8,0:0:0:0:
211,378,77826,6,0,P|219:278|225:170,1,199.499993911743,12|0,0:0|0:0,0:0:0:0:
217,146,78256,1,10,0:0:0:0:
374,346,78471,1,2,3:3:0:0:
126,176,78686,6,0,P|56:206|14:258,1,132.999995941162,8|2,0:0|3:3,0:0:0:0:
14,280,79009,1,0,0:0:0:0:
14,292,79116,1,10,0:0:0:0:
154,82,79331,1,2,3:3:0:0:
232,310,79546,5,8,0:0:0:0:
349,42,79761,1,2,3:3:0:0:
399,333,79976,5,10,0:0:0:0:
170,62,80191,1,2,3:3:0:0:
90,359,80406,5,10,0:0:0:0:
408,121,80622,1,2,3:3:0:0:
408,121,80729,1,0,0:0:0:0:
408,121,80837,1,10,0:0:0:0:
242,286,81052,5,2,3:3:0:0:
242,286,81159,1,0,0:0:0:0:
242,286,81267,2,0,B|178:312|178:312|29:277,1,209.000006378174,12|10,0:0|0:0,0:0:0:0:
277,182,81912,1,2,3:3:0:0:
342,364,82127,6,0,P|358:310|345:261,1,104.500003189087,12|2,0:0|3:3,0:0:0:0:
346,238,82450,1,0,0:0:0:0:
356,237,82557,6,0,P|394:277|443:291,1,104.500003189087,10|2,0:0|3:3,0:0:0:0:
438,196,82987,5,12,0:0:0:0:
242,286,83202,1,2,3:3:0:0:
242,286,83310,1,0,0:0:0:0:
242,286,83417,1,10,0:0:0:0:
470,285,83632,5,2,3:3:0:0:
204,201,83847,1,8,0:0:0:0:
165,204,83954,1,0,0:0:0:0:
126,208,84062,1,2,3:3:0:0:
87,212,84169,1,0,0:0:0:0:
48,216,84277,1,10,0:0:0:0:
319,351,84493,5,2,3:3:0:0:
319,351,84600,1,0,0:0:0:0:
319,351,84708,2,0,L|340:134,1,209.000006378174,12|0,0:0|0:0,0:0:0:0:
352,54,85353,1,0,0:0:0:0:
166,207,85568,2,0,P|227:219|289:188,1,104.500003189087,8|0,0:0|0:0,0:0:0:0:
350,144,85890,1,8,0:0:0:0:
339,142,85998,2,0,P|298:188|293:258,1,104.500003189087,0|8,0:0|0:0,0:0:0:0:
92,268,86428,6,0,P|71:212|79:165,1,104.500003189087,12|2,0:0|3:3,0:0:0:0:
80,142,86751,1,0,0:0:0:0:
83,132,86858,1,10,0:0:0:0:
207,369,87073,1,2,3:3:0:0:
431,323,87288,2,0,L|238:296,1,156.750004783631,10|0,0:0|0:0,0:0:0:0:
200,248,87718,5,10,0:0:0:0:
194,196,87826,1,0,0:0:0:0:
188,144,87933,1,2,3:3:0:0:
181,92,88041,1,0,0:0:0:0:
175,40,88148,1,12,0:0:0:0:
