osu file format v14

[General]
AudioFilename: audio.mp3
AudioLeadIn: 0
PreviewTime: 13310
Countdown: 0
SampleSet: Soft
StackLeniency: 0.7
Mode: 0
LetterboxInBreaks: 0
EpilepsyWarning: 1
WidescreenStoryboard: 1

[Editor]
Bookmarks: 407,14170,29654,43417,57181,70944,73095,87503
DistanceSpacing: 1
BeatDivisor: 12
GridSize: 4
TimelineZoom: 2.799999

[Metadata]
Title:LEVEL5 -judgelight- (TV Size)
TitleUnicode:LEVEL5 -judgelight- (TV Size)
Artist:fripSide
ArtistUnicode:fripSide
Creator:Toumei Dragon
Version:Hard
Source:
Tags:
BeatmapID:1225749
BeatmapSetID:578657

[Difficulty]
HPDrainRate:4.5
CircleSize:3.8
OverallDifficulty:7
ApproachRate:8
SliderMultiplier:1.7
SliderTickRate:1

[Events]
//Background and Video events
0,0,"misaka.png",0,0
//Break Periods
//Storyboard Layer 0 (Background)
//Storyboard Layer 1 (Fail)
//Storyboard Layer 2 (Pass)
//Storyboard Layer 3 (Foreground)
//Storyboard Layer 4 (Overlay)
//Storyboard Sound Samples

[TimingPoints]
407,430.10752688172,4,2,1,100,1,0
407,-100,4,2,22,100,0,0
837,-100,4,2,22,5,0,0
944,-100,4,2,22,100,0,0
1052,-100,4,2,1,5,0,0
1267,-100,4,2,20,100,0,0
1589,-100,4,2,14,100,0,0
2127,-100,4,2,22,100,0,0
2557,-100,4,2,22,5,0,0
2665,-100,4,2,22,100,0,0
2772,-100,4,2,1,5,0,0
2987,-100,4,2,6,100,0,0
3310,-100,4,2,20,100,0,0
3847,-100,4,2,22,100,0,0
4277,-100,4,2,22,5,0,0
4385,-100,4,2,22,100,0,0
4493,-100,4,2,1,5,0,0
4708,-100,4,2,20,100,0,0
5030,-100,4,2,14,100,0,0
5568,-100,4,2,22,100,0,0
5998,-100,4,2,22,5,0,0
6105,-100,4,2,22,100,0,0
6213,-100,4,2,1,5,0,0
6428,-100,4,2,6,100,0,0
6751,-100,4,2,20,100,0,0
7288,-100,4,2,22,100,0,0
7611,-100,4,2,20,100,0,0
7933,-100,4,2,14,100,0,0
8148,-100,4,2,8,100,0,0
8471,-100,4,2,4,100,0,0
8794,-100,4,2,14,100,0,0
9009,-100,4,2,8,100,0,0
9331,-100,4,2,4,100,0,0
9654,-100,4,2,21,100,0,0
9869,-100,4,2,18,100,0,0
10191,-100,4,2,21,100,0,0
10514,-100,4,2,23,60,0,0
10729,-100,4,2,15,60,0,0
10944,-100,4,2,1,100,0,0
11589,-100,4,2,8,100,0,0
11804,-100,4,2,1,100,0,0
12450,-100,4,2,4,100,0,0
12557,-100,4,2,1,100,0,0
12772,-100,4,2,8,100,0,0
12880,-100,4,2,1,100,0,0
13095,-100,4,2,14,100,0,0
13202,-100,4,2,1,100,0,0
13310,-100,4,2,21,100,0,0
13417,-100,4,2,1,100,0,0
13525,-100,4,2,18,100,0,0
13740,-100,4,2,21,100,0,0
13955,-100,4,2,4,100,0,0
14170,-100,4,2,8,100,0,1
14815,-100,4,2,22,100,0,1
15030,-100,4,2,20,100,0,1
15245,-100,4,2,17,100,0,1
15353,-100,4,2,14,100,0,1
15460,-100,4,2,1,100,0,1
15675,-100,4,2,8,100,0,1
15890,-100,4,2,14,100,0,1
16105,-100,4,2,8,100,0,1
16320,-100,4,2,14,100,0,1
16536,-100,4,2,17,100,0,1
16643,-100,4,2,8,100,0,1
16751,-100,4,2,1,100,0,1
17396,-100,4,2,8,100,0,1
17611,-100,4,2,11,100,0,1
17826,-100,4,2,14,100,0,1
17933,-100,4,2,17,100,0,1
18041,-100,4,2,1,100,0,1
18256,-100,4,2,22,100,0,1
18471,-100,4,2,20,100,0,1
18686,-100,4,2,17,100,0,1
18794,-100,4,2,14,100,0,1
18901,-100,4,2,1,100,0,1
19116,-100,4,2,4,100,0,1
19331,-100,4,2,8,100,0,1
19546,-100,4,2,11,100,0,1
19654,-100,4,2,8,100,0,1
19761,-100,4,2,1,100,0,1
20191,-100,4,2,21,50,0,1
20406,-100,4,2,18,65,0,1
20622,-100,4,2,21,80,0,1
20837,-100,4,2,4,100,0,1
21052,-100,4,2,8,100,0,1
21697,-100,4,2,22,100,0,1
21912,-100,4,2,20,100,0,1
22127,-100,4,2,17,100,0,1
22234,-100,4,2,14,100,0,1
22342,-100,4,2,1,100,0,1
22557,-100,4,2,8,100,0,1
22772,-100,4,2,16,100,0,1
22987,-100,4,2,20,100,0,1
23417,-100,4,2,6,100,0,1
23847,-100,4,2,10,100,0,1
23955,-100,4,2,22,100,0,1
24062,-100,4,2,1,100,0,1
24277,-100,4,2,22,100,0,1
24385,-100,4,2,20,100,0,1
24493,-100,4,2,17,100,0,1
24923,-100,4,2,22,100,0,1
25138,-100,4,2,1,100,0,1
25353,-100,4,2,6,100,0,1
25568,-100,4,2,22,100,0,1
25675,-100,4,2,1,100,0,1
25783,-100,4,2,20,100,0,1
25998,-100,4,2,14,100,0,1
26213,-100,4,2,20,100,0,1
26428,-100,4,2,22,100,0,1
26536,-100,4,2,17,100,0,1
26643,-100,4,2,1,100,0,1
29654,-100,4,2,1,100,0,0
38686,-100,4,2,1,100,0,0
38901,-100,4,2,1,100,0,0
39546,-100,4,2,1,100,0,0
39761,-100,4,2,1,100,0,0
49439,-100,4,2,1,50,0,0
49654,-100,4,2,1,65,0,0
49869,-100,4,2,1,80,0,0
50084,-100,4,2,1,100,0,0
50299,-100,4,2,1,100,0,0
55460,-100,4,2,10,100,0,0
55568,-100,4,2,20,100,0,0
55783,-100,4,2,16,100,0,0
55890,-100,4,2,1,100,0,0
55998,-100,4,2,20,100,0,0
56105,-100,4,2,16,100,0,0
56320,-100,4,2,21,100,0,0
56536,-100,4,2,18,100,0,0
56751,-100,4,2,21,100,0,0
56966,-100,4,2,4,100,0,0
57181,-100,4,2,8,100,0,1
57396,-100,4,2,1,100,0,1
57611,-100,4,2,8,100,0,1
57826,-100,4,2,22,100,0,1
58041,-100,4,2,20,100,0,1
58256,-100,4,2,17,100,0,1
58363,-100,4,2,14,100,0,1
58471,-100,4,2,1,100,0,1
58686,-100,4,2,8,100,0,1
58901,-100,4,2,14,100,0,1
59116,-100,4,2,8,100,0,1
59331,-100,4,2,14,100,0,1
59546,-100,4,2,17,100,0,1
59654,-100,4,2,8,100,0,1
59761,-100,4,2,1,100,0,1
60406,-100,4,2,8,100,0,1
60622,-100,4,2,11,100,0,1
60837,-100,4,2,14,100,0,1
60944,-100,4,2,17,100,0,1
61052,-100,4,2,1,100,0,1
61267,-100,4,2,22,100,0,1
61482,-100,4,2,20,100,0,1
61697,-100,4,2,17,100,0,1
61804,-100,4,2,14,100,0,1
61912,-100,4,2,1,100,0,1
62127,-100,4,2,4,100,0,1
62342,-100,4,2,8,100,0,1
62557,-100,4,2,11,100,0,1
62665,-100,4,2,8,100,0,1
62772,-100,4,2,1,100,0,1
63202,-100,4,2,21,50,0,1
63417,-100,4,2,18,65,0,1
63632,-100,4,2,21,80,0,1
63847,-100,4,2,4,100,0,1
64062,-100,4,2,8,100,0,1
64277,-100,4,2,1,100,0,1
64493,-100,4,2,8,100,0,1
64708,-100,4,2,22,100,0,1
64923,-100,4,2,20,100,0,1
65138,-100,4,2,17,100,0,1
65245,-100,4,2,14,100,0,1
65353,-100,4,2,1,100,0,1
65568,-100,4,2,8,100,0,1
65783,-100,4,2,16,100,0,1
65998,-100,4,2,20,100,0,1
66428,-100,4,2,6,100,0,1
66858,-100,4,2,10,100,0,1
66966,-100,4,2,22,100,0,1
67073,-100,4,2,1,100,0,1
67288,-100,4,2,22,100,0,1
67396,-100,4,2,20,100,0,1
67503,-100,4,2,17,100,0,1
67933,-100,4,2,22,100,0,1
68148,-100,4,2,1,100,0,1
68363,-100,4,2,6,100,0,1
68579,-100,4,2,22,100,0,1
68794,-100,4,2,20,100,0,1
69009,-100,4,2,14,100,0,1
69224,-100,4,2,20,100,0,1
69439,-100,4,2,22,100,0,1
69546,-100,4,2,17,100,0,1
69654,-100,4,2,1,100,0,1
70084,-100,4,2,3,100,0,1
70299,-100,4,2,21,100,0,1
70514,-100,4,2,3,100,0,1
70729,-100,4,2,7,100,0,1
70837,-100,4,2,1,100,0,0
70944,-90.9090909090909,4,2,11,100,0,1
71267,-90.9090909090909,4,2,1,100,0,1
71374,-90.9090909090909,4,2,11,100,0,1
71589,-90.9090909090909,4,2,5,100,0,1
71804,-90.9090909090909,4,2,22,100,0,1
72019,-90.9090909090909,4,2,16,100,0,1
72127,-90.9090909090909,4,2,16,100,0,1
72234,-90.9090909090909,4,2,1,100,0,1
72450,-90.9090909090909,4,2,11,100,0,1
72665,-90.9090909090909,4,2,16,100,0,1
72880,-90.9090909090909,4,2,11,100,0,1
73095,-90.9090909090909,4,2,16,100,0,1
73310,-90.9090909090909,4,2,19,100,0,1
73417,-90.9090909090909,4,2,11,100,0,1
73525,-90.9090909090909,4,2,1,100,0,1
73632,-90.9090909090909,4,2,1,100,0,1
74170,-90.9090909090909,4,2,11,100,0,1
74385,-90.9090909090909,4,2,13,100,0,1
74600,-90.9090909090909,4,2,16,100,0,1
74708,-90.9090909090909,4,2,19,100,0,1
74815,-90.9090909090909,4,2,1,100,0,1
75030,-90.9090909090909,4,2,5,100,0,1
75245,-90.9090909090909,4,2,22,100,0,1
75460,-90.9090909090909,4,2,19,100,0,1
75568,-90.9090909090909,4,2,16,100,0,1
75675,-90.9090909090909,4,2,1,100,0,1
75890,-90.9090909090909,4,2,7,100,0,1
76105,-90.9090909090909,4,2,11,100,0,1
76320,-90.9090909090909,4,2,13,100,0,1
76428,-90.9090909090909,4,2,11,100,0,1
76536,-90.9090909090909,4,2,1,100,0,1
76966,-90.9090909090909,4,2,3,100,0,1
77181,-90.9090909090909,4,2,21,100,0,1
77396,-90.9090909090909,4,2,3,100,0,1
77611,-90.9090909090909,4,2,7,100,0,1
77826,-90.9090909090909,4,2,11,100,0,1
78041,-90.9090909090909,4,2,1,100,0,1
78256,-90.9090909090909,4,2,11,100,0,1
78471,-90.9090909090909,4,2,5,100,0,1
78686,-90.9090909090909,4,2,22,100,0,1
78901,-90.9090909090909,4,2,19,100,0,1
79009,-90.9090909090909,4,2,16,100,0,1
79116,-90.9090909090909,4,2,1,100,0,1
79331,-90.9090909090909,4,2,11,100,0,1
79546,-90.9090909090909,4,2,17,100,0,1
79761,-90.9090909090909,4,2,22,100,0,1
80191,-90.9090909090909,4,2,9,100,0,1
80406,-90.9090909090909,4,2,9,100,0,1
80622,-90.9090909090909,4,2,12,100,0,1
80729,-90.9090909090909,4,2,5,100,0,1
80837,-90.9090909090909,4,2,1,100,0,1
81052,-90.9090909090909,4,2,5,100,0,1
81159,-90.9090909090909,4,2,1,100,0,1
81267,-90.9090909090909,4,2,19,100,0,1
81697,-90.9090909090909,4,2,5,100,0,1
81912,-90.9090909090909,4,2,1,100,0,1
82127,-90.9090909090909,4,2,9,100,0,1
82342,-90.9090909090909,4,2,5,100,0,1
82450,-90.9090909090909,4,2,2,5,0,1
82557,-90.9090909090909,4,2,22,100,0,1
82772,-90.9090909090909,4,2,16,100,0,1
82987,-90.9090909090909,4,2,22,100,0,1
83202,-90.9090909090909,4,2,5,100,0,1
83310,-90.9090909090909,4,2,19,100,0,1
83417,-90.9090909090909,4,2,1,100,0,1
84493,-90.9090909090909,4,2,5,100,0,1
84600,-90.9090909090909,4,2,22,100,0,1
84708,-100,4,2,19,100,0,1
85030,-100,4,2,1,100,0,1
85138,-100,4,2,12,100,0,1
85353,-100,4,2,1,100,0,1
85460,-100,4,2,1,100,0,1
85568,-100,4,2,9,100,0,1
85783,-100,4,2,5,100,0,1
85890,-100,4,2,1,100,0,1
85998,-100,4,2,22,100,0,1
86213,-100,4,2,16,100,0,1
86428,-100,4,2,22,100,0,1
86643,-100,4,2,5,100,0,1
86751,-100,4,2,19,100,0,1
86858,-100,4,2,1,100,0,1
88148,-100,4,2,1,100,0,0

[Colours]
Combo1 : 207,175,80
Combo2 : 9,145,94
Combo3 : 75,196,241
Combo4 : 255,236,245
SliderBorder : 250,255,253
SliderTrackOverride : 0,0,15

[HitObjects]
183,280,407,6,0,P|221:282|239:278,2,42.5,0|0|8,0:0|0:0|1:1,0:0:0:0:
298,234,944,2,0,P|345:223|409:241,1,85,8|0,1:1|0:0,0:0:0:0:
422,304,1267,2,0,P|458:264|456:186,2,127.5,2|2|2,1:1|1:1|1:1,0:0:0:0:
298,234,2127,2,0,P|314:195|320:161,2,42.5,0|0|8,0:0|0:0|1:1,0:0:0:0:
339,113,2665,2,0,P|297:102|256:108,1,85,8|0,1:1|0:0,0:0:0:0:
183,158,2987,2,0,P|217:115|210:42,2,127.5,2|2|2,1:1|1:1|1:1,0:0:0:0:
130,90,3847,6,0,P|106:117|98:142,2,42.5,0|0|8,0:0|0:0|1:1,0:0:0:0:
115,205,4385,2,0,P|135:247|125:304,1,85,8|0,1:1|0:0,0:0:0:0:
108,365,4708,2,0,P|58:328|50:267,2,127.5,2|2|2,1:1|1:1|1:1,0:0:0:0:
296,310,5568,2,0,L|302:252,2,42.5,0|0|8,0:0|0:0|1:1,0:0:0:0:
388,238,6105,2,0,L|375:139,1,85,8|0,1:1|0:0,0:0:0:0:
308,95,6428,2,0,P|368:113|432:71,2,127.5,2|2|2,1:1|1:1|1:1,0:0:0:0:
237,47,7288,6,0,P|177:29|113:71,2,127.5,8|0|2,0:0|0:0|3:3,0:0:0:0:
308,95,8148,2,0,P|368:113|432:71,2,127.5,8|0|2,0:0|0:0|3:3,0:0:0:0:
250,162,9009,6,0,P|221:105|239:43,2,127.5,8|0|2,0:0|0:0|3:3,0:0:0:0:
331,202,9869,6,0,P|286:245|224:248,2,127.5,8|0|2,0:0|0:0|3:3,0:0:0:0:
155,200,10729,6,0,P|105:194|46:214,1,85,8|2,0:0|3:3,0:0:0:0:
30,285,11159,2,0,P|80:291|139:271,1,85,8|2,0:0|3:3,0:0:0:0:
245,169,11589,6,0,P|213:129|158:101,1,85,8|2,0:0|3:3,0:0:0:0:
95,141,12019,2,0,P|126:180|181:208,1,85,8|2,0:0|3:3,0:0:0:0:
245,169,12450,2,0,L|308:173,3,42.5,10|0|0|10,0:0|0:0|0:0|0:0,0:0:0:0:
360,215,12880,2,0,L|423:219,3,42.5,0|0|10|0,0:0|0:0|0:0|0:0,0:0:0:0:
375,299,13310,5,14,0:0:0:0:
295,270,13525,1,0,0:0:0:0:
360,215,13740,1,0,0:0:0:0:
280,187,13955,1,0,0:0:0:0:
424,159,14170,6,0,P|428:109|330:43,1,170,12|10,0:0|0:0,0:0:0:0:
257,57,14815,1,2,3:3:0:0:
177,26,15030,1,8,0:0:0:0:
115,84,15245,1,2,3:3:0:0:
115,84,15353,1,0,0:0:0:0:
115,84,15460,2,0,L|118:188,1,85,10|2,0:0|3:3,0:0:0:0:
46,215,15890,6,0,P|33:174|40:131,1,85,8|2,0:0|3:3,0:0:0:0:
189,122,16320,2,0,P|201:162|195:206,1,85,10|2,0:0|3:3,0:0:0:0:
184,221,16643,1,0,0:0:0:0:
184,221,16751,1,8,0:0:0:0:
131,287,16966,5,2,3:3:0:0:
131,287,17073,1,0,0:0:0:0:
131,287,17181,2,0,P|117:327|125:373,1,85,10|2,0:0|3:3,0:0:0:0:
317,256,17611,6,0,P|320:213|310:172,1,85,8|2,0:0|3:3,0:0:0:0:
299,145,17933,1,0,0:0:0:0:
299,145,18041,1,14,0:0:0:0:
226,224,18256,1,2,3:3:0:0:
408,288,18471,6,0,P|450:291|491:281,1,85,8|2,0:0|3:3,0:0:0:0:
512,276,18794,1,0,0:0:0:0:
512,276,18901,1,14,0:0:0:0:
445,204,19116,1,2,3:3:0:0:
371,372,19331,6,0,P|329:375|288:365,1,85,12|2,3:3|3:3,0:0:0:0:
268,356,19654,1,0,0:0:0:0:
268,356,19761,2,0,P|228:341|167:357,1,85,10|2,0:0|3:3,0:0:0:0:
108,379,20191,5,8,0:0:0:0:
119,295,20406,1,8,0:0:0:0:
186,346,20622,1,8,0:0:0:0:
197,262,20837,1,8,0:0:0:0:
41,328,21052,6,0,P|44:249|126:212,1,170,12|10,0:0|0:0,0:0:0:0:
197,262,21697,1,2,3:3:0:0:
271,220,21912,1,8,0:0:0:0:
344,254,22127,1,2,3:3:0:0:
344,254,22235,1,0,0:0:0:0:
344,254,22342,2,0,P|354:213|341:173,1,85,10|2,0:0|3:3,0:0:0:0:
268,132,22772,5,8,0:0:0:0:
271,220,22987,1,2,3:3:0:0:
342,174,23202,1,10,0:0:0:0:
195,177,23417,1,2,3:3:0:0:
342,89,23632,2,0,P|389:100|424:159,1,85,8|2,0:0|3:3,0:0:0:0:
424,144,23955,1,0,0:0:0:0:
424,144,24062,1,10,0:0:0:0:
310,64,24277,5,2,3:3:0:0:
310,64,24385,1,0,0:0:0:0:
310,64,24493,2,0,B|207:49|247:104|137:96,1,170,12|2,0:0|0:0,0:0:0:0:
77,161,25353,6,0,P|127:188|215:161,2,127.5,8|8|8,0:0|0:0|0:0,0:0:0:0:
173,340,26213,2,0,P|135:359|93:357,1,85,12|2,2:0|3:3,2:0:0:0:
30,255,26643,2,0,P|71:252|109:272,1,85,10|2,2:0|3:3,2:0:0:0:
263,316,27073,6,0,L|329:331,1,42.5,8|0,0:0|0:0,0:0:0:0:
365,264,27288,2,0,L|387:299,1,42.5,2|0,3:3|0:0,0:0:0:0:
472,291,27503,2,0,P|467:332|442:367,1,85,10|2,0:0|3:3,0:0:0:0:
409,182,27933,6,0,L|400:120,3,42.5,8|0|2|0,0:0|0:0|3:3|0:0,0:0:0:0:
317,143,28363,2,0,L|308:81,3,42.5,10|0|2|0,0:0|0:0|3:3|0:0,0:0:0:0:
245,46,28794,6,0,L|218:182,2,127.5,8|8|8,0:0|0:0|0:0,0:0:0:0:
96,230,29654,6,0,B|187:205|154:275|266:243,1,170,12|10,0:0|0:0,0:0:0:0:
335,207,30299,1,2,3:3:0:0:
411,243,30514,2,0,P|419:191|404:155,1,85,8|2,0:0|3:3,0:0:0:0:
441,328,30944,2,0,P|483:296|498:260,1,85,10|2,0:0|3:3,0:0:0:0:
352,311,31374,6,0,L|212:336,2,127.5,8|0|2,0:0|0:0|3:3,0:0:0:0:
411,243,32234,2,0,P|419:191|404:155,1,85,8|2,0:0|3:3,0:0:0:0:
360,90,32665,2,0,P|346:47|361:5,1,85,10|2,0:0|3:3,0:0:0:0:
408,161,33095,6,0,P|317:167|273:104,1,170,8|10,0:0|0:0,0:0:0:0:
255,26,33740,1,2,3:3:0:0:
192,84,33955,6,0,P|185:130|236:182,1,85,8|2,0:0|3:3,0:0:0:0:
173,242,34385,2,0,P|219:249|271:197,1,85,10|2,0:0|3:3,0:0:0:0:
366,155,34815,2,0,B|282:189|295:121|197:164,1,170,8|10,0:0|0:0,0:0:0:0:
126,202,35460,1,2,3:3:0:0:
102,284,35675,2,0,P|191:284|249:232,1,170,8|10,0:0|0:0,0:0:0:0:
325,80,36536,6,0,P|419:96|504:109,2,170,12|10|8,0:0|0:0|0:0,0:0:0:0:
249,119,37611,1,2,3:3:0:0:
321,166,37826,2,0,P|373:208|386:238,1,85,10|2,0:0|3:3,0:0:0:0:
297,249,38256,2,0,P|225:245|165:246,1,127.5,8|0,0:0|0:0,0:0:0:0:
87,268,38686,2,0,P|116:215|92:172,1,85,6|2,0:0|3:3,0:0:0:0:
60,91,39116,2,0,P|134:72|195:104,1,127.5,8|0,0:0|0:0,0:0:0:0:
248,140,39546,2,0,L|339:136,1,85,14|2,0:0|3:3,0:0:0:0:
456,213,39976,6,0,P|367:220|261:225,1,170,12|10,3:3|0:0,0:0:0:0:
199,231,40622,1,2,3:3:0:0:
173,314,40837,2,0,P|253:299|286:224,1,170,8|10,0:0|0:0,0:0:0:0:
239,153,41482,1,2,3:3:0:0:
364,265,41697,2,0,B|398:173|337:183|366:97,1,170,12|10,0:0|0:0,0:0:0:0:
401,23,42342,1,2,3:3:0:0:
447,140,42557,2,0,P|455:166|459:197,3,42.5,8|0|2|0,0:0|0:0|3:3|0:0,0:0:0:0:
369,184,42987,2,0,P|365:210|355:240,3,42.5,10|0|2|0,0:0|0:0|3:3|0:0,0:0:0:0:
282,191,43417,6,0,P|238:232|173:235,1,127.5,12|0,0:0|0:0,0:0:0:0:
109,190,43847,2,0,P|151:136|153:101,1,85,10|2,0:0|3:3,0:0:0:0:
88,67,44277,2,0,P|148:38|225:70,1,127.5,8|0,0:0|0:0,0:0:0:0:
265,104,44708,2,0,P|320:109|345:97,1,85,10|2,0:0|3:3,0:0:0:0:
419,18,45138,6,0,P|355:3|301:27,2,127.5,8|0|2,0:0|0:0|3:3,0:0:0:0:
380,217,45998,6,0,P|430:238|469:228,1,85,8|2,0:0|3:3,0:0:0:0:
433,154,46428,2,0,P|395:134|354:138,1,85,10|2,0:0|3:3,0:0:0:0:
274,223,46858,6,0,P|279:150|227:112,1,127.5,12|0,0:0|0:0,0:0:0:0:
172,66,47288,2,0,P|217:79|265:57,1,85,10|2,0:0|3:3,0:0:0:0:
124,0,47718,2,0,P|89:45|107:119,1,127.5,8|0,0:0|0:0,0:0:0:0:
151,179,48148,2,0,P|164:230|151:272,1,85,10|2,0:0|3:3,0:0:0:0:
89,356,48579,6,0,L|233:347,2,127.5,8|0|2,0:0|0:0|3:3,0:0:0:0:
156,260,49439,1,8,0:0:0:0:
263,253,49654,1,2,3:3:0:0:
49,267,49869,2,0,L|80:130,1,127.5,10|0,0:0|0:0,0:0:0:0:
31,72,50299,6,0,B|128:38|107:102|196:69,1,170,12|10,0:0|0:0,0:0:0:0:
275,40,50944,1,2,3:3:0:0:
329,105,51159,2,0,P|358:157|358:201,1,85,8|2,0:0|3:3,0:0:0:0:
416,254,51589,2,0,P|440:220|449:179,1,85,10|2,0:0|3:3,0:0:0:0:
481,316,52019,6,0,P|418:344|355:323,1,127.5,12|0,0:0|0:0,0:0:0:0:
296,275,52450,2,0,P|255:266|203:277,1,85,10|2,0:0|3:3,0:0:0:0:
96,346,52880,2,0,P|119:301|97:223,2,127.5,8|0|2,0:0|0:0|3:3,0:0:0:0:
49,164,53740,6,0,P|124:150|186:207,1,127.5,12|0,0:0|0:0,0:0:0:0:
211,246,54170,2,0,P|244:213|251:164,1,85,10|2,0:0|3:3,0:0:0:0:
210,45,54600,2,0,B|290:22|273:68|348:44,1,127.5,8|0,0:0|0:0,0:0:0:0:
418,30,55030,2,0,P|418:75|389:113,1,85,10|2,0:0|3:3,0:0:0:0:
320,180,55460,6,0,P|307:205|304:228,3,42.5,14|0|0|14,0:0|0:0|0:0|0:0,0:0:0:0:
211,246,55890,2,0,P|220:272|233:291,3,42.5,0|0|14|0,0:0|0:0|0:0|0:0,0:0:0:0:
322,319,56320,5,14,0:0:0:0:
304,219,56536,1,0,0:0:0:0:
227,284,56751,1,0,0:0:0:0:
245,384,56966,1,0,0:0:0:0:
400,254,57181,6,0,B|432:155|356:176|397:68,1,170,12|10,0:0|0:0,0:0:0:0:
468,122,57826,1,2,3:3:0:0:
457,37,58041,1,8,0:0:0:0:
389,89,58256,1,2,3:3:0:0:
389,89,58363,1,0,0:0:0:0:
389,89,58471,2,0,P|342:100|298:91,1,85,10|2,0:0|3:3,0:0:0:0:
260,12,58901,6,0,P|301:6|342:17,1,85,8|2,0:0|3:3,0:0:0:0:
337,173,59331,2,0,P|295:178|254:167,1,85,10|2,0:0|3:3,0:0:0:0:
234,158,59654,1,0,0:0:0:0:
234,158,59761,1,8,0:0:0:0:
157,120,59976,1,2,3:3:0:0:
157,120,60084,1,0,0:0:0:0:
158,119,60191,2,0,P|115:119|79:139,1,85,10|2,0:0|3:3,0:0:0:0:
150,304,60622,6,0,P|159:264|150:223,1,85,8|2,0:0|3:3,0:0:0:0:
140,205,60944,1,0,0:0:0:0:
140,205,61052,1,14,0:0:0:0:
71,261,61267,1,2,3:3:0:0:
229,350,61482,6,0,P|269:360|310:351,1,85,8|2,0:0|3:3,0:0:0:0:
328,340,61804,1,0,0:0:0:0:
328,340,61912,1,14,0:0:0:0:
269,268,62127,1,2,3:3:0:0:
408,384,62342,6,0,P|420:342|406:297,1,85,12|2,3:3|3:3,0:0:0:0:
399,285,62665,1,0,0:0:0:0:
399,285,62772,2,0,P|386:218|403:182,1,85,10|2,0:0|3:3,0:0:0:0:
428,128,63202,5,8,0:0:0:0:
344,133,63417,1,8,0:0:0:0:
390,204,63632,1,8,0:0:0:0:
381,58,63847,1,8,0:0:0:0:
305,209,64062,6,0,P|264:157|310:56,1,170,12|10,0:0|0:0,0:0:0:0:
381,58,64708,1,2,3:3:0:0:
344,133,64923,1,8,0:0:0:0:
428,128,65138,1,2,3:3:0:0:
428,128,65245,1,0,0:0:0:0:
428,128,65353,2,0,P|423:172|388:207,1,85,10|2,0:0|3:3,0:0:0:0:
314,203,65783,5,8,0:0:0:0:
356,272,65998,1,2,3:3:0:0:
228,202,66213,1,10,0:0:0:0:
397,201,66428,1,2,3:3:0:0:
312,346,66643,2,0,L|195:351,1,85,8|2,0:0|3:3,0:0:0:0:
205,350,66966,1,0,0:0:0:0:
205,350,67073,1,10,0:0:0:0:
95,270,67288,5,2,3:3:0:0:
95,270,67396,1,0,0:0:0:0:
95,270,67503,2,0,B|80:167|135:207|127:97,1,170,12|10,0:0|0:0,0:0:0:0:
44,125,68148,1,2,3:3:0:0:
153,28,68363,2,0,L|250:20,1,85,12|2,0:0|3:3,0:0:0:0:
332,118,68794,2,0,L|235:110,1,85,10|2,0:0|3:3,0:0:0:0:
188,246,69224,6,0,P|260:286|335:253,1,170,12|10,0:0|0:0,0:0:0:0:
265,199,69869,1,2,3:3:0:0:
113,205,70084,6,0,L|16:224,1,85,10|8,0:0|0:0,0:0:0:0:
86,290,70514,2,0,L|169:306,1,85,10|10,0:0|0:0,0:0:0:0:
239,368,70944,6,0,B|292:391|292:391|375:374|377:275,1,187.000005706787,12|10,0:0|0:0,0:0:0:0:
337,217,71589,1,2,3:3:0:0:
430,228,71804,1,8,0:0:0:0:
394,142,72019,1,2,3:3:0:0:
394,142,72127,1,0,0:0:0:0:
394,142,72234,2,0,P|333:125|274:148,1,93.5000028533936,10|2,0:0|3:3,0:0:0:0:
247,205,72665,6,0,P|308:222|367:199,1,93.5000028533936,8|2,0:0|3:3,0:0:0:0:
353,52,73095,2,0,P|292:35|233:58,1,93.5000028533936,10|2,0:0|3:3,0:0:0:0:
243,51,73417,1,0,0:0:0:0:
243,51,73525,1,8,0:0:0:0:
170,110,73740,1,2,3:3:0:0:
170,110,73847,1,0,0:0:0:0:
170,110,73955,2,0,P|98:117|42:97,1,93.5000028533936,10|2,0:0|3:3,0:0:0:0:
119,197,74385,6,0,P|191:204|247:184,1,93.5000028533936,8|2,0:0|3:3,0:0:0:0:
233,191,74708,1,0,0:0:0:0:
233,191,74815,1,14,0:0:0:0:
170,110,75030,1,2,3:3:0:0:
208,288,75245,6,0,P|279:276|328:242,1,93.5000028533936,8|2,0:0|3:3,0:0:0:0:
315,251,75568,1,0,0:0:0:0:
315,251,75675,1,14,0:0:0:0:
233,191,75890,1,2,3:3:0:0:
396,303,76105,6,0,P|411:255|400:204,1,93.5000028533936,12|2,3:3|3:3,0:0:0:0:
394,191,76428,1,0,0:0:0:0:
394,191,76536,2,0,P|379:127|396:77,1,93.5000028533936,10|2,0:0|3:3,0:0:0:0:
422,15,76966,5,14,0:0:0:0:
477,91,77181,1,8,0:0:0:0:
329,24,77396,1,12,3:3:0:0:
384,100,77611,1,10,0:0:0:0:
236,33,77826,6,0,B|200:130|282:114|237:244,1,187.000005706787,12|10,0:0|0:0,0:0:0:0:
160,176,78471,1,2,3:3:0:0:
169,268,78686,1,8,0:0:0:0:
84,229,78901,1,2,3:3:0:0:
84,229,79009,1,0,0:0:0:0:
84,229,79116,2,0,P|62:169|81:114,1,93.5000028533936,10|2,0:0|3:3,0:0:0:0:
141,84,79546,5,8,0:0:0:0:
158,175,79761,1,2,3:3:0:0:
223,28,79976,1,10,0:0:0:0:
257,195,80191,1,2,3:3:0:0:
141,84,80406,6,0,P|91:80|24:97,1,93.5000028533936,8|2,0:0|3:3,0:0:0:0:
28,99,80729,1,0,0:0:0:0:
28,99,80837,1,10,0:0:0:0:
108,243,81052,1,2,3:3:0:0:
108,243,81159,1,0,0:0:0:0:
108,243,81267,6,0,P|216:252|259:191,1,187.000005706787,12|10,0:0|0:0,0:0:0:0:
169,167,81912,1,2,3:3:0:0:
325,252,82127,6,0,P|343:202|340:157,1,93.5000028533936,12|2,0:0|3:3,0:0:0:0:
457,98,82557,2,0,P|439:148|442:193,1,93.5000028533936,10|2,0:0|3:3,0:0:0:0:
510,297,82987,2,0,P|438:283|369:374,1,187.000005706787,12|10,0:0|0:0,0:0:0:0:
461,374,83632,1,2,3:3:0:0:
285,320,83847,2,0,L|170:316,1,93.5000028533936,8|2,0:0|3:3,0:0:0:0:
168,319,84170,1,0,0:0:0:0:
168,319,84277,1,10,0:0:0:0:
366,195,84493,5,2,3:3:0:0:
366,195,84600,1,0,0:0:0:0:
366,195,84708,2,0,B|340:286|399:274|368:363,1,170,12|0,0:0|0:0,0:0:0:0:
298,141,85568,6,0,P|361:106|418:126,2,127.5,8|8|8,0:0|0:0|0:0,0:0:0:0:
234,210,86428,6,0,P|169:222|129:202,1,85,12|2,0:0|3:3,0:0:0:0:
102,138,86858,2,0,P|167:126|207:146,1,85,10|2,0:0|3:3,0:0:0:0:
211,357,87288,2,0,P|146:279|157:205,1,170,10|10,0:0|0:0,0:0:0:0:
183,131,87933,5,2,3:3:0:0:
183,131,88041,1,0,0:0:0:0:
183,131,88148,1,12,0:0:0:0:
