osu file format v14

[General]
AudioFilename: audio.mp3
AudioLeadIn: 0
PreviewTime: 93941
Countdown: 0
SampleSet: Soft
StackLeniency: 0.4
Mode: 0
LetterboxInBreaks: 0
WidescreenStoryboard: 0

[Editor]
DistanceSpacing: 1.2
BeatDivisor: 4
GridSize: 4
TimelineZoom: 2.099999

[Metadata]
Title:HesitationSnow
TitleUnicode:HesitationSnow
Artist:fripSide
ArtistUnicode:fripSide
Creator:Koiyuki
Version:Normal
Source:はつゆきさくら
Tags:hatsuyuki sakura eroge saga planets galgame opening 南條愛乃 nanjou nanjo yoshino Minakami Yuki mtbbsben IamKwaN Atrue
BeatmapID:1107594
BeatmapSetID:513343

[Difficulty]
HPDrainRate:5
CircleSize:3.5
OverallDifficulty:4.5
ApproachRate:5.5
SliderMultiplier:1.2
SliderTickRate:1

[Events]
//Background and Video events
0,0,"sakura.jpg",0,0
Video,0,"v.avi"
//Break Periods
2,51919,63038
//Storyboard Layer 0 (Background)
//Storyboard Layer 1 (Fail)
//Storyboard Layer 2 (Pass)
//Storyboard Layer 3 (Foreground)
//Storyboard Sound Samples

[TimingPoints]
164,444.444444444444,4,2,1,30,1,0
14386,-133.333333333333,4,2,2,30,0,0
26830,-133.333333333333,4,2,2,40,0,0
28608,-100,4,2,1,50,0,0
35719,-100,4,2,1,60,0,1
49941,-100,4,2,1,60,0,0
63941,-100,4,2,1,45,0,0
94386,-100,4,2,1,60,0,1
108497,-100,4,2,1,60,0,0
108608,-100,4,2,1,60,0,1
123719,-100,4,2,1,60,0,0
124608,-133.333333333333,4,2,2,30,0,0
137052,461.538461538462,4,2,2,30,1,0
137052,-133.333333333333,4,2,2,30,0,0
138902,540.540540540541,4,2,2,30,1,0

[Colours]
Combo1 : 255,128,192
Combo2 : 147,147,255
Combo3 : 128,255,255
Combo4 : 192,192,192

[HitObjects]
207,326,14386,6,0,P|279:285|386:283,1,180.000006866455,4|0,0:0|0:0,0:0:0:0:
478,310,15719,1,2,0:0:0:0:
478,310,15941,2,0,L|468:207,1,90.0000034332277,2|2,0:0|0:0,0:0:0:0:
325,145,17052,2,0,L|335:42,1,90.0000034332277,0|0,0:0|0:0,0:0:0:0:
229,84,17941,6,0,B|138:114|148:34|40:77,1,180.000006866455,2|0,0:0|0:0,0:0:0:0:
55,312,19719,2,0,B|148:350|138:270|229:300,1,180.000006866455,2|0,0:0|0:0,0:0:0:0:
320,353,21052,1,0,0:0:0:0:
413,297,21497,6,0,L|403:194,1,90.0000034332277,2|0,0:0|0:0,0:0:0:0:
431,160,22163,2,0,P|371:174|303:143,1,135.000005149841,2|2,0:0|0:0,0:0:0:0:
271,103,23052,2,0,L|279:13,1,90.0000034332277,2|2,0:0|0:0,0:0:0:0:
165,127,24163,6,0,B|170:187|170:187|156:235|156:235|164:319,2,180.000006866455,2|2|0,0:0|0:0|0:0,0:0:0:0:
271,103,26386,1,0,0:0:0:0:
356,167,26830,2,0,P|376:79|322:9,2,180.000006866455,2|2|2,0:0|0:0|0:0,0:0:0:0:
247,219,29052,5,2,0:0:0:0:
145,155,29497,1,2,0:0:0:0:
140,274,29941,1,2,0:0:0:0:
242,338,30386,1,2,0:0:0:0:
349,283,30830,1,2,0:0:0:0:
354,164,31275,1,2,0:0:0:0:
252,100,31719,2,0,L|184:111,1,60,2|2,0:0|0:0,0:0:0:0:
154,138,32163,6,0,P|102:111|43:114,1,120,2|2,0:0|0:0,0:0:0:0:
17,231,33052,2,0,P|69:258|128:255,1,120,2|2,0:0|0:0,0:0:0:0:
172,235,33719,1,0,0:0:0:0:
172,235,33941,2,0,P|224:207|283:210,2,120,2|2|2,0:0|0:0|0:0,0:0:0:0:
380,354,35719,6,0,P|439:357|491:329,1,120,4|8,0:0|0:0,0:0:0:0:
508,210,36608,2,0,L|496:90,1,120,2|8,0:0|0:0,0:0:0:0:
384,46,37497,6,0,L|396:166,1,120,2|8,0:0|0:0,0:0:0:0:
347,275,38386,2,0,L|421:285,2,60,2|0|8,0:0|0:0|0:0,0:0:0:0:
305,251,39052,1,0,0:0:0:0:
262,227,39275,6,0,P|242:284|249:347,1,120,2|8,0:0|0:0,0:0:0:0:
131,372,40163,2,0,P|136:312|116:256,1,120,2|8,0:0|0:0,0:0:0:0:
20,184,41052,5,2,0:0:0:0:
57,69,41497,1,8,0:0:0:0:
171,32,41941,2,0,L|247:43,1,60,2|0,0:0|0:0,0:0:0:0:
272,63,42386,2,0,L|331:54,1,60,8|0,0:0|0:0,0:0:0:0:
375,34,42830,6,0,P|400:87|391:145,1,120,4|8,0:0|0:0,0:0:0:0:
285,201,43719,2,0,P|275:259|301:312,1,120,2|8,0:0|0:0,0:0:0:0:
339,341,44386,1,0,0:0:0:0:
385,352,44608,6,0,L|509:339,2,120,2|8|2,0:0|0:0|0:0,0:0:0:0:
327,246,45941,2,0,L|267:239,1,60,8|0,0:0|0:0,0:0:0:0:
230,272,46386,6,0,P|185:309|126:318,1,120,2|8,0:0|0:0,0:0:0:0:
53,222,47275,2,0,P|98:184|157:175,1,120,2|8,0:0|0:0,0:0:0:0:
208,67,48163,6,0,B|268:59|268:59|335:72,1,120,2|8,0:0|0:0,0:0:0:0:
349,112,48830,1,0,0:0:0:0:
371,154,49052,2,0,B|429:165|429:165|489:157,2,120,2|8|4,0:0|0:0|0:0,0:0:0:0:
256,192,50052,12,2,51719,0:0:0:0:
371,154,64163,6,0,B|356:119|356:119|366:37,1,120,2|8,0:0|0:0,0:0:0:0:
458,114,65052,2,0,B|473:149|473:149|462:230,1,120,2|8,0:0|0:0,0:0:0:0:
427,262,65719,1,0,0:0:0:0:
427,262,65941,2,0,P|372:241|312:241,1,120,2|8,0:0|0:0,0:0:0:0:
248,342,66830,2,0,L|183:333,1,60,2|0,0:0|0:0,0:0:0:0:
155,298,67275,2,0,L|95:306,1,60,8|2,0:0|0:0,0:0:0:0:
57,335,67719,6,0,P|31:281|41:223,1,120,2|8,0:0|0:0,0:0:0:0:
97,145,68608,2,0,L|156:136,2,60,2|0|8,0:0|0:0|0:0,0:0:0:0:
54,59,69497,2,0,L|187:40,1,120,2|8,0:0|0:0,0:0:0:0:
217,58,70163,1,0,0:0:0:0:
217,58,70386,2,0,P|266:91|325:90,1,120,2|8,0:0|0:0,0:0:0:0:
368,70,71052,1,2,0:0:0:0:
411,49,71275,6,0,L|399:183,1,120,2|8,0:0|0:0,0:0:0:0:
486,252,72163,2,0,L|493:168,2,60,2|0|8,0:0|0:0|0:0,0:0:0:0:
460,292,72830,1,0,0:0:0:0:
460,292,73052,2,0,P|402:301|348:277,1,120,2|8,0:0|0:0,0:0:0:0:
296,168,73941,2,0,L|290:108,1,60,2|0,0:0|0:0,0:0:0:0:
309,63,74386,2,0,P|284:45|256:35,1,60,8|2,0:0|0:0,0:0:0:0:
213,56,74830,6,0,P|159:80|100:70,1,120,2|8,0:0|0:0,0:0:0:0:
60,44,75497,1,0,0:0:0:0:
60,44,75719,2,0,B|44:92|44:92|58:179,1,120,2|8,0:0|0:0,0:0:0:0:
83,277,76608,1,2,0:0:0:0:
170,194,77052,1,8,0:0:0:0:
197,311,77497,2,0,L|187:378,2,60,2|0|8,0:0|0:0|0:0,0:0:0:0:
238,287,78163,1,2,0:0:0:0:
280,263,78386,6,0,P|339:267|388:299,1,120,4|8,0:0|0:0,0:0:0:0:
503,335,79275,2,0,P|506:275|480:222,1,120,2|8,0:0|0:0,0:0:0:0:
449,185,79941,1,0,0:0:0:0:
418,148,80163,2,0,P|414:88|440:35,1,120,2|8,0:0|0:0,0:0:0:0:
324,65,81052,2,0,L|249:51,2,60,2|0|8,0:0|0:0|0:0,0:0:0:0:
304,109,81719,1,2,0:0:0:0:
285,153,81941,6,0,L|165:130,1,120,2|8,0:0|0:0,0:0:0:0:
120,143,82608,1,0,0:0:0:0:
72,154,82830,2,0,P|64:95|100:29,1,120,2|8,0:0|0:0,0:0:0:0:
167,131,83719,2,0,P|175:190|139:256,1,120,2|8,0:0|0:0,0:0:0:0:
46,299,84608,2,0,P|75:306|101:320,1,60,2|0,0:0|0:0,0:0:0:0:
131,357,85052,2,0,L|195:347,1,60,8|2,0:0|0:0,0:0:0:0:
237,340,85497,6,0,B|286:333|286:333|365:347,1,120,2|8,0:0|0:0,0:0:0:0:
432,252,86386,2,0,B|383:259|383:259|304:245,1,120,0|8,0:0|0:0,0:0:0:0:
275,217,87052,1,0,0:0:0:0:
236,186,87275,2,0,P|178:179|125:206,1,120,2|8,0:0|0:0,0:0:0:0:
18,153,88163,2,0,P|6:186|5:211,2,60,2|0|8,0:0|0:0|0:0,0:0:0:0:
46,114,88830,1,2,0:0:0:0:
85,87,89052,6,0,L|217:101,1,120,2|8,0:0|0:0,0:0:0:0:
315,52,89941,2,0,L|434:39,1,120,2|8,0:0|0:0,0:0:0:0:
485,147,90830,2,0,P|480:176|467:203,1,60,2|0,0:0|0:0,0:0:0:0:
431,234,91275,2,0,L|442:305,1,60,8|0,0:0|0:0,0:0:0:0:
448,339,91719,2,0,P|396:311|337:306,1,120,2|8,0:0|0:0,0:0:0:0:
292,324,92386,1,2,0:0:0:0:
248,343,92608,6,0,L|232:263,1,60,8|8,0:0|0:0,0:0:0:0:
194,260,93052,2,0,L|210:180,1,60,8|0,0:0|0:0,0:0:0:0:
218,154,93497,1,2,0:0:0:0:
218,154,94386,6,0,P|169:186|110:187,1,120,4|8,0:0|0:0,0:0:0:0:
73,73,95275,2,0,P|122:40|181:39,1,120,2|8,0:0|0:0,0:0:0:0:
227,53,95941,1,8,0:0:0:0:
272,66,96163,6,0,P|331:65|380:32,1,120,2|8,0:0|0:0,0:0:0:0:
498,11,97052,2,0,P|500:40|492:72,1,60,2|8,0:0|0:0,0:0:0:0:
454,98,97497,2,0,P|451:127|460:158,1,60,8|2,0:0|0:0,0:0:0:0:
485,196,97941,5,2,0:0:0:0:
366,175,98386,1,8,0:0:0:0:
383,293,98830,1,2,0:0:0:0:
264,272,99275,2,0,L|200:292,1,60,8|0,0:0|0:0,0:0:0:0:
175,326,99719,6,0,P|125:305|59:305,1,120,6|8,0:0|0:0,0:0:0:0:
21,332,100386,1,0,0:0:0:0:
21,332,100608,2,0,P|45:272|36:213,1,120,2|8,0:0|0:0,0:0:0:0:
19,173,101275,1,0,0:0:0:0:
0,128,101497,6,0,L|133:143,1,120,6|8,0:0|0:0,0:0:0:0:
179,37,102386,2,0,P|150:22|121:20,2,60,2|0|8,0:0|0:0|0:0,0:0:0:0:
212,70,103052,1,0,0:0:0:0:
237,110,103275,6,0,B|252:156|252:156|233:252,1,120,2|8,0:0|0:0,0:0:0:0:
210,342,104163,2,0,L|289:328,1,60,8|8,0:0|0:0,0:0:0:0:
316,323,104608,1,8,0:0:0:0:
362,335,104830,1,0,0:0:0:0:
408,347,105052,6,0,P|466:343|509:303,1,120,4|8,0:0|0:0,0:0:0:0:
489,185,105941,2,0,L|410:171,1,60,2|0,0:0|0:0,0:0:0:0:
394,142,106386,2,0,P|364:144|336:155,1,60,8|0,0:0|0:0,0:0:0:0:
301,188,106830,6,0,L|312:53,1,120,8|8,0:0|0:0,0:0:0:0:
208,5,107719,2,0,L|203:64,1,60,2|8,0:0|0:0,0:0:0:0:
173,102,108163,1,8,0:0:0:0:
178,149,108386,1,2,0:0:0:0:
182,195,108608,6,0,P|132:162|73:161,1,120,4|8,0:0|0:0,0:0:0:0:
37,276,109497,2,0,P|86:308|145:309,1,120,8|8,0:0|0:0,0:0:0:0:
191,296,110163,1,0,0:0:0:0:
236,283,110386,6,0,P|295:283|344:316,1,120,2|8,0:0|0:0,0:0:0:0:
457,357,111275,2,0,P|464:328|462:298,1,60,2|8,0:0|0:0,0:0:0:0:
445,253,111719,2,0,L|451:185,1,60,8|0,0:0|0:0,0:0:0:0:
455,145,112163,5,2,0:0:0:0:
335,157,112608,1,8,0:0:0:0:
215,169,113052,1,2,0:0:0:0:
95,181,113497,2,0,L|79:114,1,60,8|0,0:0|0:0,0:0:0:0:
44,91,113941,6,0,P|103:91|153:56,1,120,4|8,0:0|0:0,0:0:0:0:
182,20,114608,1,0,0:0:0:0:
182,20,114830,2,0,P|241:20|291:55,1,120,2|8,0:0|0:0,0:0:0:0:
316,93,115497,1,0,0:0:0:0:
332,137,115719,6,0,L|316:271,1,120,4|8,0:0|0:0,0:0:0:0:
213,314,116608,2,0,P|225:346|227:380,2,60,2|0|8,0:0|0:0|0:0,0:0:0:0:
170,291,117275,1,0,0:0:0:0:
123,302,117497,6,0,P|71:330|12:327,1,120,2|8,0:0|0:0,0:0:0:0:
46,212,118386,2,0,P|57:184|60:154,1,60,2|8,0:0|0:0,0:0:0:0:
48,108,118830,1,8,0:0:0:0:
36,61,119052,1,0,0:0:0:0:
24,14,119275,6,0,L|166:30,1,120,4|8,0:0|0:0,0:0:0:0:
256,65,120163,2,0,L|375:51,1,120,2|8,0:0|0:0,0:0:0:0:
490,84,121052,6,0,P|481:112|463:136,1,60,4|0,0:0|0:0,0:0:0:0:
420,157,121497,2,0,L|360:163,1,60,8|0,0:0|0:0,0:0:0:0:
321,192,121941,2,0,P|297:247|303:331,1,120,2|8,0:0|0:0,0:0:0:0:
401,363,122830,2,0,P|425:308|419:224,2,120,2|8|4,0:0|0:0|0:0,0:0:0:0:
191,307,124608,6,0,B|162:285|121:287|121:287|71:324|13:314,1,180.000006866455,4|0,0:0|0:0,0:0:0:0:
46,209,125941,1,2,0:0:0:0:
46,209,126163,2,0,P|61:168|60:123,1,90.0000034332277,2|2,0:0|0:0,0:0:0:0:
187,21,127275,2,0,P|185:65|201:107,1,90.0000034332277,0|0,0:0|0:0,0:0:0:0:
305,134,128163,6,0,B|398:155|381:77|492:110,1,180.000006866455,2|0,0:0|0:0,0:0:0:0:
476,277,129941,2,0,B|381:306|398:228|305:250,1,180.000006866455,2|0,0:0|0:0,0:0:0:0:
199,261,131275,1,0,0:0:0:0:
131,344,131719,6,0,P|101:307|92:257,1,90.0000034332277,2|0,0:0|0:0,0:0:0:0:
113,216,132386,2,0,P|130:150|102:77,1,135.000005149841,2|2,0:0|0:0,0:0:0:0:
75,46,133275,2,0,L|182:54,1,90.0000034332277,2|2,0:0|0:0,0:0:0:0:
279,167,134386,6,0,P|366:149|441:195,2,180.000006866455,2|2|0,0:0|0:0|0:0,0:0:0:0:
220,257,136608,1,0,0:0:0:0:
121,224,137052,6,0,B|98:171|61:157|61:157|36:188|43:244,2,180.000006866455,2|2|2,0:0|0:0|0:0,0:0:0:0:
256,192,139037,12,2,141064,0:0:0:0:
