osu file format v14

[General]
AudioFilename: audio.mp3
AudioLeadIn: 0
PreviewTime: 184
Countdown: 0
SampleSet: Soft
StackLeniency: 0.7
Mode: 0
LetterboxInBreaks: 0
WidescreenStoryboard: 1

[Editor]
DistanceSpacing: 1
BeatDivisor: 8
GridSize: 8
TimelineZoom: 1

[Metadata]
Title:HesitationSnow
TitleUnicode:HesitationSnow
Artist:fripSide
ArtistUnicode:fripSide
Creator:Fushimi Rio
Version:Yoshino's Hard
Source:はつゆきさくら
Tags:hesitation snow saga planets eroge visual novel opening Hatsuyuki Sakura PinkHeart Fia Garden Yorita Yoshino Japanese pop jpop
BeatmapID:3318010
BeatmapSetID:1329838

[Difficulty]
HPDrainRate:3
CircleSize:3.8
OverallDifficulty:6.5
ApproachRate:6
SliderMultiplier:1.6
SliderTickRate:1

[Events]
//Background and Video events
0,0,"hs_hvt_sr2.jpg",0,0
//Break Periods
2,53272,63133
//Storyboard Layer 0 (Background)
//Storyboard Layer 1 (Fail)
//Storyboard Layer 2 (Pass)
//Storyboard Layer 3 (Foreground)
//Storyboard Layer 4 (Overlay)
//Storyboard Sound Samples

[TimingPoints]
184,444.444444444444,4,2,1,30,1,0
184,-200,4,2,1,30,0,0
14406,-133.333333333333,4,2,1,40,0,0
20405,-133.333333333333,4,2,1,5,0,0
20850,-133.333333333333,4,2,1,40,0,0
28628,-100,4,2,2,40,0,0
29517,-100,4,2,2,45,0,0
30406,-100,4,2,2,50,0,0
31294,-100,4,2,2,55,0,0
32183,-100,4,2,2,60,0,0
33072,-100,4,2,2,65,0,0
33961,-100,4,2,2,70,0,0
35739,-83.3333333333333,4,2,2,100,0,1
36183,-83.3333333333333,4,2,2,80,0,1
49517,-83.3333333333333,4,2,2,100,0,1
49961,-83.3333333333333,4,2,1,100,0,0
53072,-83.3333333333333,4,2,1,80,0,0
64183,-100,4,2,2,50,0,0
78406,-100,4,2,1,65,0,0
80183,-83.3333333333333,4,2,2,65,0,0
81961,-100,4,2,2,65,0,0
82850,-100,4,2,1,65,0,0
83739,-100,4,2,2,65,0,0
86628,-100,4,2,1,65,0,0
87295,-100,4,2,2,65,0,0
92628,-100,4,2,1,80,0,0
93961,-133.333333333333,4,2,1,40,0,0
94406,-83.3333333333333,4,2,2,100,0,1
94850,-83.3333333333333,4,2,2,80,0,1
96627,-83.3333333333333,4,2,1,80,0,1
97071,-83.3333333333333,4,2,2,80,0,1
100072,-83.3333333333333,4,2,1,80,0,1
100405,-83.3333333333333,4,2,2,80,0,1
106850,-83.3333333333333,4,2,2,90,0,1
108628,-83.3333333333333,4,2,2,100,0,1
109072,-83.3333333333333,4,2,2,90,0,1
110406,-83.3333333333333,4,2,2,80,0,1
110850,-83.3333333333333,4,2,1,80,0,1
111294,-83.3333333333333,4,2,2,80,0,1
114295,-83.3333333333333,4,2,1,80,0,1
114628,-83.3333333333333,4,2,2,80,0,1
117961,-83.3333333333333,4,2,1,80,0,1
118405,-83.3333333333333,4,2,2,80,0,1
122850,-83.3333333333333,4,2,2,90,0,1
123350,-83.3333333333333,4,2,2,30,0,1
123406,-83.3333333333333,4,2,2,90,0,1
123461,-83.3333333333333,4,2,2,30,0,1
123517,-83.3333333333333,4,2,2,90,0,1
123572,-83.3333333333333,4,2,2,30,0,1
123628,-83.3333333333333,4,2,2,90,0,1
123683,-83.3333333333333,4,2,2,30,0,1
123739,-83.3333333333333,4,2,1,90,0,1
124628,-133.333333333333,4,2,1,40,0,0
130627,-133.333333333333,4,2,1,5,0,0
131072,-133.333333333333,4,2,1,40,0,0
137072,468.75,4,2,1,50,1,0
137072,-200,4,2,1,50,0,0
138947,535.714285714286,4,2,1,30,1,0
145375,-100,4,2,1,5,0,0

[Colours]
Combo1 : 206,206,206
Combo2 : 142,173,255
Combo3 : 235,158,254
Combo4 : 155,245,255

[HitObjects]
444,217,184,6,0,B|467:285|434:325|434:325|412:354|413:399|460:409|509:352|443:326,1,240,2|2,0:0|0:0,0:0:0:0:
347,267,1739,2,0,P|332:295|329:315,1,40,0|8,0:0|0:0,0:0:0:0:
330,321,2183,2,0,P|263:309|145:374,1,200
21,184,3739,6,0,B|-5:125|18:62|18:62|66:39|111:66|111:66|157:92|237:59,1,320,2|8,0:0|0:0,0:0:0:0:
443,69,7295,6,0,P|426:124|422:174,1,80,2|0,0:0|0:0,0:0:0:0:
472,219,7961,2,0,P|412:190|345:228,1,120,0|2,0:0|0:0,0:0:0:0:
292,272,8850,2,0,P|298:320|314:365,1,80
256,192,10850,12,0,12183,0:0:0:0:
256,192,12628,12,0,13961,0:0:0:0:
33,258,14406,6,0,P|45:183|276:240,1,360.000013732911,4|2,0:1|0:0,0:0:0:0:
223,300,15961,1,0,0:0:0:0:
223,300,16406,1,2,0:0:0:0:
455,384,17072,5,0,0:0:0:0:
505,197,17517,1,0,0:0:0:0:
502,203,17739,1,0,0:0:0:0:
501,210,17961,2,0,P|416:229|371:199,1,120.000004577637,8|0,0:0|0:0,0:0:0:0:
233,33,18850,6,0,P|232:78|224:119,1,60.0000022888184
142,131,19295,1,0,0:0:0:0:
142,131,19517,1,2,0:0:0:0:
54,160,19739,2,0,P|69:238|111:358,1,180.000006866455
382,347,20850,6,0,P|425:335|461:350,2,60.0000022888184
296,323,21517,2,0,B|253:261|299:194|299:194|334:195|345:234,1,180.000006866455,8|0,0:0|0:0,0:0:0:0:
169,337,22850,1,2,0:0:0:0:
157,340,23072,2,0,B|100:334|100:334|85:320|85:320|-23:310,1,180.000006866455
82,5,24183,6,0,P|97:89|87:144,1,120.000004577637,2|0,0:0|0:0,0:0:0:0:
82,135,24850,1,0,0:0:0:0:
72,145,25072,2,0,L|248:128,2,120.000004577637,8|0|0,0:0|0:0|0:0,0:0:0:0:
34,227,26183,2,0,P|77:260|116:228,2,60.0000022888184,0|2|0,0:0|0:0|0:0,0:0:0:0:
256,192,26850,12,4,28183,0:1:0:0:
338,350,28628,6,0,P|416:375|482:318,1,160,4|8,1:0|0:0,0:0:0:0:
462,221,29517,2,0,P|389:195|324:237,1,160,8|8,0:0|0:0,0:0:0:0:
222,284,30406,2,0,L|238:100,2,160,10|8|8,0:2|0:2|0:2,0:0:0:0:
118,336,31739,1,8,0:2:0:0:
63,322,31961,1,10,0:2:0:0:
20,285,32183,5,10,0:2:0:0:
11,173,32628,1,10,0:2:0:0:
114,129,33072,1,2,3:2:0:0:
187,214,33517,1,2,3:2:0:0:
129,310,33961,2,0,P|196:300|282:349,2,160,2|2|4,3:2|3:2|3:1,0:0:0:0:
443,370,35739,6,0,P|473:322|359:273,1,191.999994140625,4|0,0:2|1:0,0:0:0:0:
387,267,36295,1,0,0:0:0:0:
270,132,36628,1,10,0:0:0:0:
231,153,36739,1,0,1:2:0:0:
188,133,36850,1,0,0:0:0:0:
228,63,37072,1,2,1:2:0:0:
88,238,37517,6,0,P|81:158|33:52,2,191.999994140625,4|0|4,0:3|1:0|0:3,0:0:0:0:
85,250,38517,1,10,0:0:0:0:
83,260,38628,1,10,0:2:0:0:
207,316,38850,6,0,P|159:317|119:342,1,95.9999970703126,0|8,1:0|0:0,0:0:0:0:
286,350,39295,5,4,0:0:0:0:
286,350,39517,1,0,0:0:0:0:
453,274,39739,1,0,1:0:0:0:
304,168,40183,5,8,0:0:0:0:
299,178,40295,1,0,1:0:0:0:
286,350,40627,1,2,1:2:0:0:
453,274,41072,6,0,B|458:249|458:249|447:236|447:236|454:217|454:217|442:203|442:203|451:187|451:187|438:148,1,95.9999970703126,4|0,0:0|0:0,0:0:0:0:
440,99,41517,2,0,P|460:106|493:88,2,47.9999985351563,0|0|2,1:0|0:0|0:0,0:0:0:0:
311,118,41961,1,4,0:3:0:0:
266,123,42072,1,10,0:0:0:0:
234,89,42183,1,10,0:0:0:0:
299,35,42406,1,0,1:0:0:0:
299,35,42628,1,4,0:3:0:0:
461,106,42850,6,0,P|438:201|440:304,1,191.999994140625,4|0,0:0|1:0,0:0:0:0:
447,305,43406,1,0,0:0:0:0:
200,284,43739,5,10,0:0:0:0:
237,252,43850,1,0,1:0:0:0:
282,251,43961,1,0,0:0:0:0:
365,277,44183,1,0,1:0:0:0:
238,360,44628,6,0,P|157:309|63:311,2,191.999994140625,4|0|4,0:0|1:0|0:3,0:0:0:0:
238,368,45628,1,10,0:0:0:0:
237,375,45739,1,10,0:0:0:0:
141,344,45961,2,0,P|130:281|142:222,1,95.9999970703126,0|10,1:0|0:0,0:0:0:0:
138,240,46295,1,0,0:0:0:0:
144,233,46406,5,4,0:0:0:0:
239,248,46628,1,0,0:0:0:0:
334,263,46850,1,0,1:0:0:0:
419,206,47072,5,2,0:0:0:0:
413,174,47183,1,2,0:0:0:0:
407,143,47295,1,10,0:0:0:0:
417,136,47406,5,0,1:0:0:0:
239,248,47739,1,2,1:2:0:0:
29,0,48183,5,6,0:0:0:0:
100,110,48406,1,8,0:0:0:0:
123,103,48517,1,8,0:0:0:0:
145,94,48628,2,0,L|140:20,2,47.9999985351563,0|0|4,1:3|0:0|0:3,0:0:0:0:
39,197,49072,5,4,1:0:0:0:
39,197,49183,1,10,0:0:0:0:
39,197,49295,1,10,0:0:0:0:
105,273,49517,2,0,P|172:249|221:252,1,95.9999970703126,12|8,0:0|0:0,0:0:0:0:
256,192,49961,12,0,53072,1:0:0:0:
55,329,64183,6,0,P|127:356|186:294,1,160,4|0,0:0|1:0,0:0:0:0:
344,237,65072,1,8,0:0:0:0:
392,163,65295,2,0,L|479:176,2,80,0|0|0,0:0|1:0|0:0,0:0:0:0:
370,77,65961,6,0,B|320:64|293:89|293:89|255:118|186:97,1,160,4|0,0:3|1:0,0:0:0:0:
62,21,66850,2,0,P|89:70|83:113,1,80,8|0,0:0|0:0,0:0:0:0:
30,159,67295,1,0,1:0:0:0:
65,239,67517,1,8,0:0:0:0:
139,285,67739,6,0,L|249:266,1,80,8|0,0:0|0:0,0:0:0:0:
272,202,68183,2,0,P|309:255|268:346,1,160,0|8,1:0|0:0,0:0:0:0:
385,197,69072,2,0,L|468:205,1,80,0|0,1:0|0:0,0:0:0:0:
506,126,69517,6,0,P|496:66|472:47,1,80,8|0,0:0|0:0,0:0:0:0:
404,17,69961,2,0,L|324:24,1,80,0|0,1:0|0:0,0:0:0:0:
246,67,70406,1,8,0:0:0:0:
246,67,70517,2,0,L|166:60,1,80,0|0,1:2|0:0,0:0:0:0:
140,31,70850,1,2,1:2:0:0:
50,111,71072,1,10,0:0:0:0:
50,111,71183,1,0,0:0:0:0:
50,111,71295,6,0,P|34:179|62:264,1,160,10|0,0:0|1:0,0:0:0:0:
231,307,72183,1,8,0:0:0:0:
319,311,72406,2,0,P|303:365|265:389,2,80,0|0|0,0:0|1:0|0:0,0:0:0:0:
272,235,73072,6,0,B|318:212|359:233|359:233|399:255|435:230,1,160,4|0,0:3|1:0,0:0:0:0:
468,87,73961,2,0,P|419:102|411:142,1,80,8|0,0:0|0:0,0:0:0:0:
486,168,74406,1,0,1:0:0:0:
511,252,74628,1,8,0:0:0:0:
471,330,74850,6,0,P|416:311|379:326,1,80,8|0,0:0|0:0,0:0:0:0:
329,372,75295,2,0,B|307:324|307:324|333:184,1,160,0|8,1:0|0:0,0:0:0:0:
195,101,76183,2,0,L|175:0,1,80,0|0,1:0|0:0,0:0:0:0:
91,20,76628,6,0,P|50:105|86:171,1,160,8|0,0:0|1:0,0:0:0:0:
55,335,77517,1,10,0:0:0:0:
55,335,77628,2,0,P|99:293|139:290,1,80,10|0,0:0|3:0,0:0:0:0:
158,299,77961,1,8,1:2:0:0:
243,318,78183,1,8,3:2:0:0:
328,340,78406,6,0,B|405:359|405:359|396:276,1,160,4|0,0:0|1:0,0:0:0:0:
494,132,79295,2,0,P|435:139|411:160,1,80,0|2,0:0|0:0,0:0:0:0:
382,70,79739,2,0,P|323:63|299:42,1,80,0|0,1:0|0:0,0:0:0:0:
225,19,80183,6,0,B|217:34|217:34|227:48|227:48|236:172|236:172|246:186|246:186|239:196|239:196|233:234,1,191.999994140625,8|0,0:0|1:0,0:0:0:0:
0,324,81072,5,2,0:0:0:0:
78,253,81295,1,2,0:0:0:0:
181,271,81517,1,0,1:0:0:0:
184,294,81628,1,0,0:0:0:0:
188,318,81739,1,8,0:0:0:0:
191,342,81850,1,8,0:0:0:0:
195,367,81961,6,0,P|284:374|323:314,1,160,10|0,0:0|1:0,0:0:0:0:
416,174,82850,2,0,P|451:184|501:181,2,80,0|2|0,0:0|0:0|1:0,0:0:0:0:
350,114,83517,1,0,0:0:0:0:
350,114,83628,1,0,0:0:0:0:
350,114,83739,6,0,P|281:109|239:131,1,80,10|0,0:0|0:0,0:0:0:0:
257,128,84072,1,0,0:0:0:0:
248,148,84183,1,0,1:0:0:0:
114,20,84406,1,10,0:0:0:0:
38,198,84628,5,10,0:0:0:0:
50,199,84739,1,0,0:0:0:0:
60,200,84850,1,8,0:0:0:0:
89,282,85072,1,0,1:0:0:0:
33,350,85295,1,8,0:0:0:0:
175,308,85517,6,0,B|206:340|206:340|332:317,1,160,4|0,0:0|1:0,0:0:0:0:
512,168,86406,5,0,0:0:0:0:
408,294,86628,1,2,0:0:0:0:
434,214,86850,1,0,1:0:0:0:
459,360,87072,1,2,0:0:0:0:
512,168,87295,6,0,P|420:156|363:91,1,160,10|0,0:0|1:0,0:0:0:0:
217,17,88183,1,10,0:0:0:0:
133,45,88406,1,8,0:0:0:0:
104,128,88628,1,0,1:0:0:0:
116,215,88850,2,0,L|181:208,1,40,10|8,0:0|0:0,0:0:0:0:
188,302,89072,6,0,L|8:287,1,160,8|0,0:0|1:0,0:0:0:0:
246,227,89961,6,0,P|281:282|261:350,1,120,8|0,0:0|0:0,0:0:0:0:
262,353,90406,1,0,1:0:0:0:
349,345,90628,1,10,0:0:0:0:
436,333,90850,6,0,L|432:377,2,40,10|0|0,0:2|3:0|3:0,0:0:0:0:
470,251,91295,5,8,1:2:0:0:
463,232,91406,1,0,3:0:0:0:
452,215,91517,1,0,3:0:0:0:
437,202,91628,1,0,3:0:0:0:
419,193,91739,2,0,L|351:206,2,40,8|8|8,3:2|3:2|3:2,0:0:0:0:
474,97,92183,5,8,1:2:0:0:
444,95,92294,1,8,3:2:0:0:
414,93,92405,1,8,3:2:0:0:
384,91,92516,1,8,3:2:0:0:
354,89,92628,6,0,P|360:22|387:-7,1,80,4|0,1:0|3:0,0:0:0:0:
375,10,92961,1,0,3:0:0:0:
382,6,93072,2,0,P|316:25|281:13,1,80,4|4,1:2|3:3,0:0:0:0:
223,0,93517,1,0,1:0:0:0:
23,169,93961,6,0,P|65:180|102:166,1,60.0000022888184,2|0,0:0|0:0,0:0:0:0:
158,138,94406,5,4,0:2:0:0:
77,268,94628,2,0,P|34:249|15:206,1,95.9999970703126,0|0,0:0|1:0,0:0:0:0:
23,169,94961,1,0,0:0:0:0:
240,349,95295,5,10,0:0:0:0:
283,360,95406,1,0,1:2:0:0:
310,323,95517,1,0,0:0:0:0:
244,253,95739,1,8,1:2:0:0:
422,171,96183,6,0,P|403:271|418:363,2,191.999994140625,4|0|4,0:0|1:0|0:3,0:0:0:0:
428,165,97183,1,8,0:0:0:0:
435,158,97295,1,8,0:2:0:0:
277,95,97517,6,0,L|373:84,1,95.9999970703126,2|8,1:2|0:0,0:0:0:0:
201,37,97961,5,4,1:1:0:0:
201,37,98183,1,0,0:0:0:0:
59,185,98406,1,0,1:0:0:0:
204,182,98850,5,10,0:2:0:0:
195,172,98961,1,0,1:0:0:0:
56,40,99295,1,2,1:2:0:0:
51,299,99739,6,0,L|169:278,1,95.9999970703126,4|0,0:0|0:0,0:0:0:0:
153,293,100072,1,2,0:0:0:0:
161,301,100183,2,0,L|279:280,1,95.9999970703126,0|2,1:0|0:0,0:0:0:0:
364,355,100628,1,4,0:3:0:0:
377,321,100739,1,10,0:0:0:0:
402,296,100850,1,10,0:0:0:0:
436,284,100961,1,0,3:0:0:0:
471,286,101072,1,0,1:0:0:0:
456,382,101295,1,4,0:3:0:0:
380,268,101517,5,4,0:0:0:0:
512,181,101739,2,0,L|400:168,1,95.9999970703126,0|0,0:0|1:0,0:0:0:0:
408,149,102072,1,0,0:0:0:0:
213,128,102406,5,8,0:0:0:0:
261,123,102517,1,2,1:2:0:0:
309,120,102628,1,8,0:0:0:0:
210,21,102850,1,0,1:0:0:0:
19,167,103295,6,0,B|53:209|54:255|54:255|74:208|139:183,2,191.999994140625,4|0|4,0:0|1:0|0:3,0:0:0:0:
10,160,104295,1,10,0:0:0:0:
2,154,104406,1,8,0:0:0:0:
144,275,104628,6,0,P|192:279|232:305,1,95.9999970703126,0|10,1:0|0:0,0:0:0:0:
228,310,104961,1,0,0:0:0:0:
226,315,105072,1,4,0:1:0:0:
162,372,105295,1,0,0:0:0:0:
299,251,105517,5,0,1:0:0:0:
307,243,105628,2,0,P|354:251|406:295,1,95.9999970703126,0|10,0:0|0:0,0:0:0:0:
475,224,105961,1,8,0:0:0:0:
464,220,106072,2,0,P|446:175|458:108,1,95.9999970703126,0|10,1:0|0:0,0:0:0:0:
369,84,106406,2,0,B|320:91|320:91|277:78|277:78|197:95,1,143.999995605469,8|0,1:2|0:0,0:0:0:0:
236,102,106850,5,4,0:0:0:0:
143,128,107072,1,8,0:0:0:0:
143,128,107183,1,8,0:0:0:0:
143,128,107295,1,8,1:2:0:0:
155,32,107517,1,4,0:3:0:0:
8,125,107739,5,4,1:0:0:0:
8,125,107850,1,0,3:0:0:0:
8,125,107961,1,0,3:2:0:0:
150,247,108183,2,0,P|104:232|66:276,1,95.9999970703126,6|0,0:0|1:3,0:0:0:0:
211,346,108628,6,0,P|306:335|425:349,1,191.999994140625,4|0,0:2|1:0,0:0:0:0:
409,354,109183,1,0,0:0:0:0:
410,227,109517,5,10,0:0:0:0:
406,179,109628,1,0,1:2:0:0:
430,138,109739,1,0,0:0:0:0:
512,87,109961,1,2,1:2:0:0:
291,46,110406,6,0,P|256:140|304:241,2,191.999994140625,4|0|4,0:0|1:0|0:3,0:0:0:0:
296,41,111406,1,8,0:0:0:0:
300,35,111517,1,8,0:2:0:0:
127,101,111739,6,0,P|172:118|217:106,1,95.9999970703126,2|8,1:2|0:0,0:0:0:0:
36,21,112183,5,4,1:0:0:0:
36,21,112406,1,0,0:0:0:0:
51,220,112628,1,0,1:0:0:0:
216,107,113072,5,10,0:0:0:0:
204,113,113183,1,0,1:0:0:0:
36,21,113517,1,2,1:2:0:0:
35,316,113961,6,0,P|95:306|140:346,1,95.9999970703126,4|10,0:0|0:0,0:0:0:0:
132,333,114295,1,2,0:0:0:0:
138,343,114406,2,0,P|198:353|243:313,1,95.9999970703126,0|0,1:0|0:3,0:0:0:0:
370,223,114850,5,4,0:3:0:0:
357,256,114961,1,8,0:0:0:0:
356,292,115072,1,8,0:0:0:0:
367,326,115183,1,0,3:0:0:0:
388,355,115294,1,0,1:0:0:0:
475,278,115517,1,4,0:3:0:0:
333,206,115739,5,4,0:0:0:0:
243,269,115961,2,0,P|240:302|250:371,1,95.9999970703126,0|0,0:0|1:0,0:0:0:0:
259,368,116295,1,0,0:0:0:0:
144,151,116628,5,2,0:0:0:0:
141,103,116739,1,0,1:0:0:0:
163,60,116850,1,0,0:0:0:0:
232,126,117072,1,0,1:0:0:0:
53,377,117517,6,0,B|99:390|144:364|144:364|191:328|271:347,2,191.999994140625,4|0|4,0:0|1:0|0:3,0:0:0:0:
47,369,118517,1,8,0:0:0:0:
42,358,118628,1,8,0:0:0:0:
108,210,118850,2,0,P|56:231|13:204,1,95.9999970703126,4|4,1:0|0:3,0:0:0:0:
18,207,119184,1,10,0:0:0:0:
13,199,119295,5,4,0:0:0:0:
108,210,119517,1,0,0:0:0:0:
203,221,119739,1,0,1:0:0:0:
279,162,119961,5,10,0:0:0:0:
273,130,120072,1,10,0:0:0:0:
267,99,120184,1,8,0:0:0:0:
277,92,120295,5,0,1:0:0:0:
456,260,120628,1,2,1:2:0:0:
90,352,121072,5,6,0:0:0:0:
200,301,121295,5,10,0:0:0:0:
191,278,121406,1,8,0:0:0:0:
181,255,121517,2,0,L|93:270,2,47.9999985351563,0|0|4,1:3|0:0|0:3,0:0:0:0:
317,113,121961,5,4,1:0:0:0:
317,113,122072,1,10,0:0:0:0:
317,113,122183,1,10,0:0:0:0:
436,205,122406,2,0,P|391:221|348:203,1,95.9999970703126,6|8,0:0|0:0,0:0:0:0:
317,113,122850,6,0,L|139:133,1,143.999995605469,4|8,1:0|0:0,0:0:0:0:
152,115,123295,2,0,L|113:110,8,23.9999992675781,0|0|8|0|4|0|8|0|4,1:0|0:0|0:2|0:0|0:3|0:0|0:0|0:0|1:0,0:0:0:0:
26,321,124628,6,0,B|119:323|119:323|234:229|234:229|365:236,1,360.000013732911,4|2,0:1|0:0,0:0:0:0:
416,309,126183,1,0,0:0:0:0:
416,309,126628,1,0,0:0:0:0:
494,55,127294,5,2,0:0:0:0:
446,143,127739,1,0,0:0:0:0:
440,142,127961,1,0,0:0:0:0:
433,144,128183,2,0,P|383:72|394:19,1,120.000004577637
192,30,129072,6,0,P|237:31|278:39,1,60.0000022888184,0|2,0:0|0:0,0:0:0:0:
226,126,129517,1,0,0:0:0:0:
226,126,129739,1,2,0:0:0:0:
198,217,129961,2,0,P|120:202|0:160,1,180.000006866455
104,345,131072,6,0,P|79:341|25:353,2,60.0000022888184
198,365,131739,2,0,B|265:302|265:302|351:365,1,180.000006866455,8|0,0:0|0:0,0:0:0:0:
469,104,133072,5,2,0:0:0:0:
475,117,133295,2,0,P|408:157|361:138,1,120.000004577637
0,95,134406,6,0,P|59:99|116:119,1,120.000004577637,2|0,0:0|0:0,0:0:0:0:
120,133,135072,1,0,0:0:0:0:
123,147,135295,2,0,P|188:126|268:126,2,120.000004577637,8|0|0,0:0|0:0|0:0,0:0:0:0:
63,227,136406,2,0,P|29:214|-10:219,2,60.0000022888184,0|2|0,0:0|0:0|0:0,0:0:0:0:
111,294,137072,6,0,P|225:273|278:368,1,240,8|0,0:0|0:0,0:0:0:0:
357,75,138947,5,2,0:0:0:0:
256,192,139080,12,0,145375,0:0:0:0:
