osu file format v14

[General]
AudioFilename: audio.mp3
AudioLeadIn: 0
PreviewTime: 184
Countdown: 0
SampleSet: Soft
StackLeniency: 0.7
Mode: 0
LetterboxInBreaks: 0
WidescreenStoryboard: 1

[Editor]
DistanceSpacing: 1.3
BeatDivisor: 2
GridSize: 4
TimelineZoom: 1

[Metadata]
Title:HesitationSnow
TitleUnicode:HesitationSnow
Artist:fripSide
ArtistUnicode:fripSide
Creator:Fushimi Rio
Version:PinkHeart's Snowy
Source:はつゆきさくら
Tags:hesitation snow saga planets eroge visual novel opening Hatsuyuki Sakura PinkHeart Fia Garden Yorita Yoshino Japanese pop jpop
BeatmapID:3307195
BeatmapSetID:1329838

[Difficulty]
HPDrainRate:8
CircleSize:4
OverallDifficulty:8
ApproachRate:9.3
SliderMultiplier:2.7
SliderTickRate:2

[Events]
//Background and Video events
0,0,"1.jpg",0,0
//Break Periods
2,53717,63629
//Storyboard Layer 0 (Background)
//Storyboard Layer 1 (Fail)
//Storyboard Layer 2 (Pass)
//Storyboard Layer 3 (Foreground)
//Storyboard Layer 4 (Overlay)
//Storyboard Sound Samples

[TimingPoints]
184,444.444444444444,4,2,1,100,1,0
184,-200,4,2,1,100,0,0
10850,-200,4,2,1,5,0,0
14406,-200,4,2,1,45,0,0
26850,-133.333333333333,4,2,1,60,0,0
28628,-133.333333333333,4,2,2,40,0,0
29517,-133.333333333333,4,2,2,50,0,0
30406,-133.333333333333,4,2,2,60,0,0
31295,-133.333333333333,4,2,2,70,0,0
32183,-133.333333333333,4,2,2,80,0,0
33072,-133.333333333333,4,2,2,90,0,0
33961,-100,4,2,2,100,0,0
35295,-133.333333333333,4,2,1,100,0,0
35739,-133.333333333333,4,2,2,100,0,1
35850,-133.333333333333,4,2,1,70,0,1
36072,-133.333333333333,4,2,2,70,0,1
36628,-133.333333333333,4,2,2,40,0,1
36739,-133.333333333333,4,2,2,70,0,1
37517,-133.333333333333,4,2,2,50,0,1
37628,-133.333333333333,4,2,1,70,0,1
37739,-133.333333333333,4,2,2,70,0,1
38406,-133.333333333333,4,2,2,60,0,1
40183,-133.333333333333,4,2,2,40,0,1
40295,-133.333333333333,4,2,2,70,0,1
41961,-133.333333333333,4,2,2,50,0,1
42072,-133.333333333333,4,2,2,70,0,1
42850,-133.333333333333,4,2,2,100,0,1
42961,-133.333333333333,4,2,1,70,0,1
43183,-133.333333333333,4,2,2,70,0,1
43739,-133.333333333333,4,2,2,40,0,1
43850,-133.333333333333,4,2,2,70,0,1
44628,-100,4,2,2,70,0,1
44961,-133.333333333333,4,2,2,70,0,1
45295,-100,4,2,2,70,0,1
45517,-100,4,2,2,50,0,1
45739,-133.333333333333,4,2,2,70,0,1
47295,-133.333333333333,4,2,2,40,0,1
47406,-133.333333333333,4,2,2,70,0,1
48406,-100,4,2,2,70,0,1
48628,-100,4,2,2,60,0,1
49072,-100,4,2,2,70,0,1
49183,-100,4,2,2,100,0,1
49961,-133.333333333333,4,2,1,100,0,0
51739,-133.333333333333,4,2,1,80,0,0
53517,-133.333333333333,4,2,1,60,0,0
64183,-133.333333333333,4,2,2,50,0,0
65961,-111.111111111111,4,2,2,50,0,0
66295,-133.333333333333,4,2,2,50,0,0
70183,-100,4,2,2,50,0,0
70406,-133.333333333333,4,2,2,50,0,0
73072,-111.111111111111,4,2,2,50,0,0
73517,-133.333333333333,4,2,2,50,0,0
78406,-133.333333333333,4,2,1,50,0,0
80183,-133.333333333333,4,2,2,50,0,0
82739,-133.333333333333,4,2,1,50,0,0
83739,-133.333333333333,4,2,2,50,0,0
86295,-133.333333333333,4,2,1,50,0,0
87295,-133.333333333333,4,2,2,50,0,0
88739,-133.333333333333,4,2,2,50,0,0
89739,-133.333333333333,4,2,1,50,0,0
90072,-133.333333333333,4,2,2,50,0,0
90517,-133.333333333333,4,2,1,30,0,0
90628,-133.333333333333,4,2,2,50,0,0
91739,-100,4,2,2,65,0,0
92628,-100,4,2,1,80,0,0
93628,-200,4,2,1,40,0,0
94406,-100,4,2,2,100,0,1
94517,-100,4,2,1,70,0,1
94739,-100,4,2,2,70,0,1
96405,-100,4,2,1,70,0,1
96850,-100,4,2,2,70,0,1
97072,-100,4,2,2,60,0,1
97517,-100,4,2,2,70,0,1
100072,-100,4,2,1,70,0,1
100406,-100,4,2,2,70,0,1
106850,-90.9090909090909,4,2,2,70,0,1
108183,-100,4,2,2,60,0,1
108628,-100,4,2,2,70,0,1
110628,-100,4,2,1,70,0,1
111183,-100,4,2,2,70,0,1
114295,-100,4,2,1,70,0,1
114628,-100,4,2,2,70,0,1
117850,-100,4,2,1,70,0,1
118183,-100,4,2,2,70,0,1
119517,-100,4,2,2,5,0,1
119628,-100,4,2,2,70,0,1
121072,-80,4,2,2,70,0,1
123739,-100,4,2,1,100,0,0
124628,-200,4,2,1,40,0,0
137072,468.75,4,2,1,50,1,0
137072,-200,4,2,1,50,0,0
137189,-200,4,2,1,5,0,0
138009,-133.333333333333,4,2,1,30,0,0
138126,-133.333333333333,4,2,1,8,0,0
138712,-133.333333333333,4,2,1,5,0,0
138947,535.714285714286,4,2,1,30,1,0
138947,-200,4,2,1,30,0,0
139214,-200,4,2,2,20,0,0
139482,-200,4,2,2,30,0,0
139750,-200,4,2,2,40,0,0
140018,-200,4,2,2,50,0,0
140286,-200,4,2,2,60,0,0
140554,-200,4,2,2,70,0,0
140822,-200,4,2,2,80,0,0
141089,-200,4,2,1,45,0,0

[Colours]
Combo1 : 206,206,206
Combo2 : 142,173,255
Combo3 : 235,158,254
Combo4 : 155,245,255

[HitObjects]
132,220,14406,6,0,P|92:336|28:380,2,202.5,4|0|2,0:1|0:0|0:0,0:0:0:0:
100,152,15961,2,0,P|156:188|232:188,1,135,0|2,0:0|0:0,0:0:0:0:
304,172,16628,2,0,P|369:169|439:222,1,135
272,380,17517,1,0,0:0:0:0:
300,312,17739,1,0,0:0:0:0:
348,256,17961,6,0,P|360:200|340:124,1,135,8|0,0:0|0:0,0:0:0:0:
272,100,18628,2,0,P|204:92|145:62,1,135
104,124,19295,1,0,0:0:0:0:
104,124,19517,2,0,P|64:180|4:208,2,135,2|0|0,0:0|0:0|0:0,0:0:0:0:
176,160,20628,2,0,L|236:192,1,67.5,2|0,0:0|0:0,0:0:0:0:
188,264,21072,2,0,L|128:232,1,67.5
112,328,21517,6,0,P|204:316|244:332,1,135,8|0,0:0|0:0,0:0:0:0:
316,364,22183,2,0,P|380:381|445:366,1,135
512,332,22850,1,2,0:0:0:0:
484,176,23072,2,0,L|416:292,1,135
360,240,23739,2,0,P|288:272|232:268,1,135,0|2,0:0|0:0,0:0:0:0:
164,288,24406,2,0,L|99:309,2,67.5
144,220,25072,6,0,P|116:168|144:32,2,202.5,8|0|2,0:0|0:0|0:0,0:0:0:0:
148,296,26628,1,0,0:0:0:0:
206,349,26850,5,2,0:0:0:0:
208,192,27072,1,0,0:0:0:0:
208,192,27183,1,0,0:0:0:0:
208,192,27295,1,0,3:0:0:0:
70,268,27517,1,0,0:0:0:0:
264,272,27739,5,0,3:3:0:0:
264,272,27850,1,0,0:0:0:0:
264,272,27961,1,0,0:0:0:0:
114,182,28183,1,4,0:1:0:0:
110,358,28406,2,0,L|188:316,1,50.6250019311906
186,318,28628,5,4,1:0:0:0:
186,318,28739,1,0,0:0:0:0:
186,318,28850,2,0,L|236:317,1,50.6250019311906
288,384,29072,5,8,0:0:0:0:
288,384,29183,1,0,0:0:0:0:
288,384,29294,2,0,L|322:347,1,50.6250019311906
407,357,29517,5,8,0:0:0:0:
407,357,29628,1,0,0:0:0:0:
407,357,29739,2,0,L|406:306,1,50.6250019311906
473,254,29961,5,8,0:0:0:0:
473,254,30072,1,0,0:0:0:0:
473,254,30183,2,0,L|417:202,1,50.6250019311906
395,233,30406,5,10,0:2:0:0:
349,229,30517,1,0,0:0:0:0:
309,209,30628,2,0,P|285:191|266:172,1,50.6250019311906
271,287,30850,5,8,0:2:0:0:
233,261,30961,1,0,0:0:0:0:
208,224,31072,2,0,P|196:197|189:171,1,50.6250019311906
137,274,31295,5,8,0:2:0:0:
118,233,31406,1,0,0:0:0:0:
114,188,31517,2,0,P|117:159|124:133,1,50.6250019311906
37,182,31739,6,0,P|19:205|0:224,1,50.6250019311906,8|0,0:2|0:0,0:0:0:0:
51,107,31961,2,0,P|68:83|87:64,1,50.6250019311906,10|0,0:2|0:0,0:0:0:0:
152,40,32183,6,0,L|200:56,3,50.6250019311906,10|0|0|0,0:2|3:0|3:0|3:0,0:0:0:0:
296,88,32628,6,0,L|258:121,3,50.6250019311906,10|0|0|0,0:2|3:0|3:0|3:0,0:0:0:0:
176,180,33072,6,0,L|224:196,3,50.6250019311906,2|8|8|8,3:2|3:2|3:2|3:2,0:0:0:0:
320,228,33517,6,0,L|282:261,3,50.6250019311906,2|0|2|0,3:2|3:2|3:2|3:2,0:0:0:0:
224,308,33961,6,0,L|159:284,1,67.5,2|0,3:2|3:2,0:0:0:0:
125,324,34183,2,0,L|112:257,1,67.5,8|8,3:2|3:2,0:0:0:0:
62,248,34406,2,0,L|111:204,1,67.5,2|0,3:2|3:2,0:0:0:0:
95,154,34628,2,0,L|156:177,1,67.5,2|0,3:2|3:2,0:0:0:0:
193,136,34850,2,0,L|203:202,1,67.5,4|8,3:1|3:2,0:0:0:0:
258,213,35073,2,0,L|204:256,1,67.5,8|0,0:2|0:2,0:0:0:0:
160,231,35295,5,4,1:1:0:0:
0,89,35739,6,0,P|52:113|144:105,1,151.875005793572,4|0,0:2|0:0,0:0:0:0:
212,69,36183,2,0,P|260:53|308:65,1,101.250003862381,0|0,1:0|0:0,0:0:0:0:
368,111,36517,1,0,0:3:0:0:
460,68,36628,5,10,0:0:0:0:
392,204,36739,1,0,1:2:0:0:
392,204,36961,5,0,0:0:0:0:
460,68,37072,2,0,P|408:52|360:60,1,101.250003862381,2|2,1:2|0:0,0:0:0:0:
208,148,37517,6,0,L|104:172,1,101.250003862381,4|0,0:3|0:0,0:0:0:0:
104,248,37850,1,0,0:0:0:0:
104,248,37961,2,0,L|5:225,1,101.250003862381,0|8,1:0|0:0,0:0:0:0:
0,148,38295,1,0,0:0:0:0:
164,304,38406,2,0,L|200:339,2,50.6250019311906,4|10|10,0:3|0:0|0:2,0:0:0:0:
416,148,38850,2,0,L|462:167,1,50.6250019311906,0|0,1:0|0:0,0:0:0:0:
400,64,39072,2,0,L|450:71,1,50.6250019311906,8|0,0:0|0:0,0:0:0:0:
412,236,39295,6,0,L|300:228,1,101.250003862381,4|0,0:0|0:0,0:0:0:0:
231,320,39628,1,0,0:0:0:0:
231,320,39739,2,0,L|332:328,1,101.250003862381,0|0,1:0|0:0,0:0:0:0:
240,350,40183,5,8,0:0:0:0:
136,236,40295,1,0,1:0:0:0:
112,244,40406,1,8,0:0:0:0:
90,252,40517,1,10,0:0:0:0:
49,344,40628,1,2,1:2:0:0:
0,99,40850,1,2,0:0:0:0:
72,152,41072,6,0,B|168:120,1,101.250003862381,4|0,0:0|0:0,0:0:0:0:
150,212,41406,1,2,0:0:0:0:
150,212,41517,2,0,L|235:266,1,101.250003862381,0|2,1:0|0:0,0:0:0:0:
331,319,41850,1,0,0:3:0:0:
272,196,41961,2,0,L|246:143,2,50.6250019311906,4|10|10,0:3|0:0|0:0,0:0:0:0:
488,356,42406,2,0,L|512:312,1,50.6250019311906,0|0,1:0|0:0,0:0:0:0:
448,268,42628,2,0,L|482:231,1,50.6250019311906,4|0,0:3|0:0,0:0:0:0:
428,168,42850,6,0,P|368:200|284:192,1,151.875005793572,4|0,0:0|0:0,0:0:0:0:
218,163,43295,2,0,L|176:256,1,101.250003862381,0|0,1:0|0:0,0:0:0:0:
140,328,43628,1,0,0:0:0:0:
96,244,43739,5,10,0:0:0:0:
0,366,43850,1,0,1:0:0:0:
0,366,44072,5,8,0:0:0:0:
184,264,44183,2,0,L|282:207,1,101.250003862381,0|2,1:0|0:0,0:0:0:0:
412,124,44628,6,0,P|445:65|436:0,1,135,4|0,0:0|0:0,0:0:0:0:
344,172,44961,2,0,P|400:204|460:188,1,101.250003862381,2|2,0:0|0:0,0:0:0:0:
332,52,45295,2,0,L|296:124,1,67.5,0|2,0:0|0:0,0:0:0:0:
268,176,45517,2,0,B|248:204|248:204|196:184|148:204,1,135,4|10,0:3|0:0,0:0:0:0:
56,384,45961,2,0,L|95:344,1,50.6250019311906,0|0,1:0|0:0,0:0:0:0:
160,384,46183,2,0,L|172:334,1,50.6250019311906,10|0,0:0|0:0,0:0:0:0:
247,356,46406,6,0,L|260:256,1,101.250003862381,4|0,0:0|0:0,0:0:0:0:
268,176,46739,1,0,0:0:0:0:
384,280,46850,2,0,P|476:304|505:296,1,101.250003862381,0|2,1:0|0:0,0:0:0:0:
372,168,47183,1,2,0:0:0:0:
384,280,47295,5,10,0:0:0:0:
460,92,47406,1,0,1:0:0:0:
460,92,47628,5,10,0:0:0:0:
304,284,47739,2,0,L|204:308,1,101.250003862381,2|0,1:2|0:0,0:0:0:0:
40,132,48183,5,6,0:0:0:0:
321,209,48406,1,8,0:0:0:0:
321,209,48517,1,8,0:0:0:0:
321,209,48628,2,0,L|386:226,1,67.5,0|0,1:3|0:0,0:0:0:0:
190,174,48850,2,0,L|125:157,1,67.5,4|0,0:3|0:0,0:0:0:0:
273,257,49072,2,0,L|290:322,1,67.5,4|10,1:0|0:0,0:0:0:0:
238,126,49294,2,0,L|221:61,1,67.5,10|0,0:0|0:0,0:0:0:0:
208,239,49517,2,0,L|160:287,1,67.5,12|0,0:0|0:0,0:0:0:0:
303,144,49739,2,0,L|351:96,1,67.5,8|0,0:0|0:0,0:0:0:0:
104,344,49961,5,4,1:0:0:0:
256,192,50072,12,4,53517,0:0:0:0:
172,80,64183,5,4,0:0:0:0:
124,192,64406,1,0,0:0:0:0:
216,148,64628,2,0,P|260:176|312:184,1,101.250003862381,0|0,1:0|0:0,0:0:0:0:
392,124,64961,1,0,0:0:0:0:
392,124,65072,2,0,P|448:88|484:84,1,101.250003862381,8|0,0:0|0:0,0:0:0:0:
408,220,65517,2,0,P|396:268|360:304,1,101.250003862381,0|0,1:0|0:0,0:0:0:0:
204,368,65961,6,0,B|246:339|246:339|200:283|225:216,1,182.249994438172,4|0,0:3|0:0,0:0:0:0:
252,148,66406,2,0,P|285:115|350:104,1,101.250003862381,0|0,1:0|0:0,0:0:0:0:
456,200,66739,1,0,0:0:0:0:
456,200,66850,2,0,P|400:216|356:208,1,101.250003862381,8|0,0:0|0:0,0:0:0:0:
252,148,67295,1,0,1:0:0:0:
156,264,67517,1,8,0:0:0:0:
104,80,67739,6,0,P|156:56|200:52,1,101.250003862381
280,116,68072,1,0,0:0:0:0:
280,116,68183,2,0,P|330:110|375:87,1,101.250003862381,0|0,1:0|0:0,0:0:0:0:
488,136,68628,2,0,P|436:216|456:320,2,202.500007724762,8|0|8,0:0|1:0|0:0,0:0:0:0:
320,248,69739,1,0,0:0:0:0:
320,248,69850,1,0,0:0:0:0:
320,248,69961,2,0,P|252:248|184:211,1,101.250003862381,0|0,1:0|0:0,0:0:0:0:
156,136,70406,5,8,0:0:0:0:
220,56,70517,1,0,1:2:0:0:
232,52,70739,5,0,0:0:0:0:
220,204,70850,2,0,L|118:226,1,101.250003862381,2|10,1:2|0:0,0:0:0:0:
120,380,71295,6,0,P|172:352|200:319,1,101.250003862381,10|0,0:0|0:0,0:0:0:0:
220,204,71739,2,0,P|256:240|304:256,1,101.250003862381,0|0,1:0|0:0,0:0:0:0:
404,256,72072,1,0,0:0:0:0:
404,256,72183,2,0,P|451:239|486:204,1,101.250003862381,8|0,0:0|0:0,0:0:0:0:
348,36,72628,2,0,P|348:88|372:132,1,101.250003862381,0|0,1:0|0:0,0:0:0:0:
456,260,73072,6,0,B|427:296|427:296|365:267|300:317,1,182.249994438172,4|0,0:3|0:0,0:0:0:0:
248,368,73517,2,0,P|201:384|152:372,1,101.250003862381,0|0,1:0|0:0,0:0:0:0:
88,332,73850,1,0,0:0:0:0:
88,232,73961,2,0,P|144:264|160:296,1,101.250003862381,8|0,0:0|0:0,0:0:0:0:
88,332,74406,1,0,1:0:0:0:
192,172,74628,1,8,0:0:0:0:
320,252,74850,6,0,P|376:252|416:232,1,101.250003862381,8|0,0:0|0:0,0:0:0:0:
484,160,75183,1,0,0:0:0:0:
484,160,75295,2,0,P|503:107|498:62,1,101.250003862381,0|0,1:0|0:0,0:0:0:0:
328,48,75739,1,8,0:0:0:0:
412,232,75961,1,0,0:0:0:0:
296,268,76183,2,0,P|238:271|198:255,1,101.250003862381,0|0,1:0|0:0,0:0:0:0:
328,48,76628,6,0,P|321:105|298:141,1,101.250003862381,8|0,0:0|0:0,0:0:0:0:
232,180,76961,1,0,0:0:0:0:
132,100,77072,2,0,P|184:77|227:79,1,101.250003862381,0|2,1:0|0:0,0:0:0:0:
117,295,77517,1,10,0:0:0:0:
90,257,77628,1,10,0:0:0:0:
91,212,77739,1,0,3:0:0:0:
118,175,77850,1,0,3:0:0:0:
122,129,77961,1,8,1:2:0:0:
115,85,78072,1,8,0:2:0:0:
100,44,78183,5,8,3:2:0:0:
100,44,78295,1,8,3:2:0:0:
100,44,78406,2,0,P|200:72|280:40,1,151.875005793572,4|0,0:0|0:0,0:0:0:0:
312,24,78850,2,0,P|364:8|412:16,1,101.250003862381,0|0,1:0|0:0,0:0:0:0:
244,148,79295,1,0,0:0:0:0:
372,248,79517,1,2,0:0:0:0:
368,96,79739,1,0,1:0:0:0:
240,240,79961,5,0,0:0:0:0:
240,240,80072,1,0,0:0:0:0:
240,240,80183,2,0,P|260:308|300:336,1,101.250003862381,8|0,0:0|0:0,0:0:0:0:
484,208,80628,1,0,1:0:0:0:
328,252,80850,1,0,0:0:0:0:
368,96,81072,1,2,0:0:0:0:
428,280,81295,1,2,0:0:0:0:
240,240,81517,2,0,P|187:240|141:256,1,101.250003862381,0|8,1:0|0:0,0:0:0:0:
48,100,81961,6,0,P|132:108|184:148,1,151.875005793572,10|0,0:0|0:0,0:0:0:0:
224,212,82406,2,0,P|273:248|312:255,1,101.250003862381,0|0,1:0|0:0,0:0:0:0:
420,216,82739,1,2,0:0:0:0:
420,216,82850,2,0,P|370:179|331:172,1,101.250003862381,0|2,0:0|0:0,0:0:0:0:
232,320,83295,1,0,1:0:0:0:
356,168,83517,1,0,0:0:0:0:
368,124,83628,1,0,0:0:0:0:
360,80,83739,6,0,P|408:75|455:95,1,101.250003862381,10|0,0:0|0:0,0:0:0:0:
488,192,84072,1,0,0:0:0:0:
488,192,84183,2,0,P|439:196|392:176,1,101.250003862381,0|10,1:0|0:0,0:0:0:0:
284,124,84628,1,10,0:0:0:0:
257,312,84850,1,8,0:0:0:0:
108,195,85072,1,0,1:0:0:0:
304,244,85295,1,8,0:0:0:0:
92,309,85517,6,0,P|157:272|196:208,1,151.875005793572,4|0,0:0|0:0,0:0:0:0:
227,137,85961,2,0,P|264:103|312:88,1,101.250003862381,0|0,1:0|0:0,0:0:0:0:
388,100,86295,1,2,0:0:0:0:
407,224,86406,2,0,P|358:215|316:188,1,101.250003862381,0|2,0:0|0:0,0:0:0:0:
152,352,86850,1,0,1:0:0:0:
284,280,87072,1,2,0:0:0:0:
204,200,87295,6,0,P|144:180|108:184,1,101.250003862381,10|0,0:0|0:0,0:0:0:0:
68,196,87628,1,0,0:0:0:0:
36,212,87739,1,0,1:0:0:0:
136,292,87961,1,10,0:0:0:0:
220,108,88183,2,0,P|264:136|311:142,1,101.250003862381,10|8,0:0|0:0,0:0:0:0:
288,24,88628,1,0,1:0:0:0:
128,76,88850,5,10,0:0:0:0:
108,106,88961,1,8,0:0:0:0:
81,127,89072,2,0,P|46:163|36:212,1,101.250003862381,8|0,0:0|0:0,0:0:0:0:
76,280,89406,2,0,B|112:292|112:292|148:248|220:244,1,151.875005793572,0|2,0:0|0:0,0:0:0:0:
244,88,89961,1,0,0:0:0:0:
292,284,90183,1,2,0:0:0:0:
292,284,90295,2,0,P|344:295|387:283,1,101.250003862381
452,248,90628,1,10,0:0:0:0:
478,116,90850,5,10,0:2:0:0:
476,107,90961,1,0,3:0:0:0:
473,98,91072,1,0,3:0:0:0:
469,89,91183,1,0,3:0:0:0:
463,82,91295,1,8,1:2:0:0:
455,77,91406,1,0,3:0:0:0:
446,75,91517,1,0,3:0:0:0:
436,76,91628,1,0,3:0:0:0:
424,76,91740,6,0,L|345:87,1,67.5,8|8,3:2|3:2,0:0:0:0:
297,245,91962,2,0,L|364:236,1,67.5,8|8,3:2|3:2,0:0:0:0:
396,156,92184,6,0,L|304:169,1,67.5,8|8,1:2|3:2,0:0:0:0:
269,325,92406,2,0,L|336:316,1,67.5,8|8,3:2|3:2,0:0:0:0:
356,312,92628,5,4,1:0:0:0:
373,305,92702,1,0,0:0:0:0:
388,293,92776,1,0,0:0:0:0:
399,278,92850,1,0,3:0:0:0:
405,261,92924,1,0,0:0:0:0:
407,242,92999,1,0,0:0:0:0:
404,223,93073,5,4,1:2:0:0:
355,209,93147,1,0,0:0:0:0:
305,214,93221,1,0,0:0:0:0:
260,236,93295,1,4,3:3:0:0:
223,272,93369,1,0,0:0:0:0:
198,316,93443,1,0,0:0:0:0:
184,364,93517,1,0,1:0:0:0:
175,155,93961,6,0,P|193:127|200:94,1,67.5,2|0,0:0|0:0,0:0:0:0:
196,70,94406,6,0,P|128:114|84:224,1,202.5,4|0,0:2|0:0,0:0:0:0:
101,302,94850,2,0,B|131:329|131:329|176:300|224:312,1,135,0|0,1:0|0:0,0:0:0:0:
272,256,95183,1,0,0:3:0:0:
232,384,95295,1,10,0:0:0:0:
144,208,95406,1,0,1:2:0:0:
131,204,95628,5,8,0:0:0:0:
306,289,95739,2,0,L|366:318,1,67.5,8|0,1:2|0:0,0:0:0:0:
293,208,95961,2,0,L|232:177,1,67.5,2|0,0:0|0:0,0:0:0:0:
114,114,96183,6,0,B|158:132|158:132|183:103|206:88|267:97,1,135,4|0,0:0|0:0,0:0:0:0:
305,139,96517,1,2,0:0:0:0:
293,283,96628,2,0,P|240:242|233:177,1,135,0|0,1:0|0:0,0:0:0:0:
305,139,96961,1,8,0:0:0:0:
233,178,97072,5,4,0:3:0:0:
201,46,97183,1,8,0:0:0:0:
123,233,97295,1,10,0:2:0:0:
373,101,97517,2,0,L|432:69,1,67.5,2|0,1:2|0:0,0:0:0:0:
297,67,97739,2,0,L|238:99,1,67.5,8|0,0:0|0:0,0:0:0:0:
61,198,97961,6,0,B|153:148|153:148|189:157,1,135,4|0,1:1|0:0,0:0:0:0:
296,184,98295,1,0,0:0:0:0:
253,257,98406,2,0,B|305:271|305:271|375:232,1,135,0|0,1:0|0:0,0:0:0:0:
464,48,98850,5,10,0:2:0:0:
378,234,98961,1,0,1:0:0:0:
375,247,99072,1,8,0:0:0:0:
371,259,99183,1,0,0:0:0:0:
192,160,99295,2,0,B|152:139|152:139|69:189,1,135,2|8,1:2|0:0,0:0:0:0:
236,228,99739,6,0,P|306:219|361:249,1,135,4|0,0:0|0:0,0:0:0:0:
152,240,100072,2,0,P|179:174|232:142,1,135,2|2,0:0|0:0,0:0:0:0:
204,307,100406,1,2,0:0:0:0:
77,199,100517,1,2,0:0:0:0:
308,116,100628,2,0,L|432:76,2,67.5,4|10|10,0:3|0:0|0:0,0:0:0:0:
124,316,101072,2,0,L|60:340,1,67.5,0|0,1:0|0:0,0:0:0:0:
152,240,101295,2,0,L|215:215,1,67.5,4|0,0:3|0:0,0:0:0:0:
300,116,101517,6,0,B|264:136|264:136|208:72|116:96,1,202.5,4|0,0:0|0:0,0:0:0:0:
280,44,101961,2,0,P|361:31|407:55,1,135,0|0,1:0|0:0,0:0:0:0:
452,112,102295,1,2,0:0:0:0:
376,220,102406,1,8,0:0:0:0:
280,44,102517,1,2,1:2:0:0:
280,44,102739,5,0,0:0:0:0:
268,272,102850,2,0,L|148:332,1,135,0|2,1:0|0:0,0:0:0:0:
96,220,103183,1,0,0:0:0:0:
112,132,103295,6,0,P|168:172|180:236,1,135,4|0,0:0|0:0,0:0:0:0:
36,100,103628,2,0,P|89:56|154:61,1,135,2|2,0:0|0:0,0:0:0:0:
224,99,103961,2,0,P|273:119|305:116,1,67.5,0|8,0:0|0:0,0:0:0:0:
360,104,104183,1,4,0:3:0:0:
272,196,104295,1,10,0:0:0:0:
320,0,104406,1,8,0:0:0:0:
252,272,104628,2,0,L|234:342,1,67.5,0|0,1:0|0:0,0:0:0:0:
332,244,104850,2,0,L|350:174,1,67.5,10|0,0:0|0:0,0:0:0:0:
140,148,105072,6,0,P|200:168|268:148,1,135,4|0,0:1|0:0,0:0:0:0:
376,68,105406,1,0,0:0:0:0:
376,68,105517,2,0,P|428:25|493:20,1,135,0|10,1:0|0:0,0:0:0:0:
362,209,105850,1,10,0:0:0:0:
480,144,105961,1,8,0:0:0:0:
285,82,106072,1,0,1:0:0:0:
285,82,106295,5,10,0:0:0:0:
362,209,106406,2,0,L|426:315,1,67.5,8|0,1:2|0:0,0:0:0:0:
308,328,106628,2,0,L|273:270,1,67.5,10|0,0:0|0:0,0:0:0:0:
178,223,106850,6,0,L|228:168,1,74.2500022659302,4|0,0:0|0:0,0:0:0:0:
332,60,107072,1,8,0:0:0:0:
278,113,107183,1,8,0:0:0:0:
228,168,107295,2,0,L|278:113,1,74.2500022659302,8|0,1:2|0:0,0:0:0:0:
451,14,107517,2,0,L|397:69,1,74.2500022659302,4|0,0:3|0:0,0:0:0:0:
232,56,107739,5,4,1:0:0:0:
264,40,107813,1,0,0:0:0:0:
300,40,107887,1,0,0:0:0:0:
332,60,107961,1,0,3:2:0:0:
348,92,108035,1,0,0:0:0:0:
343,129,108109,1,0,0:0:0:0:
320,157,108183,5,4,0:0:0:0:
309,189,108257,1,0,0:0:0:0:
308,223,108331,1,0,0:0:0:0:
317,255,108405,1,0,1:3:0:0:
336,283,108479,1,0,0:0:0:0:
362,304,108553,1,0,0:0:0:0:
393,317,108628,6,0,B|439:328|439:328|407:243|434:177,1,202.5,4|0,0:2|0:0,0:0:0:0:
487,98,109072,2,0,P|422:152|375:163,1,135,0|0,1:0|0:0,0:0:0:0:
292,161,109406,1,0,0:3:0:0:
388,60,109517,1,10,0:0:0:0:
404,316,109628,1,0,1:2:0:0:
404,316,109850,5,0,0:0:0:0:
292,160,109961,2,0,L|248:80,1,67.5,2|0,1:2|0:0,0:0:0:0:
280,244,110183,2,0,L|323:322,1,67.5,2|0,0:0|0:0,0:0:0:0:
112,270,110406,6,0,P|154:218|216:192,1,135,4|0,0:0|0:0,0:0:0:0:
347,218,110739,1,2,0:0:0:0:
347,218,110850,2,0,P|408:191|450:139,1,135,0|0,1:0|0:0,0:0:0:0:
468,60,111183,1,8,0:0:0:0:
372,120,111295,1,4,0:3:0:0:
511,188,111406,1,8,0:0:0:0:
511,0,111517,1,10,0:2:0:0:
512,264,111739,2,0,L|511:335,1,67.5,2|0,1:2|0:0,0:0:0:0:
445,224,111961,2,0,L|445:152,1,67.5,8|0,0:0|0:0,0:0:0:0:
381,269,112183,6,0,B|300:313|300:313|258:311,1,135,4|0,1:0|0:0,0:0:0:0:
216,304,112517,1,0,0:0:0:0:
191,162,112628,2,0,B|133:163|133:163|65:200,1,135,0|0,1:0|0:0,0:0:0:0:
118,352,113072,5,10,0:0:0:0:
191,162,113183,1,0,1:0:0:0:
196,149,113295,1,8,0:0:0:0:
201,136,113406,1,8,0:0:0:0:
216,304,113517,2,0,B|254:327|254:327|344:313,1,135,2|8,1:2|0:0,0:0:0:0:
359,121,113961,6,0,P|312:169|311:234,1,135,4|10,0:0|0:0,0:0:0:0:
412,60,114295,2,0,P|346:43|290:74,1,135,2|2,0:0|0:0,0:0:0:0:
386,201,114628,1,0,0:3:0:0:
290,74,114739,1,10,0:0:0:0:
200,256,114850,2,0,L|158:332,2,67.5,4|8|8,0:3|0:0|0:0,0:0:0:0:
412,60,115295,2,0,L|444:0,1,67.5,0|0,1:0|0:0,0:0:0:0:
417,141,115517,2,0,L|384:200,1,67.5,4|0,0:3|0:0,0:0:0:0:
340,296,115739,6,0,B|305:307|305:307|296:220|210:182,1,202.5,4|0,0:0|0:0,0:0:0:0:
360,224,116183,2,0,B|396:212|396:212|424:252|484:248,1,135,0|0,1:0|0:0,0:0:0:0:
416,320,116517,1,8,0:0:0:0:
468,160,116628,1,2,0:0:0:0:
512,356,116739,1,0,1:0:0:0:
512,356,116961,1,8,0:0:0:0:
360,224,117072,2,0,L|282:152,1,67.5,0|0,1:0|0:0,0:0:0:0:
256,56,117295,2,0,L|305:101,1,67.5,10|0,0:0|0:0,0:0:0:0:
444,236,117517,6,0,P|404:292|340:304,1,135,4|0,0:0|0:0,0:0:0:0:
388,172,117850,2,0,P|454:154|511:186,1,135,2|2,0:0|0:0,0:0:0:0:
444,236,118183,1,0,0:0:0:0:
388,84,118295,1,10,0:0:0:0:
308,272,118406,2,0,L|274:347,2,67.5,4|8|8,0:3|0:0|0:0,0:0:0:0:
415,22,118850,2,0,L|388:84,1,67.5,4|0,1:0|0:0,0:0:0:0:
276,161,119072,2,0,L|304:100,1,67.5,4|10,0:3|0:0,0:0:0:0:
322,223,119295,6,0,P|258:237|207:196,1,135,4|0,0:0|0:0,0:0:0:0:
180,124,119628,1,0,0:0:0:0:
64,204,119739,2,0,L|128:184,1,67.5,0|0,1:0|0:0,0:0:0:0:
180,124,119961,1,10,0:0:0:0:
160,256,120072,1,10,0:0:0:0:
100,112,120183,1,8,0:0:0:0:
240,268,120295,1,0,1:0:0:0:
240,268,120517,5,10,0:0:0:0:
100,112,120628,2,0,L|56:62,1,67.5,2|0,1:2|0:0,0:0:0:0:
180,124,120850,2,0,L|224:174,1,67.5,8|0,0:0|0:0,0:0:0:0:
332,300,121072,5,6,0:0:0:0:
200,146,121295,1,10,0:0:0:0:
200,146,121406,1,8,0:0:0:0:
200,146,121517,2,0,L|127:73,1,84.375,0|0,1:3|0:0,0:0:0:0:
302,243,121739,2,0,L|365:299,1,84.375,4|0,0:3|0:0,0:0:0:0:
270,122,121961,2,0,L|291:40,1,84.375,4|10,1:0|0:0,0:0:0:0:
234,261,122183,2,0,L|213:342,1,84.375,10|0,0:0|0:0,0:0:0:0:
321,172,122406,2,0,L|402:148,1,84.375,6|0,0:0|0:0,0:0:0:0:
184,211,122628,2,0,L|94:237,1,84.375,8|0,0:0|0:0,0:0:0:0:
4,204,122850,5,4,1:0:0:0:
26,165,122924,1,0,0:0:0:0:
65,142,122998,1,0,0:0:0:0:
109,136,123072,1,8,3:2:0:0:
151,146,123146,1,0,0:0:0:0:
188,171,123221,1,0,0:0:0:0:
229,188,123295,5,0,1:0:0:0:
273,193,123369,1,0,0:0:0:0:
316,180,123443,1,0,0:0:0:0:
351,151,123517,1,4,0:3:0:0:
362,107,123591,1,0,0:0:0:0:
355,63,123665,1,0,0:0:0:0:
325,28,123739,5,4,1:0:0:0:
380,220,124628,6,0,P|408:284|512:364,2,202.5,4|0|2,0:1|0:0|0:0,0:0:0:0:
424,156,126183,2,0,P|396:204|328:240,1,135
248,244,126850,2,0,P|193:234|136:182,1,135,0|2,0:0|0:0,0:0:0:0:
144,48,127739,1,0,0:0:0:0:
184,104,127961,1,0,0:0:0:0:
196,172,128183,6,0,P|192:228|132:312,1,135
216,348,128850,2,0,P|266:323|369:333,1,135,0|2,0:0|0:0,0:0:0:0:
358,242,129517,1,0,0:0:0:0:
358,242,129739,2,0,P|311:210|268:116,2,135,2|0|0,0:0|0:0|0:0,0:0:0:0:
432,204,130850,2,0,L|464:144,1,67.5,2|0,0:0|0:0,0:0:0:0:
404,80,131295,2,0,L|372:140,1,67.5
336,212,131739,6,0,P|264:180|232:136,1,135,8|0,0:0|0:0,0:0:0:0:
188,68,132406,2,0,P|125:43|59:54,1,135
116,132,133072,1,2,0:0:0:0:
116,132,133295,2,0,P|105:197|63:249,1,135
160,280,133961,2,0,P|212:324|236:384,1,135,0|2,0:0|0:0,0:0:0:0:
328,340,134628,2,0,L|389:304,2,67.5
236,384,135295,6,0,P|172:352|140:300,1,135,8|0,0:0|0:0,0:0:0:0:
139,299,135961,1,0,0:0:0:0:
164,160,136406,1,0,0:0:0:0:
192,208,136628,1,2,0:0:0:0:
244,220,136850,1,0,0:0:0:0:
288,188,137072,6,0,P|292:124|176:108,1,202.5
280,288,138009,6,0,P|372:183|324:40,1,303.750011587143,2|0,0:0|0:0,0:0:0:0:
20,172,138947,6,0,P|99:323|423:260,1,540,2|8,0:0|0:0,0:0:0:0:
